<?xml version="1.0" standalone="no"?>
<!DOCTYPE svg PUBLIC "-//W3C//DTD SVG 1.1//EN" "http://www.w3.org/Graphics/SVG/1.1/DTD/svg11.dtd" >
<svg xmlns="http://www.w3.org/2000/svg">
<metadata></metadata>
<defs>
<font id="coles_hpbold" horiz-adv-x="1247" >
<font-face units-per-em="2048" ascent="1638" descent="-410" />
<missing-glyph horiz-adv-x="403" />
<glyph unicode="&#xfb01;" horiz-adv-x="1161" d="M6 935q0 34 17 50q6 6 15 10t25.5 6.5t43 2.5t69.5 -3l-2 127q2 188 85 274.5t286 86.5q160 0 251 -24.5t113 -47.5q18 -18 19.5 -47t-21.5 -104q-39 10 -115.5 20t-168.5 10q-47 0 -82 -7t-57.5 -27.5t-34 -57.5t-11.5 -94v-111l520 7q47 0 65.5 -16.5t18.5 -51.5 l-2 -938l-262 -10q0 37 1 106.5t2 153.5t1 173v163q0 23 -1 53.5t-1 63t-1 61.5t-1 47q-66 -2 -150.5 -1t-191.5 5v-90v-117.5t1 -134.5t1 -137q0 -158 2 -336l-266 -10v198.5t1 223t1 219v184.5l-158 -4q-12 90 -12 124z" />
<glyph unicode="&#xfb02;" horiz-adv-x="1198" d="M6 935q0 34 17 50q14 12 38.5 16.5t98.5 -0.5v127q0 100 21.5 169t64.5 112t110.5 61.5t163.5 18.5q78 0 161 -9.5t153.5 -22.5t122 -28.5t63.5 -27.5q14 -14 19 -32.5t5 -59.5q-2 -125 -5 -392.5t-7 -652.5q0 -35 4 -52t17 -30q16 -16 50 -16t73 4q14 -72 11 -100.5 t-20 -44.5q-16 -14 -58 -23.5t-95 -9.5q-123 0 -179.5 50t-56.5 167q0 35 1 93t2 130t2 153t1 160q0 152 -3 295.5t-3 237.5q-33 8 -91 13t-97 5q-37 0 -67.5 -7t-52 -27.5t-34 -57.5t-12.5 -94l-2 -113l225 7q10 -88 7 -125t-19 -54q-6 -6 -18.5 -10t-35 -4t-61.5 1t-98 3 v-479q0 -158 2 -336l-266 -10v198.5t1 223t1 219v184.5l-142 -4q-12 90 -12 124z" />
<glyph unicode="&#xfb03;" horiz-adv-x="1759" d="M6 935q0 34 17 50q14 12 38.5 16.5t98.5 -0.5v123q0 100 20.5 166t60.5 106t98 56t134 16q51 0 108.5 -6t109.5 -16t95 -21.5t70 -21.5q35 41 101.5 63.5t183.5 22.5q145 0 243.5 -24.5t122.5 -47.5q8 -10 13.5 -20.5t5.5 -26.5t-4 -40.5t-17 -63.5q-41 10 -117.5 20 t-168.5 10q-47 0 -81 -7t-56.5 -27.5t-34 -57.5t-11.5 -94v-113l520 9q47 0 65.5 -16.5t18.5 -51.5l-2 -938l-264 -10q0 57 1 128.5t3 149.5t2 160v158q0 23 -1 53.5t-2 63t-1 61.5v47h-61t-90 1t-100.5 2t-90.5 1v-92v-119.5t1 -134.5t1 -137q0 -158 2 -332l-268 -10v198.5 t1 223t1 219v184.5q-53 -2 -150.5 -2t-199.5 2v-483q0 -158 2 -332l-266 -10v198.5t1 223t1 219v184.5l-142 -4q-12 90 -12 124zM422 997l350 7v124q0 49 6 84t10 48q-47 6 -108.5 12t-110.5 6q-76 0 -111.5 -36t-35.5 -136v-109z" />
<glyph unicode="&#xfb04;" horiz-adv-x="1812" d="M6 935q0 34 17 50q14 12 38.5 16.5t98.5 -0.5v123q0 100 20.5 166t60.5 106t98 56t134 16q51 0 106.5 -6t106.5 -16t93 -21.5t69 -21.5q86 86 285 86q80 0 162.5 -9.5t153.5 -22.5t121 -28.5t62 -27.5q14 -14 20.5 -32.5t4.5 -59.5q0 -125 -3 -392.5t-7 -652.5 q0 -35 4 -52t16 -30q16 -14 49 -15t74 3q14 -72 10 -100.5t-20 -44.5q-14 -14 -57.5 -23.5t-96.5 -9.5q-123 0 -179 50t-56 167q0 35 1 93t2 130t2 153t1 160q0 152 -2 295.5t-4 237.5q-33 8 -91.5 13t-97.5 5q-37 0 -67.5 -7t-52 -27.5t-34 -57.5t-12.5 -94v-113l226 7 q10 -88 7 -125t-20 -54q-8 -6 -20 -10t-35 -4t-61.5 1t-98.5 3l4 -815l-268 -10l2 825q-25 -2 -63.5 -2h-86t-98.5 1t-102 1v-483q0 -158 2 -332l-266 -10l2 825l-142 -4q-12 90 -12 124zM422 997l350 7v129q0 31 3 66.5t13 60.5q-49 6 -109.5 12t-109.5 6q-76 0 -111.5 -36 t-35.5 -136v-109z" />
<glyph unicode="&#xd;" horiz-adv-x="421" />
<glyph horiz-adv-x="0" />
<glyph horiz-adv-x="0" />
<glyph unicode=" "  horiz-adv-x="403" />
<glyph unicode="&#x09;" horiz-adv-x="403" />
<glyph unicode="&#xa0;" horiz-adv-x="403" />
<glyph unicode="!" horiz-adv-x="528" d="M127 1360q0 49 39.5 72.5t148.5 23.5q49 0 67.5 -17.5t18.5 -52.5q0 -51 -1 -121.5t-4 -150.5t-6 -166t-5 -168q-8 -193 -14 -403l-211 -10q-8 213 -17 403q-4 82 -6 167t-5 164t-4 145.5t-1 113.5zM133 164q0 53 40 80.5t136 27.5q39 0 63.5 -15t24.5 -62q0 -68 -6 -108 t-22.5 -61.5t-46 -27.5t-74.5 -6q-35 0 -56.5 7t-35 25.5t-18.5 52.5t-5 87z" />
<glyph unicode="&#x22;" horiz-adv-x="782" d="M63 1419q-6 117 183 117q41 0 66.5 -15.5t23.5 -68.5l-12 -414l-248 -10zM446 1419q-6 117 183 117q41 0 66.5 -15.5t23.5 -68.5l-12 -414l-248 -10z" />
<glyph unicode="#" horiz-adv-x="1277" d="M41 462q0 32 3 50t7 28.5t10 16.5q10 10 26.5 16.5t45.5 6.5h143l27 235h-215q-2 49 -2 81t3 50.5t7 28.5t10 16q10 10 28 16.5t46 6.5h144l38 293q4 43 27 59t64 16q37 0 79.5 -6t71.5 -12q-4 -10 -7 -25.5t-8 -50.5t-13.5 -99.5t-22.5 -174.5h233l37 293q6 43 28.5 59 t63.5 16q37 0 80 -6t70 -12q-4 -10 -6 -25.5t-7 -50.5t-13.5 -99.5t-20.5 -174.5h215q2 -49 2 -81t-3 -51.5t-8 -28.5t-12 -15q-10 -10 -28.5 -16.5t-59.5 -6.5h-129l-28 -235h219q2 -49 2 -81t-3 -51.5t-7 -28.5t-11 -16q-10 -10 -29.5 -16t-60.5 -6h-131l-35 -318 q-4 -43 -27.5 -59t-64.5 -16q-37 0 -78 6t-69 10q2 8 5 24.5t7 56.5t12.5 109.5t20.5 186.5h-234l-34 -318q-4 -43 -27 -59t-64 -16q-37 0 -78.5 6t-70.5 10q2 8 5 24.5t8 56.5t13.5 109.5t20.5 186.5h-213q-2 49 -2 81zM506 580h233l27 235h-234z" />
<glyph unicode="$" horiz-adv-x="1019" d="M79 142q-1 36 34 116q86 -25 170 -44t176 -19q98 0 148 42t50 113q0 70 -42 112t-105.5 70.5t-138 56t-138 69.5t-105.5 109t-42 177q0 84 26.5 146.5t71.5 106.5t103.5 69.5t124.5 33.5l-2 148q-2 45 28.5 65.5t126.5 20.5q29 0 44.5 -13.5t13.5 -47.5l-5 -166 q37 -2 78 -11.5t79 -22.5t66.5 -26.5t41.5 -25.5q18 -18 16 -52t-41 -110q-49 10 -129 29.5t-166 19.5q-102 0 -148 -38t-46 -103q0 -61 42 -97t106.5 -64t138 -55.5t138 -73.5t106.5 -115.5t42 -182.5q0 -90 -23.5 -156.5t-66.5 -113t-103.5 -73t-132.5 -36.5l2 -233 l-210 -11l2 238q-51 2 -100.5 11t-91.5 22.5t-73.5 29t-46.5 31.5q-18 18 -19 54z" />
<glyph unicode="%" horiz-adv-x="1841" d="M61 1006q0 207 97.5 301t257.5 94t257 -94t97 -301t-97.5 -302.5t-256.5 -95.5q-160 0 -257.5 95.5t-97.5 302.5zM283 1006q0 -106 30.5 -165t102.5 -59t102.5 59t30.5 165q0 104 -31 162.5t-102 58.5q-72 0 -102.5 -58.5t-30.5 -162.5zM387 -123l770 1569q20 39 50 54.5 t71 15.5q51 0 99 -6.5t71 -10.5l-770 -1569q-18 -39 -49 -54t-72 -15q-51 0 -98 6t-72 10zM1073 383q0 205 96.5 300t255.5 95q162 0 258.5 -95t96.5 -300q0 -207 -96.5 -302t-258.5 -95q-160 0 -256 95t-96 302zM1292 383q0 -106 31 -164.5t102 -58.5q72 0 103 58.5 t31 164.5q0 104 -31 162.5t-103 58.5t-102.5 -58.5t-30.5 -162.5z" />
<glyph unicode="&#x26;" horiz-adv-x="1349" d="M57 393q0 92 27 158.5t68 115t90 80t96 54.5q-31 37 -61.5 77t-54 84t-39 93t-15.5 104q0 145 94 235.5t262 90.5q119 0 189.5 -32t91.5 -52q16 -16 18 -32.5t-12 -57.5q-14 -35 -21.5 -44.5t-21.5 -9.5q-27 0 -66.5 11.5t-101.5 11.5q-88 0 -125 -35t-37 -100 q0 -80 55.5 -163t153.5 -202q72 -90 130.5 -154.5t101.5 -109.5q27 90 38 213t9 277q74 8 121 6t73.5 -14.5t36.5 -34t10 -50.5q0 -86 -5 -158.5t-17 -140t-32.5 -133t-51.5 -139.5q29 -35 56.5 -61.5t47.5 -40.5q59 -53 189 -33q8 -53 10 -85t1 -50.5t-5 -27.5t-10 -15 q-14 -14 -45 -26.5t-84 -12.5q-41 0 -81 10t-81 35q-25 14 -54.5 39.5t-70.5 72.5q-72 -76 -164 -116.5t-242 -40.5q-215 0 -343 105.5t-128 297.5zM334 406q0 -106 65.5 -157.5t165.5 -51.5q59 0 114.5 22.5t94.5 79.5l-295 334q-145 -78 -145 -227z" />
<glyph unicode="'" horiz-adv-x="399" d="M63 1419q-6 117 183 117q41 0 66.5 -15.5t23.5 -68.5l-12 -414l-248 -10z" />
<glyph unicode="(" horiz-adv-x="567" d="M66 647q0 221 34.5 397.5t80.5 302.5t89.5 198.5t59.5 88.5q12 12 26.5 18.5t39 6.5t62.5 -6t95 -19q-63 -129 -113 -284q-41 -135 -75.5 -313.5t-34.5 -389.5t34.5 -390t75.5 -314q49 -158 113 -285q-57 -12 -95 -18.5t-62.5 -6.5t-39 6.5t-26.5 18.5q-16 16 -59.5 89 t-89.5 199t-80.5 303t-34.5 398z" />
<glyph unicode=")" horiz-adv-x="567" d="M31 -342q57 -12 95 -18.5t62.5 -6.5t39 6.5t26.5 18.5q16 16 59.5 89t89.5 199t80.5 303t34.5 398t-34.5 397.5t-80.5 302.5t-89.5 198.5t-59.5 88.5q-12 12 -26.5 18.5t-39 6.5t-62.5 -6t-95 -19q63 -129 113 -284q41 -135 75.5 -313.5t34.5 -389.5t-34.5 -390 t-75.5 -314q-49 -158 -113 -285z" />
<glyph unicode="*" horiz-adv-x="714" d="M27 1292q25 72 47 98.5t45 26.5q18 0 41 -16l133 -98l-17 227q76 10 106 6t42 -18q20 -18 14 -52l-18 -163l188 127q49 -59 58.5 -83t9.5 -38q0 -16 -11.5 -28.5t-23.5 -16.5l-158 -70l207 -98q-27 -72 -48 -98.5t-44 -26.5q-20 0 -43 16l-133 96l16 -227 q-74 -12 -104.5 -7t-42.5 17q-16 16 -12 54l16 163l-189 -129q-47 59 -56 83t-9 40q0 29 35 43l153 72z" />
<glyph unicode="+" horiz-adv-x="970" d="M45 542.5q0 32.5 2 52t7 30t14 16.5q10 10 30.5 16.5t61.5 6.5l219 -7l-4 351q55 6 91 6t58.5 -2t33.5 -8.5t20 -12.5q10 -10 15 -30.5t5 -61.5l-4 -242l326 7q4 -53 5 -86t-1 -53.5t-7.5 -30t-13.5 -17.5q-10 -10 -30.5 -15t-61.5 -5l-217 4l4 -342q-55 -4 -91 -5 t-58.5 2t-34 8t-19.5 13q-10 10 -15 30.5t-5 61.5l4 232l-330 -4q-4 53 -4 85.5z" />
<glyph unicode="," horiz-adv-x="454" d="M51 -244q23 43 39 89t16 112q0 41 -6 94t-6 129q0 61 43 90t142 29q41 0 65.5 -15.5t24.5 -68.5q0 -117 -12.5 -200t-30 -137t-37 -85t-33.5 -43q-29 -27 -80 -26.5t-125 32.5z" />
<glyph unicode="-" horiz-adv-x="708" d="M66 602q0 33 2 52.5t7 29.5t13 16q10 10 29.5 16.5t62.5 6.5h459q4 -51 4 -83t-2 -51.5t-7 -29.5t-11 -18q-10 -10 -31 -16.5t-64 -6.5h-458q-4 51 -4 84z" />
<glyph unicode="." horiz-adv-x="464" d="M88 180q0 59 44 89t149 30q41 0 68.5 -15.5t27.5 -68.5q0 -74 -6 -118t-24.5 -67.5t-50.5 -30.5t-83 -7q-37 0 -61.5 8t-39 28.5t-19.5 57.5t-5 94z" />
<glyph unicode="/" horiz-adv-x="794" d="M16 -154q8 16 16.5 37t26 71t49 144.5t85 257t134.5 407.5t195 599q23 70 99 70q18 0 43.5 -2.5t52 -4.5t51.5 -4t37 -4q-6 -14 -14.5 -32.5t-24.5 -68.5t-48 -143.5t-85 -257t-135 -410.5t-199 -603q-12 -37 -37.5 -52.5t-60.5 -15.5q-18 0 -45 2t-54.5 4t-51 4t-34.5 2 z" />
<glyph unicode="0" horiz-adv-x="1157" d="M68 666q0 354 133 519t379 165q248 0 379 -165t131 -519q0 -356 -132.5 -519t-379.5 -163q-244 0 -377 163t-133 519zM352 666q0 -258 57.5 -367t168.5 -109q113 0 171 109t58 367q0 131 -14.5 221t-43 147.5t-71.5 83t-98 25.5t-98.5 -25.5t-72 -83t-43 -147.5 t-14.5 -221z" />
<glyph unicode="1" horiz-adv-x="806" d="M48 1170.5q-3 31.5 13 48.5q12 12 56.5 32.5t132.5 48.5q84 29 145.5 43.5t96.5 14.5q59 0 86.5 -25.5t27.5 -85.5l-10 -971q0 -55 -1 -124.5t11 -147.5q-20 -4 -72.5 -7t-93.5 -3q-61 0 -92 33.5t-29 87.5l5 985l-244 -43q-29 82 -32 113.5z" />
<glyph unicode="2" horiz-adv-x="972" d="M45 123q0 29 9 57.5t42 74.5t96.5 121t172.5 197q61 70 105 124.5t71.5 100.5t40 88t12.5 87q0 84 -47 130t-135 46q-45 0 -86 -10.5t-75 -23.5t-58.5 -23.5t-38.5 -10.5q-10 0 -22.5 9.5t-35.5 44.5q-25 39 -22.5 59t20.5 41q12 10 44 30.5t80 41t112.5 36t140.5 15.5 q92 0 167 -22.5t128 -68.5t83 -115t30 -161q0 -115 -59.5 -221t-170.5 -223l-325 -340h248.5t169 1t106.5 3t63 8q4 -41 6.5 -73.5t-4.5 -73.5q-4 -41 -28.5 -56.5t-77.5 -15.5h-729q-12 23 -22.5 54.5t-10.5 68.5z" />
<glyph unicode="3" horiz-adv-x="964" d="M14 117.5q0 17.5 6.5 46.5t20.5 74q14 -4 45 -11.5t70 -14.5t84 -12t92 -5q127 0 199.5 59t72.5 170q0 51 -18.5 92t-60.5 65.5t-110.5 33t-170.5 -4.5l-23 154q160 35 246 95.5t86 152.5q0 141 -158 141q-47 0 -88 -10t-73.5 -21.5t-57 -21.5t-37.5 -10q-18 0 -29.5 8 t-33.5 41q-27 39 -25 59.5t23 40.5q12 12 45 31.5t85 39t119.5 34t147.5 14.5t147.5 -17.5t116.5 -56.5t77 -98.5t28 -141.5q0 -111 -83 -192.5t-225 -116.5q160 -4 257.5 -87t97.5 -253q0 -100 -36 -176t-102.5 -127t-159.5 -76.5t-210 -25.5q-141 0 -230.5 27.5 t-115.5 54.5q-8 8 -13.5 18t-5.5 27.5z" />
<glyph unicode="4" horiz-adv-x="1038" d="M41 408q0 23 3 45t14.5 59t36 95.5t67.5 153.5t107.5 234.5t156.5 335.5q14 29 46 35t110 -27q82 -35 99 -62.5t1 -57.5l-403 -740l268 4l18 224q8 47 41 71.5t123 24.5q47 0 66.5 -17.5t19.5 -52.5l-2 -246q25 2 75 3.5t109 5.5q6 -53 7.5 -88t0.5 -56.5t-6.5 -33 t-13.5 -19.5q-16 -16 -58 -20.5t-114 -2.5q0 -55 -1 -124.5t11 -147.5q-20 -4 -72.5 -7t-93.5 -3q-61 0 -91.5 33.5t-28.5 87.5l4 161l-457 -2q-16 23 -29.5 61t-13.5 73z" />
<glyph unicode="5" horiz-adv-x="991" d="M49 115.5q0 17.5 6 46t21 76.5q12 -4 41.5 -11.5t68.5 -14.5t84 -12t88 -5q123 0 202 61t79 180q0 154 -122 200t-384 5q-2 49 -4 138t-3 182.5t-1 171v100.5q0 35 4 56.5t18 35.5t32 18.5t48 4.5q115 0 215.5 -1t180 -1h136t83.5 2q4 -25 6 -50.5t2 -60.5 q0 -63 -29.5 -83.5t-89.5 -20.5q-49 0 -135 2t-188 6l-9 -291q115 10 211.5 -4.5t165 -60.5t107.5 -125.5t39 -198.5q0 -117 -39 -205t-108.5 -147.5t-163 -89t-201.5 -29.5q-135 0 -226.5 27.5t-115.5 52.5q-8 8 -13.5 18t-5.5 27.5z" />
<glyph unicode="6" horiz-adv-x="1064" d="M70 524q0 168 32.5 319.5t104.5 265.5t188.5 181.5t286.5 67.5q123 0 190.5 -19.5t88.5 -35.5q14 -10 17 -26.5t-7 -66.5q-12 -55 -23.5 -67.5t-29.5 -12.5q-23 0 -74 11.5t-156 11.5q-86 0 -150.5 -30.5t-110.5 -81t-74.5 -116t-39.5 -132.5l-20 -56l6 -4 q43 66 118 101.5t167 35.5q72 0 146.5 -19.5t135 -67.5t98 -128t37.5 -198q0 -123 -33.5 -212t-95 -145.5t-147.5 -83t-190 -26.5q-109 0 -195 28.5t-145.5 92t-92 166t-32.5 247.5zM352 434q0 -133 53.5 -186t129.5 -53q39 0 72.5 11t59 38.5t40 71.5t14.5 112 q0 119 -47 178.5t-131 59.5q-86 0 -138.5 -60.5t-52.5 -171.5z" />
<glyph unicode="7" horiz-adv-x="933" d="M41 1245q0 61 13.5 82t47.5 21h768q14 -16 26.5 -48t12.5 -77q0 -29 -8 -61t-32.5 -90t-68.5 -155.5t-118 -257.5q-90 -193 -145.5 -311.5t-88 -189t-47 -105.5t-22.5 -61q-145 0 -199.5 23.5t-54.5 82.5q0 14 3 31.5t18.5 54.5t46 102.5t88 177t143.5 277.5t211 406 l-533 -8q-35 0 -48 20.5t-13 85.5z" />
<glyph unicode="8" horiz-adv-x="1077" d="M59 317q0 129 76 218.5t195 144.5q-37 18 -78 47t-75 70t-56.5 96t-22.5 123q0 76 32 139.5t89 108.5t138.5 69.5t179.5 24.5t179 -23.5t138 -68.5t89 -107.5t32 -140.5q0 -59 -20.5 -108.5t-53.5 -87.5t-71.5 -64.5t-75.5 -40.5q121 -66 190.5 -159t69.5 -210 q0 -188 -125 -276t-352 -88q-225 0 -351.5 84t-126.5 249zM340 352q0 -78 53.5 -121t143.5 -43q88 0 141 44t53 122t-58.5 132.5t-150.5 95.5q-92 -45 -137 -103.5t-45 -126.5zM367 993q0 -74 53 -118t139 -78q59 33 103.5 83t44.5 124q0 72 -49 111.5t-121 39.5 q-74 0 -122 -42t-48 -120z" />
<glyph unicode="9" horiz-adv-x="1067" d="M63 891q0 125 34 213t95.5 144.5t147.5 83t190 26.5q106 0 193.5 -29t148 -92t93 -165.5t32.5 -248.5q0 -168 -32.5 -318.5t-105.5 -265t-189.5 -182t-286.5 -67.5q-102 0 -180 20.5t-101 42.5q-20 18 -19 53t28 119q12 -4 38.5 -9t62.5 -9t78 -8t85 -4q86 0 151.5 30.5 t111.5 80.5t73.5 115.5t38.5 133.5l22 55l-6 4q-37 -59 -112 -97t-167 -38q-72 0 -147.5 19.5t-137 67.5t-100.5 127t-39 198zM346 920q0 -119 46 -178.5t132 -59.5t137.5 61.5t51.5 171.5q0 133 -53.5 185.5t-129.5 52.5q-39 0 -72.5 -11.5t-58 -39t-39 -71t-14.5 -111.5z " />
<glyph unicode=":" horiz-adv-x="464" d="M88 180q0 59 44 89t149 30q41 0 68.5 -15.5t27.5 -68.5q0 -74 -6 -118t-24.5 -67.5t-50.5 -30.5t-83 -7q-37 0 -61.5 8t-39 28.5t-19.5 57.5t-5 94zM88 776q0 59 44 89t149 30q41 0 68.5 -15.5t27.5 -68.5q0 -74 -6 -118t-24.5 -67.5t-50.5 -30.5t-83 -7q-37 0 -61.5 8 t-39 28.5t-19.5 57.5t-5 94z" />
<glyph unicode=";" horiz-adv-x="456" d="M51 -244q23 43 39 89t16 112q0 41 -6 94t-6 129q0 61 43 90t142 29q41 0 65.5 -15.5t24.5 -68.5q0 -117 -12.5 -200t-30 -137t-37 -85t-33.5 -43q-29 -27 -80 -26.5t-125 32.5zM84 776q0 59 44 89t149 30q41 0 68.5 -15.5t27.5 -68.5q0 -74 -6 -118t-24.5 -67.5 t-50.5 -30.5t-83 -7q-37 0 -61.5 8t-39 28.5t-19.5 57.5t-5 94z" />
<glyph unicode="&#x3c;" horiz-adv-x="948" d="M82 570.5q8 52.5 49 84.5l520 400q31 27 59.5 15.5t73.5 -71.5q45 -63 46 -95t-31 -54l-482 -324l484 -325q33 -20 30.5 -54t-45.5 -94q-45 -59 -73.5 -70.5t-59.5 13.5l-561 424q-18 98 -10 150.5z" />
<glyph unicode="=" horiz-adv-x="948" d="M84 327.5q0 32.5 2 53t7 30t11 17.5q10 10 31 16.5t62 6.5h665q4 -53 4 -86t-2 -53.5t-7 -30t-13 -17.5q-10 -10 -29.5 -16t-62.5 -6h-664q-4 53 -4 85.5zM84 723q0 33 2 53.5t7 29.5t11 17q10 10 31 16.5t62 6.5h665q4 -53 4 -86t-2 -53.5t-7 -29.5t-13 -18 q-10 -10 -29.5 -16t-62.5 -6h-664q-4 53 -4 86z" />
<glyph unicode="&#x3e;" horiz-adv-x="948" d="M117 906q2 34 47 93t73.5 70.5t59.5 -12.5l561 -424q16 -98 9 -150.5t-48 -85.5l-520 -399q-33 -27 -60.5 -15.5t-72.5 72.5t-47 94t33 54l481 323l-483 326q-35 20 -33 54z" />
<glyph unicode="?" horiz-adv-x="755" d="M31.5 1341.5q3.5 18.5 17.5 30.5q8 8 32.5 22.5t61.5 28t88.5 23.5t114.5 10q172 0 272.5 -79.5t100.5 -243.5q0 -82 -30 -143.5t-72 -114t-88 -101.5t-78 -104q-16 -29 -23.5 -68t-8.5 -80t3 -80t10 -65l-213 -10q-8 37 -15 83t-8 96t7 99t30 92q29 51 64 96.5 t65.5 88.5t52 86t21.5 92q0 82 -47 115.5t-108 33.5q-70 0 -112 -19.5t-63 -19.5q-12 0 -23 9.5t-32 54.5q-23 49 -19.5 67.5zM205 164q0 53 40 80.5t136 27.5q39 0 62.5 -15t23.5 -62q0 -68 -6 -108t-22.5 -61.5t-45 -27.5t-76.5 -6q-35 0 -56 7t-33.5 25.5t-17.5 52.5 t-5 87z" />
<glyph unicode="@" horiz-adv-x="1992" d="M90 381q0 264 80 456.5t220 318.5t328.5 186.5t405.5 60.5q180 0 323.5 -42t245 -124t156 -203t54.5 -276q0 -162 -43 -290t-132.5 -218t-227.5 -138.5t-329 -48.5q-53 0 -71.5 16.5t-18.5 45.5q0 18 9.5 56t21.5 79q12 47 31 100l-6 5q-57 -143 -138 -224.5t-192 -81.5 q-104 0 -173 76t-69 246q0 143 35 253.5t98.5 184.5t148.5 112t187 38q72 0 129.5 -15.5t73.5 -21.5q10 23 48 31t101 8q37 0 51.5 -9.5t14.5 -31.5q0 -10 -4 -33t-14.5 -76t-31 -147t-50.5 -248q-10 -45 -15.5 -73.5t-8.5 -47t-5 -28t-2 -15.5q72 2 135.5 36t111.5 95.5 t75.5 149.5t27.5 202q0 223 -135 342t-412 119q-156 0 -301 -46t-256.5 -145.5t-179.5 -256t-68 -375.5q0 -154 46.5 -258.5t124 -166.5t180 -90t213.5 -28q139 0 227 19.5t104 25.5q14 -47 22.5 -75.5t8.5 -47t-5 -30t-13 -19.5q-25 -25 -124 -48t-243 -23 q-145 0 -283.5 32.5t-246 116.5t-174 227.5t-66.5 362.5zM801 403q0 -152 102 -151q51 0 93 37t75 97t57.5 137t42.5 155l23 104q-20 4 -56 10.5t-77 6.5q-70 0 -119 -37t-81 -94.5t-46 -128t-14 -136.5z" />
<glyph unicode="A" d="M14 56q-1 6 -1 13q0 21 10 50l391 1175q8 29 21.5 47.5t43 29.5t82.5 15.5t139 4.5q57 0 87 -15.5t44 -60.5l390 -1194q9 -31 9 -52q0 -7 -1 -13q-4 -24 -21 -40q-8 -8 -19 -13t-38 -8t-74 -3t-127 2l-104 352h-471l-105 -352q-74 -2 -116.5 -2t-66.5 3t-34 8t-18 13 q-17 16 -21 40zM424 551h379l-170 559l-23 92l-20 -92z" />
<glyph unicode="B" horiz-adv-x="1171" d="M139 20q2 111 4 234q2 104 3 233t1 258q0 61 -1 148.5t-2 176.5t-1 170v132q33 4 82 8t105.5 7.5t116 5.5t112.5 2q504 0 504 -363q0 -66 -20.5 -117t-52.5 -87.5t-69.5 -60.5t-70.5 -34q35 -6 79 -28.5t84 -62.5t66.5 -98.5t26.5 -140.5q0 -123 -43 -202.5 t-114.5 -126.5t-166 -65.5t-198.5 -18.5q-70 0 -142.5 3t-135 8t-107.5 10t-60 9zM416 215q31 -4 72.5 -6t82.5 -2q47 0 94.5 8t84 30.5t59 63.5t22.5 107q0 63 -21.5 103t-58 63.5t-87 33t-105.5 9.5q-23 0 -45 -1t-45 -1q-25 -2 -49 -2q0 -139 -1 -219t-1 -121 q-2 -49 -2 -66zM420 807q10 0 56 -2t93 -2q123 0 179.5 47t56.5 139q0 104 -69.5 146.5t-190.5 42.5q-29 0 -65 -1t-58 -6v-55q0 -37 -1 -109.5t-1 -199.5z" />
<glyph unicode="C" horiz-adv-x="1077" d="M78 666q0 373 161.5 553t454.5 180q49 0 94.5 -6.5t84 -16.5t66.5 -22.5t40 -24.5q10 -10 16 -21.5t6 -29.5t-6 -47t-20 -72q-20 4 -77.5 17.5t-139.5 13.5q-193 0 -294.5 -128t-101.5 -396q0 -231 105.5 -349t300.5 -118q78 0 134 9t87 19q24 -79 24 -113q0 -35 -20 -55 q-29 -29 -107.5 -50t-189.5 -21q-143 0 -257.5 39t-194.5 121.5t-123 210.5t-43 307z" />
<glyph unicode="D" horiz-adv-x="1298" d="M139 25q2 119 4 245q2 109 3 236t1 246q0 61 -1 147t-1 174t-1 168t-1 131q27 4 76 8t108.5 7.5t123 5.5t122.5 2q154 0 275 -39t204 -122t126 -214t43 -315q0 -190 -42 -325.5t-125 -221.5t-204 -127t-279 -41q-31 0 -92 3t-126.5 8t-125 11t-88.5 13zM418 211 q23 -2 63.5 -4t87.5 -2q84 0 151.5 24.5t116 83t74 153.5t25.5 236q0 135 -26.5 226.5t-75 148t-116 80t-151.5 23.5h-86t-59 -2v-106t-1 -166t-1 -197.5t-1 -200.5t-1 -175v-122z" />
<glyph unicode="E" horiz-adv-x="1067" d="M139 0q2 162 4 307q0 61 1 127t2 125t1 111.5v89.5q0 117 -1 206t-1 161.5t-1 134t-1 124.5h826q2 -53 3 -86.5t0 -53t-5 -30t-11 -16.5q-10 -10 -27.5 -14t-58.5 -4l-446 2l-4 -373h489v-195h-489l2 -409h236.5t152.5 1t95 4t65 11q4 -18 10 -53t6 -74 q0 -47 -29.5 -71.5t-95.5 -24.5h-723z" />
<glyph unicode="F" horiz-adv-x="1021" d="M139 -10q2 162 4 307q0 61 1 125.5t2 124t1 111v85.5q0 266 -2 423t-2 220h826q2 -52 3 -86v-30.5v-23.5q-1 -20 -5 -30t-11 -16q-10 -10 -27.5 -14t-58.5 -4l-446 2l-4 -396h479v-198h-479l2 -590z" />
<glyph unicode="G" horiz-adv-x="1261" d="M82 666q0 375 165 554t482 179q131 0 223 -26.5t119 -51.5q10 -10 15.5 -22.5t6.5 -32t-4.5 -49t-17.5 -74.5q-57 18 -137 32.5t-156 14.5q-207 0 -308 -128t-101 -396q0 -244 99 -356.5t292 -112.5q39 0 75.5 4t47.5 6l-2 336l-176 -2q-4 59 -4.5 95t5 56.5t12.5 29.5 t19 15q12 8 28.5 11.5t57.5 4.5h31q35 0 86 -1q76 -2 205 -4v-705q-25 -10 -72 -19.5t-106.5 -17.5t-127 -13t-134.5 -5q-299 0 -461 160.5t-162 517.5z" />
<glyph unicode="H" horiz-adv-x="1372" d="M139 -10q0 121 2 248q2 111 3 244.5t1 262.5v141.5t-1 158t-1 144v105.5q0 27 7.5 45.5t29 29.5t60.5 16.5t100 5.5q45 0 66.5 -14.5t21.5 -55.5l-8 -506h532q0 82 -1 158t-2 138.5t-1 109.5v73q0 27 7.5 45.5t29 29.5t60 16.5t100.5 5.5q43 0 65.5 -14.5t22.5 -55.5 q0 -51 -1 -121t-2 -150.5t-2 -168.5t-1 -174q0 -131 -1 -257t-1 -227v-223l-281 -10q2 88 4 186q2 86 2 195.5t2 232.5h-532v-604z" />
<glyph unicode="I" horiz-adv-x="567" d="M139 -10q2 117 4 241q2 106 3 234.5t1 249.5q0 80 -1 166t-1 164.5t-1 144t-1 104.5q0 27 7.5 45.5t29 29.5t60.5 16.5t100 5.5q43 0 65.5 -14.5t22.5 -55.5q0 -53 -1 -134t-3 -172t-3 -182.5t-1 -162.5v-670z" />
<glyph unicode="J" horiz-adv-x="661" d="M-2 136q2 30 12 73q16 -4 44 -6t55 -2q72 0 105.5 32.5t33.5 116.5l-10 944q0 27 7 45.5t28.5 29.5t60.5 16.5t100 5.5q45 0 66.5 -14.5t21.5 -55.5l-12 -985q-2 -182 -78 -262t-229 -80q-78 0 -121 15.5t-57 29.5q-8 8 -15.5 19.5t-10.5 29.5q-2 11 -2 26q0 10 1 22z " />
<glyph unicode="K" horiz-adv-x="1257" d="M139 -10q2 117 4 241q2 106 3 234.5t1 249.5q0 80 -1 169t-1 170t-1 145.5t-1 94.5q0 27 7.5 45.5t29 29.5t60.5 16.5t100 5.5q43 0 65.5 -14.5t22.5 -55.5q-2 -82 -2 -178t-2 -182q-2 -98 -4 -201l-19 -43l5 -8l532 659q20 27 59 31h9q39 0 114 -29q66 -28 73 -56 q1 -5 1 -10q0 -25 -29 -57l-399 -456q96 -154 167 -262.5t120 -183.5t80.5 -120t53 -72.5t35 -42t27.5 -26.5q-59 -55 -106 -77.5t-94 -22.5q-39 0 -74 15t-62 62l-321 553l-172 -196v-418z" />
<glyph unicode="L" horiz-adv-x="960" d="M139 0q0 20 2 101t3 191.5t2 240t1 249.5q0 160 -2 297.5t-2 214.5q0 27 7.5 45.5t29 29.5t60.5 16.5t100 5.5q43 0 65.5 -14.5t22.5 -55.5l-10 -1108h215t142 1t92 5t65 10q4 -18 10 -57t6 -76q0 -47 -29.5 -71.5t-95.5 -24.5h-684z" />
<glyph unicode="M" horiz-adv-x="1798" d="M58 59q-1 8 -1 18q0 23 6 58l203 1165q6 29 18.5 47.5t42 28.5t78 14.5t125.5 4.5q74 0 105 -15.5t39 -50.5l205 -878l30 -218l29 218l186 849q6 29 16.5 47.5t38 28.5t74.5 14.5t127 4.5t111 -14.5t35 -45.5l207 -1190q8 -41 8 -66q0 -7 -1 -13q-3 -26 -20 -43 q-8 -8 -22.5 -15.5t-42 -11.5t-74.5 -5h-20q-42 0 -101 3l-133 1071l-6 123l-272 -1190l-324 -14l-242 1081l-14 123l-156 -1194q-59 -3 -98 -3h-19q-42 1 -66 4t-34 9t-18 14q-16 16 -20 41z" />
<glyph unicode="N" horiz-adv-x="1368" d="M139 -10q2 123 4 252q2 111 3 246t1 264q0 61 -1 143t-1 160t-1 143.5t-1 95.5q0 53 40 75t157 22q29 0 44 -8.5t32 -32.5l571 -944q-10 51 -17 101t-7 118v96t-1 129t-1 143.5t-1.5 135t-1.5 106.5v59q0 27 7.5 45.5t28 29.5t56 16.5t91.5 5.5q45 0 66.5 -14.5 t21.5 -55.5q0 -33 -1 -112t-3 -174t-3 -194.5t-1 -170.5v-670l-269 -10l-569 923q6 -27 12 -63q4 -31 9.5 -73t5.5 -91v-686z" />
<glyph unicode="O" horiz-adv-x="1337" d="M76 690q0 186 41 320.5t117.5 220.5t186 127t247.5 41q137 0 247.5 -41t187.5 -127t118 -220t41 -321q0 -184 -41 -318t-118 -220t-187.5 -127t-247.5 -41t-247 41t-186.5 127t-117.5 220t-41 318zM360 690q0 -260 82 -377.5t226 -117.5q145 0 226 117.5t81 377.5 q0 262 -81 380t-226 118q-143 0 -225.5 -118t-82.5 -380z" />
<glyph unicode="P" horiz-adv-x="1114" d="M139 -10q2 143 4 282q0 59 1 123t2 126.5t1 121v107.5q0 100 -1 195t-2 178t-1 147.5v101.5q31 4 78 8t103.5 7.5t118 5.5t122.5 2q113 0 205 -27t158.5 -82t102.5 -142t36 -206q0 -123 -36 -208t-99.5 -138t-150.5 -78t-187 -25q-41 0 -89 6.5t-87 14.5v-510zM418 702 q29 -4 61.5 -7t69.5 -3q47 0 89 11.5t74.5 40t51 76.5t18.5 122q0 72 -19.5 119t-51 75.5t-74.5 40t-90 11.5q-53 0 -82 -2t-43 -4q0 -35 -1 -94.5t-1 -127t-1 -136t-1 -122.5z" />
<glyph unicode="Q" horiz-adv-x="1339" d="M76 690q0 186 41 320.5t117.5 220.5t186 127t247.5 41q137 0 247.5 -41t187.5 -127t118 -220t41 -321q0 -172 -35 -291.5t-87.5 -196.5t-114.5 -118t-116 -59q43 -55 72 -91t50.5 -61t37.5 -40t35 -30q-39 -53 -79 -76.5t-81 -23.5q-29 0 -54.5 9t-55 38t-67.5 85 t-91 149h-8q-137 0 -247 41t-186.5 127t-117.5 220t-41 318zM360 690q0 -260 82 -377.5t226 -117.5q145 0 226 117.5t81 377.5q0 262 -81 380t-226 118q-143 0 -225.5 -118t-82.5 -380z" />
<glyph unicode="R" horiz-adv-x="1183" d="M139 -10q2 145 4 284q0 59 1 123t2 127.5t1 122v107.5q0 100 -1 195t-2 177t-2 145.5t-1 100.5q66 8 178.5 15.5t235.5 7.5q113 0 208 -22.5t164.5 -73t108.5 -132.5t39 -200q0 -94 -23.5 -162t-62.5 -113t-86 -69.5t-92 -32.5q96 -164 154.5 -258t92.5 -145.5t52 -73 t35 -39.5q-51 -47 -97.5 -67.5t-95.5 -20.5q-90 4 -135 86l-254 473h-145l2 -545zM418 741h133q49 0 94 11.5t78 38t52.5 69.5t19.5 109q0 63 -21.5 105t-57.5 67.5t-82 36t-95 10.5t-75 -1t-42 -3q0 -35 -1 -88.5t-2 -113.5t-1 -122.5v-118.5z" />
<glyph unicode="S" horiz-adv-x="1026" d="M73 144q0 36 33 114q86 -25 172.5 -43t180.5 -18q100 0 155.5 41t55.5 131q0 70 -44 113.5t-109.5 80.5t-141.5 72t-141.5 85t-109.5 122.5t-44 183.5q0 94 32.5 165t92 117t142.5 68.5t183 22.5q68 0 128.5 -10.5t107.5 -23.5t80 -29.5t45 -28.5q20 -18 17 -53t-42 -111 q-49 10 -128 29.5t-177 19.5t-147 -44t-49 -118q0 -63 44 -106t109.5 -78t141 -71t141 -86t109.5 -123.5t44 -184.5q0 -190 -110.5 -290.5t-349.5 -100.5q-158 0 -263.5 32.5t-138.5 65.5q-19 19 -19 56z" />
<glyph unicode="T" horiz-adv-x="1089" d="M10 1263q0 35 2 55.5t7.5 31t11.5 16.5q10 10 31.5 15t74.5 5h938q2 -58 3 -92v-21q0 -19 -1 -33q-2 -20 -6 -30t-12 -18q-10 -10 -31.5 -15.5t-75.5 -5.5l-268 3v-279.5v-273t1 -290t3 -331.5l-285 -10q4 330 4 601q-1 35 -1 67v516l-392 -3q-4 57 -4 92z" />
<glyph unicode="U" horiz-adv-x="1349" d="M131 1294q0 27 7 45.5t28.5 29.5t60.5 16.5t101 5.5q45 0 66.5 -14.5t21.5 -55.5q0 -27 -1 -85t-1 -135t-2 -163t-2 -167t-1 -149.5t-1 -107.5q0 -160 60 -238.5t204 -78.5q143 0 205.5 78.5t62.5 238.5v109.5t-1 148.5t-1 164t-1 156.5t-1 127v74.5q0 27 7 45.5 t27.5 29.5t59.5 16.5t100 5.5q45 0 67 -14.5t22 -55.5q0 -39 -1 -103.5t-1 -165t-1.5 -242.5t-1.5 -337q0 -123 -37.5 -214t-108.5 -150.5t-171 -89t-225 -29.5q-123 0 -222.5 29.5t-170 90t-108.5 151.5t-38 214q0 358 -1 558t-1 261z" />
<glyph unicode="V" horiz-adv-x="1167" d="M27 1328q2 24 20.5 37t59 19.5t110.5 6.5q57 0 76.5 -17.5t32.5 -73.5l268 -1087l283 1085q6 27 15 45.5t30.5 28.5t62.5 14.5t113 4.5q47 0 58 -28q4 -11 4 -27q0 -22 -9 -52l-399 -1280q-70 -8 -136 -14q-58 -4 -118 -5h-16q-50 0 -87 5l-360 1280q-8 29 -8 50v8z" />
<glyph unicode="W" horiz-adv-x="1792" d="M22 1328q1 24 19 37t58 19.5t112 6.5q59 0 78.5 -17.5t27.5 -73.5l199 -1087l193 1073q4 29 17 48.5t40 31.5t69 18.5t105 6.5q74 0 98.5 -12.5t32.5 -57.5l201 -1108l223 1069q4 33 13.5 54.5t32 33.5t63.5 16.5t112 4.5q48 0 56 -27q4 -12 3 -27q0 -20 -6 -47 l-331 -1286q-66 -8 -131 -14q-55 -4 -119 -5h-18q-53 0 -95 5q-57 291 -102 524q-18 98 -36.5 195.5t-33 175.5t-23 128t-8.5 58q0 -8 -8 -58t-22.5 -126t-31.5 -171t-36 -194q-43 -231 -96 -518q-76 -8 -143 -14q-59 -4 -120 -5h-17q-49 0 -81 5l-290 1280q-5 30 -5 52v6z " />
<glyph unicode="X" horiz-adv-x="1167" d="M18 1305q51 49 102.5 71.5t98.5 22.5q31 0 57.5 -11.5t49.5 -48.5l266 -448l270 469q20 37 62 41q6 1 12 1q43 0 129 -22q66 -16 69 -46v-6q0 -29 -28 -73l-352 -553q76 -129 130 -220t93 -154.5t64.5 -102.5t44 -64.5t33 -42t30.5 -32.5q-102 -100 -193 -100 q-37 0 -66.5 15t-51.5 54l-254 459l-277 -491q-20 -35 -66 -37h-7q-45 0 -125 24q-63 20 -67 49v6q0 28 26 70l354 572q-80 127 -137.5 218t-98.5 153.5t-67.5 100.5t-45 61.5t-30.5 37.5t-25 27z" />
<glyph unicode="Y" horiz-adv-x="1101" d="M11 1325q0 24 19 38q19 15 61 21.5t114 6.5q59 0 77.5 -17.5t34.5 -70.5l246 -631l256 637q10 27 22.5 43t34 24t57.5 11.5t93 3.5q39 0 56 -26q8 -11 8 -26q0 -20 -13 -47l-389 -841q-2 -84 -2 -163t-2 -145q-2 -76 -2 -143l-281 -10q0 43 2 110q2 57 3.5 142.5 t1.5 206.5l-377 806q-20 42 -20 70z" />
<glyph unicode="Z" horiz-adv-x="1069" d="M72 133q0 25 5 50.5t24.5 67.5t58.5 109.5t107.5 175t170 265t246.5 381.5l-541 -2q-37 0 -48 18.5t-11 87.5q0 68 12.5 84t46.5 16h813q10 -16 21.5 -56t11.5 -73q0 -31 -6 -61.5t-26.5 -75.5t-59.5 -111.5t-106.5 -173t-167 -260t-238.5 -368.5h271.5t166 1t96 4 t62.5 9q4 -16 9 -51t5 -74q0 -47 -29.5 -71.5t-95.5 -24.5h-761q-16 23 -26.5 57.5t-10.5 75.5z" />
<glyph unicode="[" horiz-adv-x="514" d="M66 -365q2 199 4 388q0 80 1 164.5t2 166.5t1 157v134v190.5t-1 206t-2 202.5t-2 181t-1 139.5v77.5h430v-202l-166 2q-2 -156 -2 -301q-2 -127 -2 -262.5v-233.5v-491q0 -154 2 -318l168 2v-203h-432z" />
<glyph unicode="\" horiz-adv-x="796" d="M10 1417q6 -14 14.5 -32.5t24.5 -68.5t48 -143.5t85 -257t135 -410.5t199 -603q12 -37 37.5 -52.5t60.5 -15.5q18 0 45 2t54.5 4t51 4t34.5 2q-8 16 -16.5 37t-26 71t-49 144.5t-85 257t-134.5 407.5t-195 599q-23 70 -99 70q-18 0 -43.5 -2.5t-52 -4.5t-51.5 -4t-37 -4z " />
<glyph unicode="]" horiz-adv-x="516" d="M32 -162v-203h432q-2 199 -4 388q0 80 -1 164.5t-2 166.5t-1 157v134v190.5t1 206t2 202.5t2 181t1 139.5v77.5h-430v-202l166 2q2 -156 2 -301q2 -127 2 -262.5v-233.5v-491q0 -154 -2 -318z" />
<glyph unicode="^" horiz-adv-x="849" d="M45 778q0 18 7 39t18 43q88 176 140 281.5t88 161t63.5 73t64.5 17.5t64.5 -17.5t62.5 -73t87 -161t140 -281.5q10 -23 17.5 -43t7.5 -39q0 -35 -35 -53t-94 -14l-250 417l-252 -417q-59 -4 -94 14t-35 53z" />
<glyph unicode="_" horiz-adv-x="1007" d="M-6 -295q0 33 2 53.5t7 29.5t13 17q10 10 30 15.5t63 5.5h901q4 -53 4 -86t-2 -52.5t-7.5 -29.5t-13.5 -16q-10 -10 -29.5 -16.5t-62.5 -6.5h-901q-4 53 -4 86z" />
<glyph unicode="`" horiz-adv-x="516" d="M51 1366q76 45 113 60.5t69 15.5q23 0 41.5 -8.5t43 -37t59.5 -82.5t88 -149q-49 -33 -76.5 -44t-56.5 -11q-18 0 -37 7t-48.5 33t-75.5 77t-120 139z" />
<glyph unicode="a" horiz-adv-x="1105" d="M68 475q0 141 35.5 241.5t96 165t140.5 94.5t170 30q78 0 137.5 -20.5t87.5 -39.5q16 35 60.5 47.5t111.5 12.5q47 0 64.5 -17.5t17.5 -52.5q0 -18 -1 -66.5t-3 -113t-3 -136.5t-1 -135q0 -129 1 -209.5t2 -133t4 -83t9 -59.5q-31 -4 -85 -7t-95 -3q-53 0 -77 34 q-18 25 -19 66q0 14 2 29l20 45l-4 6q-25 -35 -57.5 -67.5t-74.5 -58.5t-90 -42t-103 -16q-346 0 -346 489zM342 485q0 -164 45 -230.5t125 -66.5q31 0 62.5 14.5t59.5 34t50.5 43t34.5 42.5v151.5t2 140t3 112.5t3 67q-35 12 -77 18t-85 6q-49 0 -91 -14.5t-70.5 -52 t-45 -102t-16.5 -163.5z" />
<glyph unicode="b" horiz-adv-x="1089" d="M113 33q6 88 7 193.5t1 222.5v131.5t-1 163.5t-2 180.5t-2 179.5t-1 161.5v129.5q0 47 44 70.5t148 23.5q45 0 63.5 -17.5t18.5 -50.5q0 -23 -1 -90t-4 -150l-6 -166t-5 -136l-21 -45l6 -7q47 68 128 123.5t192 55.5q344 0 344 -490q0 -141 -39 -241.5t-105.5 -165 t-155.5 -94t-190 -29.5q-104 0 -216.5 13.5t-202.5 33.5zM365 190q39 -8 78.5 -13t82.5 -5q51 0 92 14.5t70 52t45.5 102.5t16.5 163q0 164 -47.5 230.5t-122.5 66.5q-29 0 -57.5 -11.5t-54.5 -30t-50.5 -41t-42.5 -42.5q0 -129 -1 -220t-3 -151q-2 -70 -6 -115z" />
<glyph unicode="c" horiz-adv-x="821" d="M66 483q0 145 34.5 245.5t95 162t139.5 88.5t169 27q98 0 162.5 -26t91.5 -52q8 -8 14 -17.5t5 -25t-8 -40t-24 -61.5q-25 6 -67.5 16.5t-102.5 10.5q-109 0 -173 -74t-64 -252q0 -88 17.5 -147t48 -95t73.5 -51.5t96 -15.5q68 0 114 10.5t73 20.5q12 -37 18 -60.5t6 -40 t-6 -26.5t-16 -21q-23 -23 -89.5 -48t-185.5 -25q-90 0 -167.5 28.5t-134 88t-88 153.5t-31.5 227z" />
<glyph unicode="d" horiz-adv-x="1097" d="M63 481q0 141 34 240.5t92.5 162t138.5 92.5t172 30q63 0 124.5 -13.5t88.5 -25.5l-6 430q0 47 43 69.5t149 22.5q47 0 64.5 -16.5t17.5 -51.5q0 -127 -5 -334.5t-5 -517.5v-255t2 -156.5t5 -93t9 -64.5q-31 -4 -85 -7t-95 -3q-53 0 -77 34q-18 25 -19 66q0 14 2 29 l20 45l-4 6q-25 -35 -57.5 -67.5t-72.5 -59.5t-88 -42t-103 -15q-344 0 -345 495zM336 485q0 -164 45 -230.5t125 -66.5q33 0 63.5 14.5t58 35t49 45t34.5 45.5v111.5t2 150.5t4 136t2 69q-29 8 -75 15t-85 7q-51 0 -92 -14.5t-70.5 -52t-45 -102t-15.5 -163.5z" />
<glyph unicode="e" horiz-adv-x="1040" d="M66 465q0 135 35.5 236.5t100 169t155.5 101.5t202 34q100 0 179 -25t132.5 -79t82 -139t28.5 -208q0 -57 -26.5 -80.5t-86.5 -23.5h-128.5h-152.5t-144.5 1t-102.5 1v-24q0 -135 64 -189q70 -58 208 -58q51 0 98.5 5.5t87.5 12.5t70.5 14t49.5 13q12 -41 17 -65.5t5 -41 t-5 -25.5t-13 -17q-31 -31 -123 -59.5t-236 -28.5q-109 0 -200 27.5t-157.5 85t-103 147.5t-36.5 215zM342 586l385 4v19q0 109 -44 157q-48 53 -124 53q-92 0 -150.5 -66.5t-66.5 -166.5z" />
<glyph unicode="f" horiz-adv-x="636" d="M6 937q0 34 17 50q14 12 39 17q12 2 39 2q24 0 59 -2l-2 180v9q0 153 68 223q71 73 225 73q78 0 138 -20.5t79 -38.5q19 -19 19 -49q0 -28 -21 -101q-18 4 -59.5 10t-82.5 6q-53 0 -78.5 -27.5t-25.5 -103.5v-166l223 7q8 -68 8 -105q0 -11 -1 -20q-3 -37 -19 -54 q-6 -6 -18.5 -10t-36 -4t-62.5 1t-98 3v-90v-117.5t1 -134t1 -137.5q2 -158 4 -338l-264 -10q2 276 2 476v351l-142 -4q-12 90 -12 124z" />
<glyph unicode="g" horiz-adv-x="1097" d="M68 481q0 121 29.5 218.5t85 165t135 104.5t180.5 37q68 0 133 -18t100 -38q16 33 64.5 44.5t109.5 11.5q47 0 64.5 -16.5t17.5 -51.5q0 -37 -1 -70.5t-3 -72.5t-3 -85t-1 -110q0 -193 3 -356.5t3 -266.5q0 -123 -25.5 -206.5t-79 -134t-134 -73t-191.5 -22.5 q-168 0 -265 28t-124 54q-16 16 -20 48q-1 5 -1 12q0 33 19 98q16 -4 51 -11.5t81 -15.5t101.5 -14t112.5 -6q104 0 158 47q51 44 51 137v14l-4 179l22 51l-6 8q-47 -78 -127 -131t-190 -53q-78 0 -141.5 24.5t-108.5 82t-70.5 152.5t-25.5 236zM340 485q0 -86 12.5 -143 t35 -91t53 -48.5t67.5 -14.5q29 0 59.5 13.5t59 35t52 47t38.5 48.5q-1 63 -1 120v57q1 83 3 146q2 74 4 136q-31 12 -76 19t-84 7q-53 0 -95 -17.5t-70.5 -56t-43 -102t-14.5 -156.5z" />
<glyph unicode="h" horiz-adv-x="1126" d="M113 -10q2 131 4 258q2 109 3 227.5t1 208.5q0 74 -1 173t-2 200.5t-2 192.5t-1 145q0 47 42 70.5t144 23.5q47 0 64.5 -17.5t17.5 -50.5q0 -31 -1 -101.5t-3 -152.5t-5 -161.5t-5 -124.5l-17 -47l6 -5q68 70 156 123.5t203 53.5q147 0 220 -87.5t73 -269.5t-1 -291.5 t-1 -176t2 -105.5t8 -76q-10 -2 -28.5 -4t-41 -3t-47 -1h-43.5q-59 0 -89 32.5t-30 81.5q0 29 1 80.5t1 118t1 143t1 156.5q0 109 -30.5 152t-102.5 43q-66 0 -127 -39t-114 -92v-668z" />
<glyph unicode="i" horiz-adv-x="501" d="M117 911q0 47 40 71t142 24q47 0 66.5 -16.5t19.5 -51.5q0 -102 -1 -241.5t-1 -275.5v-251v-170l-264 -10q0 37 1 112.5t1 165.5t1 184.5t1 168.5q0 33 -1 71.5t-2 78.5t-2 77t-1 63zM117 1294q0 47 42 71t144 24q47 0 66.5 -15.5t19.5 -50.5q0 -68 -6 -105.5t-24.5 -58 t-51.5 -26t-84 -5.5q-33 0 -53 7.5t-32.5 26t-16.5 50t-4 82.5z" />
<glyph unicode="j" horiz-adv-x="501" d="M-104 -336q12 4 33.5 14.5t46 23.5t49 30.5t45.5 36.5q16 16 27.5 35.5t17.5 48t8 68.5t2 99l-8 891q-2 47 39 71t143 24q47 0 65.5 -16.5t18.5 -51.5v-991q0 -121 -35 -193.5t-86 -120.5q-31 -27 -67.5 -46t-73.5 -31.5t-72 -18.5t-61 -6q-33 0 -51 26.5t-41 106.5z M113 1294q0 47 42 71t144 24q49 0 68.5 -15.5t19.5 -50.5q0 -68 -6 -105.5t-24.5 -58t-51.5 -26t-84 -5.5q-33 0 -54.5 7.5t-33.5 26t-16 50t-4 82.5z" />
<glyph unicode="k" horiz-adv-x="1003" d="M113 -10q4 102 8 262t4 340q0 119 -1 240.5t-3 229t-3 194.5t-1 139q0 47 43 70.5t147 23.5q47 0 64.5 -17.5t17.5 -50.5q0 -27 -1 -81t-3 -144t-5 -222t-7 -317l-21 -41l6 -6l365 381q26 26 56 26h7q34 -3 95 -42q49 -33 56 -58.5t-19 -50.5l-269 -258 q106 -170 169 -268t98.5 -152.5t54 -77t35.5 -38.5q-45 -43 -86 -66.5t-91 -23.5q-41 0 -75.5 18t-65.5 78l-213 381l-104 -101v-151.5t-2 -112.5q-2 -53 -4 -94z" />
<glyph unicode="l" horiz-adv-x="532" d="M111 209q0 35 1 93t3 130t3 153t1 160q0 88 -1 184.5t-2 184.5t-2 162t-1 119q0 47 41 70.5t143 23.5q47 0 64.5 -17.5t17.5 -50.5q0 -70 -1 -184.5t-3 -265t-4 -329.5t-4 -378q0 -35 4 -52t16 -30q16 -14 50 -15h14q28 0 59 3q12 -59 12 -89q0 -5 -1 -11q-3 -28 -19 -45 q-16 -14 -58.5 -23.5t-95.5 -9.5q-125 0 -181 50t-56 167z" />
<glyph unicode="m" horiz-adv-x="1710" d="M115 913q0 47 46 70t150 23q37 0 51.5 -18.5t14.5 -43.5q0 -27 -2 -50.5t-8 -59.5l6 -5q68 70 150.5 123.5t189.5 53.5q98 0 164.5 -50.5t89.5 -146.5q68 86 150.5 141.5t191.5 55.5q139 0 210.5 -83t71.5 -274v-291.5v-176t2 -105.5t9 -76q-8 -2 -27 -4t-41.5 -3t-47 -1 h-42.5q-59 0 -89 32.5t-30 81.5l2 496q0 111 -29.5 155t-95.5 44q-49 0 -108.5 -40t-108.5 -99v-21v-641l-254 -10v614q0 111 -28.5 154t-92.5 43q-51 0 -113.5 -40t-113.5 -93v-668l-266 -10q4 178 4 322.5v262.5q0 106 -3 195.5t-3 142.5z" />
<glyph unicode="n" horiz-adv-x="1138" d="M113 913q0 47 46 70t150 23q37 0 51.5 -17.5t14.5 -44.5t-3 -54.5t-7 -55.5l6 -5q29 31 66.5 62t82.5 56.5t97.5 42t111.5 16.5q147 0 220 -87.5t73 -269.5t-1 -291.5t-1 -176t2 -105.5t8 -76q-10 -2 -28.5 -4t-42 -3t-47.5 -1h-44q-59 0 -86.5 32.5t-27.5 81.5v498 q0 106 -31 150.5t-98 44.5q-63 0 -127 -42t-117 -89v-668l-266 -10q4 160 4 314.5v283.5q0 98 -3 185t-3 140z" />
<glyph unicode="o" horiz-adv-x="1075" d="M66 498q0 139 38.5 235t104 156.5t151.5 88.5t179 28q92 0 177 -28t150.5 -88.5t104.5 -156.5t39 -235t-38 -236.5t-102.5 -159t-150.5 -89t-180 -27.5t-180.5 27.5t-151 89t-103 158.5t-38.5 237zM330 498q0 -166 53 -245t156 -79q100 0 153 79t53 245q0 162 -53 240.5 t-153 78.5q-102 0 -155.5 -79t-53.5 -240z" />
<glyph unicode="p" horiz-adv-x="1099" d="M115 -352q2 180 3 322.5t2 257t2 205.5t1 169q0 39 -1 84t-2 88t-2 80t-1 59q0 47 44 70t148 23q35 0 49.5 -18.5t14.5 -45.5q0 -25 -2 -48.5t-6 -57.5l6 -7q23 33 55.5 65t72.5 56.5t87 40t100 15.5q170 0 258 -121t88 -377q0 -141 -33.5 -239.5t-92 -162t-137.5 -92 t-167 -28.5q-76 0 -132 11t-89 23v-196.5t2 -125.5t5 -86t9 -73q-8 0 -30.5 -1t-50 -2t-55.5 -2t-46 -1q-59 0 -79.5 33t-20.5 82zM373 190q37 -8 81 -13t81 -5q51 0 92 15.5t70.5 52t45 101.5t15.5 163q0 166 -47 231.5t-123 65.5q-27 0 -56.5 -12.5t-57.5 -32t-52.5 -41 t-40.5 -39.5q1 -82 1 -150v-65q-1 -92 -3 -152q-2 -70 -6 -119z" />
<glyph unicode="q" horiz-adv-x="1103" d="M68 475q0 141 35.5 241.5t96 165t140.5 94.5t170 30q78 0 137.5 -20.5t87.5 -39.5q16 35 60.5 47.5t111.5 12.5q47 0 64.5 -17.5t17.5 -52.5q0 -18 -1 -66.5t-3 -113t-3 -136t-1 -135.5v-326v-233.5v-160t1 -104.5t3 -69.5t6 -52.5q-23 -2 -71 -4t-89 -2q-59 0 -87.5 33 t-28.5 80q0 23 1 90t2 144t2 145.5t1 93.5l18 43l-6 4q-49 -68 -129 -124t-190 -56q-346 0 -346 489zM342 485q0 -164 45 -230.5t125 -66.5q31 0 62.5 14.5t59.5 34t50.5 43t34.5 42.5v151.5t2 140t3 112.5t3 67q-35 12 -77 18t-85 6q-49 0 -91 -14.5t-70.5 -52t-45 -102 t-16.5 -163.5z" />
<glyph unicode="r" horiz-adv-x="714" d="M115 913q0 47 46 70t150 23q37 0 51.5 -17.5t14.5 -44.5t-3 -54.5t-7 -62.5l6 -4q59 92 127.5 137.5t122.5 45.5q51 0 73 -21q6 -8 11.5 -18.5t8.5 -29.5q2 -13 2 -37v-17q-1 -35 -7 -90q-19 2 -37 2q-71 0 -131 -25q-76 -31 -160 -102v-668l-266 -10q4 215 4 371.5 v273.5q0 31 -1 68.5t-2 75.5t-2 73t-1 61z" />
<glyph unicode="s" horiz-adv-x="817" d="M58 116v8q0 31 20 97q55 -16 135 -30.5t158 -14.5q59 0 94 27.5t35 77.5q0 43 -33 69.5t-82 48t-105.5 44t-105.5 56t-82 85t-33 133.5q0 141 93.5 215t248.5 74q61 0 111.5 -9.5t89.5 -22.5t64.5 -27.5t38.5 -26.5q20 -20 17 -55.5t-28 -94.5q-12 4 -37.5 11t-59.5 15.5 t-71.5 13.5t-74.5 5q-66 0 -95.5 -24.5t-29.5 -71.5q0 -39 32.5 -63.5t81.5 -44t106.5 -42t106.5 -57.5t82 -88t33 -135q0 -147 -97.5 -225t-275.5 -78q-115 0 -199.5 25.5t-117.5 58.5q-16 16 -20 46z" />
<glyph unicode="t" horiz-adv-x="692" d="M5 937q1 34 18 50q11 13 37 17q14 2 41 2q24 0 59 -2l18 159q2 27 20.5 45.5t41 29.5t48 16.5t44.5 5.5q43 0 64.5 -14.5t21.5 -49.5v-197l233 7q8 -68 8 -105q0 -11 -1 -20q-3 -37 -19 -54q-12 -14 -58 -14t-165 4l-2 -510q0 -84 30.5 -109.5t96.5 -25.5q23 0 52.5 6 t43.5 10q14 -59 14 -90q0 -8 -1 -14q-5 -28 -21 -47q-18 -16 -68.5 -31.5t-152.5 -15.5q-112 0 -184 53q-70 52 -70 179v7l4 588l-142 -4q-11 83 -11 118v6z" />
<glyph unicode="u" horiz-adv-x="1136" d="M113 344v569q0 47 42 70t146 23q45 0 61.5 -19.5t16.5 -52.5t-1 -97.5t-1 -141.5t-1 -157.5t-1 -148.5q0 -115 32.5 -157t104.5 -42q63 0 122.5 42t113.5 100v581q0 47 40.5 70t145.5 23q47 0 63.5 -17.5t16.5 -50.5v-81t-1 -131t-1 -163v-176v-140.5t1 -98.5t4 -76.5 t9 -71.5q-20 -4 -70.5 -6t-91.5 -2q-59 0 -90 34q-25 28 -25 78q0 11 1 23l16 41l-6 4q-131 -182 -361 -182q-141 0 -213.5 85t-72.5 269z" />
<glyph unicode="v" horiz-adv-x="962" d="M18 909q-6 16 -6 30q0 29 29 44q43 23 166 23q41 0 57.5 -12.5t24.5 -43.5l207 -741l211 711q6 25 16 41t29.5 26t53.5 14.5t89 4.5q69 0 69 -49q0 -19 -10 -46l-336 -911q-72 -4 -129 -6q-49 -4 -94 -5h-26q-22 0 -29 1z" />
<glyph unicode="w" horiz-adv-x="1468" d="M12 899q-6 18 -6 33q0 34 32 50q46 24 163 24q39 0 55 -12.5t27 -43.5l174 -741l157 702q6 27 17.5 45.5t31 29.5t52.5 15.5t86 4.5q37 0 53 -14.5t27 -45.5l174 -737l147 711q6 25 16.5 41t32 26t56 14.5t90.5 4.5q69 0 69 -53q0 -18 -8 -42l-278 -911q-70 -4 -127 -8 q-49 -4 -93 -5h-17q-30 0 -36 3l-174 659l-155 -649q-72 -4 -129 -8q-49 -4 -93 -5h-17q-30 0 -36 3z" />
<glyph unicode="x" horiz-adv-x="972" d="M14 899q35 41 85.5 74t105.5 33q72 0 119 -68l178 -272l194 313q18 29 49 34q4 1 9 1q32 0 94 -29q59 -27 74.5 -47t-7.5 -51l-284 -369q100 -131 158.5 -208t92 -118.5t52 -61t37.5 -36.5q-35 -41 -84 -73.5t-107 -32.5q-37 0 -64.5 15t-51.5 54l-195 301l-219 -340 q-16 -29 -48 -35q-5 -1 -11 -1q-32 0 -93 26q-59 29 -75.5 49.5t12.5 51.5l297 397q-92 123 -146.5 193.5t-86 109.5t-49.5 56.5t-36 33.5z" />
<glyph unicode="y" horiz-adv-x="970" d="M6 915q-5 14 -5 26q0 29 30 44q43 21 164 21q45 0 60 -12.5t32 -57.5l219 -690q14 53 40.5 144t55.5 191.5t54.5 192.5t39.5 146q6 25 14.5 41t28 26t54 14.5t92.5 4.5q37 0 57 -18q12 -9 12 -31q0 -19 -8 -46q-25 -84 -60.5 -193.5t-76.5 -231t-84 -246.5t-82 -242 q-43 -129 -84 -217t-86 -141.5t-99.5 -77t-123.5 -23.5q-113 0 -152 27.5t-39 68.5q0 20 3.5 43t15.5 64q33 -6 63.5 -9t73.5 -3q27 0 52.5 8t48 31.5t45 67.5t45.5 118q-41 104 -96.5 238.5t-113 268.5t-107.5 255t-83 198z" />
<glyph unicode="z" horiz-adv-x="882" d="M51 117q0 31 10.5 63.5t57.5 101t142 191.5t265 334q-133 -4 -242.5 -5t-156.5 -1q-41 0 -54.5 22.5t-13.5 81.5q0 45 14.5 68.5t57.5 23.5h643q16 -14 30.5 -50t14.5 -73q0 -23 -6 -44t-23.5 -50.5t-50 -73.5t-87 -112t-134.5 -165t-190 -234h227t142.5 1t81 5t42.5 10 q4 -12 11.5 -42t7.5 -63q0 -49 -27 -77.5t-90 -28.5h-637q-16 23 -25.5 52.5t-9.5 64.5z" />
<glyph unicode="{" horiz-adv-x="632" d="M49 575v150q102 14 142 50t36 118l-24 561q0 111 50 157t148 46q86 0 135.5 -14.5t67.5 -30.5q16 -16 19.5 -42t-17.5 -97q-16 2 -36.5 4t-49.5 2q-33 0 -43 -16.5t-10 -45.5q0 -47 -1 -123.5t-1 -157.5t-1 -152t-1 -105q0 -92 -37 -146.5t-135 -81.5q98 -27 135 -87 t37 -165q0 -39 1 -110.5t1 -150.5t1 -151.5t1 -111.5q0 -29 10 -45t43 -16q29 0 49.5 2t36.5 4q20 -72 17.5 -97.5t-19.5 -41.5q-18 -18 -67.5 -32t-135.5 -14q-98 0 -148 46.5t-50 156.5l24 570q4 84 -35.5 118.5t-142.5 48.5z" />
<glyph unicode="|" horiz-adv-x="579" d="M156 -492q0 252 2 480q0 96 1 196.5t2 193.5t1 172v132q0 84 -1 200.5t-1 230.5t-1 205t-1 122q0 47 37.5 70.5t144.5 23.5q47 0 64.5 -17.5t17.5 -52.5q0 -63 -1 -167.5t-1 -222.5t-1 -232.5t-1 -200.5v-113.5v-156.5t1 -183.5t1 -191.5q0 -221 2 -477z" />
<glyph unicode="}" horiz-adv-x="636" d="M25.5 -277.5q2.5 -25.5 19.5 -41.5q18 -18 67.5 -32t135.5 -14q98 0 148 46.5t50 156.5l-24 570q-4 84 35.5 118.5t142.5 48.5v150q-102 14 -142 50t-36 118l24 561q0 111 -50 157t-148 46q-86 0 -135.5 -14.5t-67.5 -30.5q-16 -16 -19.5 -42t17.5 -97q16 2 36.5 4 t49.5 2q33 0 43 -16.5t10 -45.5q0 -47 1 -123.5t1 -157.5t1 -152t1 -105q0 -92 37 -146.5t135 -81.5q-98 -27 -135 -87t-37 -165q0 -39 -1 -110.5t-1 -150.5t-1 -151.5t-1 -111.5q0 -29 -10 -45t-43 -16q-29 0 -49.5 2t-36.5 4q-20 -72 -17.5 -97.5z" />
<glyph unicode="~" horiz-adv-x="980" d="M53 537q0 92 49.5 134t139.5 42q43 0 96 -4t108.5 -9.5t110.5 -9.5t102 -4q59 0 78 24.5t13 84.5q98 18 140 -16t42 -126t-48 -135t-141 -43q-49 0 -103 4t-108.5 9.5t-106.5 9.5t-97 4q-59 0 -78 -24.5t-12 -84.5q-98 -18 -141.5 15.5t-43.5 128.5z" />
<glyph unicode="&#xa1;" horiz-adv-x="528" d="M127 -395q0 51 1 120.5t3 150.5t4 167t6 168q8 193 17 403l211 11q6 -215 14 -406q2 -82 5 -167t6 -162.5t4 -145.5t1 -113q0 -49 -39.5 -72.5t-148.5 -23.5q-47 0 -65.5 17.5t-18.5 52.5zM131 797q0 68 6 107.5t22.5 61t45 27.5t76.5 6q33 0 55 -7t34.5 -25.5 t17.5 -52.5t5 -87t-35.5 -80.5t-138.5 -27.5q-41 0 -64.5 15.5t-23.5 62.5z" />
<glyph unicode="&#xa2;" horiz-adv-x="854" d="M72 649q0 139 30.5 233.5t78.5 155t107.5 91t119.5 42.5v150q0 39 29.5 55.5t121.5 16.5q25 0 38 -10.5t13 -41.5l-2 -167q53 -6 100.5 -27t69.5 -43q10 -10 15.5 -20.5t5.5 -26t-8.5 -41t-24.5 -64.5q-27 8 -67 17.5t-103 9.5q-111 0 -176.5 -74t-65.5 -250 q0 -170 65.5 -243.5t174.5 -73.5q66 0 116 10t76 21q14 -39 20.5 -63.5t6.5 -41t-6 -27t-16 -20.5q-25 -25 -73 -45t-112 -27v-208l-205 -11l5 221q-61 10 -121 41t-107 89.5t-76.5 148.5t-29.5 223z" />
<glyph unicode="&#xa3;" horiz-adv-x="1060" d="M53 129q4 39 19 55q12 12 29.5 16.5t39.5 4.5h52q20 29 49.5 71.5t31.5 114.5q0 41 -9 87t-19 95h-109t-67 -4q-6 49 -6.5 79t3 46.5t8.5 23.5t11 13q18 18 64 19h57q-10 57 -28.5 121.5t-18.5 125.5q0 176 106.5 264.5t278.5 88.5q74 0 136 -10.5t110.5 -25t79 -28.5 t36.5 -20q16 -16 19.5 -34t-13.5 -58q-18 -45 -33.5 -56.5t-33.5 -11.5q-27 0 -87.5 19.5t-152.5 19.5q-74 0 -124 -46t-50 -136q0 -53 16.5 -106.5t26.5 -106.5q88 0 143.5 -1t89 -1t55 1t46.5 5q8 -84 4 -113t-18 -45q-14 -12 -37 -17.5t-64 -5.5h-174q6 -45 14.5 -91 t8.5 -91q0 -61 -27 -107t-51 -79h254t154.5 1t90 5t60.5 10q4 -18 9 -52t5 -73q0 -45 -31.5 -70.5t-93.5 -25.5h-302h-214h-143h-91t-59.5 -1t-46.5 -3q-8 94 -4 133z" />
<glyph unicode="&#xa4;" horiz-adv-x="1028" d="M10 1069q27 35 46.5 55.5t32.5 31.5t24.5 14.5t21.5 3.5q16 0 33.5 -9.5t48.5 -42.5l80 -84q41 25 95 40.5t122 15.5q78 0 132 -19.5t95 -46.5q43 43 70 69.5t42 44t24.5 27t17.5 19.5q70 -55 87 -80t17 -45q0 -16 -10 -34.5t-41 -47.5l-84 -80q27 -39 47.5 -103.5 t20.5 -144.5q0 -78 -20.5 -141t-55.5 -113l69.5 -69.5t43 -42t27 -24.5t20.5 -17q-29 -35 -48.5 -56.5t-32.5 -32t-24.5 -13.5t-21.5 -3q-16 0 -34.5 10.5t-47.5 41.5l-80 83q-33 -23 -90 -39t-123 -16q-78 0 -135 18.5t-98 45.5q-43 -43 -70 -69t-42 -42t-23.5 -25.5 t-16.5 -19.5q-35 29 -56.5 48.5t-31.5 32.5t-13 23.5t-3 20.5q0 16 10 34.5t41 47.5l84 78q-29 41 -47.5 101t-18.5 138q0 86 20.5 150.5t53.5 111.5q-43 43 -69.5 70t-43 42t-26 24.5t-19.5 17.5zM283 653q0 -106 58 -179t173 -73q117 0 173 73t56 179q0 111 -56 184.5 t-173 73.5q-115 0 -173 -73.5t-58 -184.5z" />
<glyph unicode="&#xa5;" horiz-adv-x="1116" d="M33 1249q-33 70 1 96.5t175 26.5q31 0 49 -4t29.5 -14.5t18.5 -27.5t18 -44l247 -618l256 626q8 27 20.5 42.5t35 24.5t58.5 12t93 3q39 0 56.5 -25.5t-5.5 -72.5l-321 -676h225q4 -39 4 -62.5t-2 -39t-7 -23.5t-11 -14q-10 -10 -31.5 -14.5t-69.5 -4.5h-178v-92h295 q4 -39 4 -63.5t-2 -40t-7 -23.5t-11 -14q-10 -8 -32.5 -13.5t-76.5 -5.5h-174q0 -61 -1 -110t-1 -78l-282 -10q4 59 6 198h-295q-8 76 -3 102.5t21 39.5q10 10 29.5 14t62.5 4h187v92h-297q-8 76 -3 101.5t21 38.5q10 10 29.5 14t64.5 4h113z" />
<glyph unicode="&#xa6;" horiz-adv-x="538" d="M137 -193q0 104 1 234.5t1 261.5h260l2 -721l-264 -10v235zM137 1376q0 47 38 70.5t144 23.5q47 0 65.5 -17t18.5 -52q0 -119 -2 -242q-2 -104 -3 -226t-1 -226h-256z" />
<glyph unicode="&#xa7;" horiz-adv-x="964" d="M82 616q0 72 27.5 133.5t68.5 106.5q-33 41 -52.5 92t-19.5 117q0 80 29 141.5t81 104.5t126 64.5t162 21.5q119 0 199.5 -30t107.5 -56q18 -18 17 -54t-42 -114q-43 14 -111.5 31.5t-146.5 17.5q-74 0 -115.5 -38t-41.5 -99q0 -53 37.5 -90t95 -70t124 -67.5t124 -80 t95.5 -107.5t38 -151q0 -78 -31 -139t-70 -102q39 -41 59.5 -94.5t20.5 -122.5q0 -84 -29.5 -146.5t-82 -103.5t-125 -62.5t-160.5 -21.5q-63 0 -117.5 9t-96.5 22.5t-70.5 29t-41.5 27.5q-10 8 -15 20.5t-3 32t11 47t30 68.5q51 -16 124.5 -32.5t145.5 -16.5q80 0 123 35.5 t43 101.5q0 51 -38 90t-96 74t-125 70.5t-125 81.5t-96 108.5t-38 150.5zM303 639q0 -51 26.5 -87t71.5 -65.5t103.5 -59.5t122.5 -69q12 18 23.5 45t11.5 60q0 51 -30 90t-78 69.5t-105.5 58.5t-112.5 60q-14 -18 -23.5 -47.5t-9.5 -54.5z" />
<glyph unicode="&#xa8;" horiz-adv-x="741" d="M51 1307q0 53 37 80.5t135 27.5q43 0 65.5 -15.5t22.5 -64.5q0 -66 -7 -104.5t-23.5 -59t-46 -27.5t-74.5 -7q-31 0 -51.5 7t-34 25.5t-18.5 51.5t-5 86zM430 1307q0 53 38 80.5t136 27.5q43 0 64.5 -15.5t21.5 -64.5q0 -66 -7 -104.5t-23.5 -59t-45 -27.5t-73.5 -7 q-31 0 -52.5 7t-34 25.5t-18.5 51.5t-6 86z" />
<glyph unicode="&#xa9;" horiz-adv-x="1515" d="M63 705q0 152 49.5 281.5t139.5 225t219 148.5t289 53t288 -53t218 -148.5t139 -225.5t49 -281q0 -152 -49 -282t-139 -224.5t-218 -147.5t-288 -53t-289 53t-219 147.5t-139.5 224.5t-49.5 282zM250 705q0 -117 33.5 -215.5t98 -171t160 -113.5t218.5 -41t218 41 t159.5 113.5t98.5 171t34 215.5t-34 216t-98.5 171.5t-159.5 114.5t-218 42t-218.5 -42t-160 -114.5t-98 -171.5t-33.5 -216zM418 694q0 123 29.5 207t78.5 134t114 71.5t134 21.5q80 0 131 -21.5t74 -41.5q14 -16 15 -48t-23 -93q-25 8 -57.5 16t-79.5 8 q-84 0 -133.5 -58.5t-47.5 -191.5q0 -68 13.5 -113.5t38 -73.5t57.5 -39t74 -11q49 0 89 7t64 15q23 -61 21 -91t-21 -48q-23 -23 -78 -42t-133 -19q-160 0 -260 98t-100 313z" />
<glyph unicode="&#xaa;" horiz-adv-x="735" d="M57 911q0 63 29 105.5t80 66t122.5 28.5t157.5 -3v43q0 59 -27.5 80.5t-84.5 21.5q-59 0 -114.5 -12t-82.5 -18q-27 47 -24.5 73.5t16.5 38.5q14 16 78.5 36t148.5 20q135 0 201 -50.5t66 -181.5v-207v-123t1 -66.5t5 -39.5q-23 -2 -58.5 -3t-58.5 -1q-29 0 -51.5 17.5 t-16.5 66.5l15 26l-2 5q-35 -43 -77 -79t-118 -36q-37 0 -72.5 10t-65.5 33.5t-48.5 59.5t-18.5 89zM236 913q0 -33 20 -51t51 -18q47 0 82 28.5t55 57.5v71q-111 10 -159.5 -11t-48.5 -77z" />
<glyph unicode="&#xab;" horiz-adv-x="1005" d="M54 577.5q3 18.5 11.5 33t24.5 30.5l270 268q16 16 39 10t64 -47q35 -35 42 -52t-7 -38l-183 -241l185 -244q12 -18 6 -36.5t-41 -53.5q-41 -41 -63.5 -46t-39.5 11l-296 287q-8 43 -11.5 71.5t-0.5 47zM476 530.5q-3 28.5 0 47t11.5 33t24.5 30.5l272 268q16 16 39 10 t64 -47q35 -35 41 -52t-6 -38l-183 -241l183 -244q12 -18 6 -36.5t-41 -53.5q-41 -41 -63.5 -46t-39.5 11l-297 287q-8 43 -11 71.5z" />
<glyph unicode="&#xac;" horiz-adv-x="974" d="M46 540.5q-1 32.5 2 53t8 31t14 16.5q23 23 92 23h745v-383q-98 -18 -140 -12.5t-56 20.5q-12 12 -18.5 34.5t-6.5 67.5l2 66h-635q-6 51 -7 83.5z" />
<glyph unicode="&#xad;" horiz-adv-x="708" d="M66 602q0 33 2 52.5t7 29.5t13 16q10 10 29.5 16.5t62.5 6.5h459q4 -51 4 -83t-2 -51.5t-7 -29.5t-11 -18q-10 -10 -31 -16.5t-64 -6.5h-458q-4 51 -4 84z" />
<glyph unicode="&#xae;" horiz-adv-x="1218" d="M47 1028q0 117 43 219.5t119 177t178 118.5t221 44q121 0 223.5 -44t178 -118.5t117.5 -177t42 -219.5q0 -115 -43 -216t-117.5 -176t-178 -118t-222.5 -43t-221 43t-178 118t-119 176t-43 216zM215 1028q0 -82 30.5 -154.5t84 -127t125 -86t153.5 -31.5t155 31.5t126 86 t84 127t31 154.5q0 84 -31 158t-84 128t-126 86t-155 32t-153.5 -32t-125 -86t-84 -128t-30.5 -158zM424 752q0 49 2 102q0 45 1 99.5t1 107.5v62.5t-1 72.5t-1 69.5v53.5q33 4 87 7t105 3q96 0 152.5 -42t56.5 -134q0 -72 -36.5 -106.5t-77.5 -47.5q41 -68 65.5 -107.5 t37.5 -62t21.5 -33t14.5 -18.5q-33 -18 -56.5 -25.5t-45.5 -7.5q-47 0 -68 48l-80 194h-43v-231zM559 1071h33q53 0 77.5 18.5t24.5 61.5q0 51 -27.5 65.5t-60.5 14.5q-18 0 -29.5 -1t-15.5 -1q0 -29 -1 -72t-1 -86z" />
<glyph unicode="&#xaf;" horiz-adv-x="524" d="M53 1231q0 33 2 51t7.5 27.5t11.5 17.5q10 10 30.5 16.5t63.5 6.5h301q2 -53 2 -85t-2 -50.5t-7 -27.5t-13 -18q-10 -10 -33 -16t-76 -6h-285q-2 51 -2 84z" />
<glyph unicode="&#xb0;" horiz-adv-x="655" d="M63 1186q0 57 20.5 103t56.5 80t84 52.5t104 18.5q55 0 103 -18.5t84 -52.5t56.5 -80t20.5 -103q0 -55 -20.5 -102.5t-56.5 -80t-84 -51t-103 -18.5t-103.5 18.5t-84.5 51t-56.5 80t-20.5 102.5zM225 1186q0 -43 30 -73t73 -30q45 0 73.5 30t28.5 73q0 45 -28.5 74.5 t-73.5 29.5q-43 0 -73 -29.5t-30 -74.5z" />
<glyph unicode="&#xb1;" horiz-adv-x="968" d="M49 83q0 32 2 50.5t7 28.5t14 18q10 10 29.5 15.5t62.5 5.5h749q2 -51 3.5 -83t-1 -50.5t-7.5 -28.5t-13 -16q-10 -10 -30.5 -16.5t-61.5 -6.5h-750q-4 51 -4 83zM49 663.5q0 32.5 2 52t7 30t12 16.5q10 10 31.5 17t62.5 5l213 -6l-4 305q55 4 91 5.5t58.5 -2t33.5 -8.5 t19 -13q12 -12 17.5 -31.5t3.5 -60.5l-4 -195l321 6q2 -53 3.5 -85.5t-1 -53t-7.5 -30t-13 -17.5q-10 -10 -30.5 -16.5t-61.5 -3.5l-211 4l4 -295q-55 -4 -91 -5t-58.5 2t-34 8t-19.5 13q-10 10 -17 30.5t-3 61.5l4 185l-324 -4q-4 53 -4 85.5z" />
<glyph unicode="&#xb2;" horiz-adv-x="786" d="M72 674q0 53 42 105t130 120q92 76 138 125t46 96q0 98 -102 99q-25 0 -52.5 -6.5t-52 -12.5t-45 -12t-29.5 -6q-14 0 -24 7t-29 40q-20 35 -16 53t20 35q10 8 34 23.5t60.5 30.5t84 25.5t106.5 10.5q139 0 211 -58.5t72 -179.5q0 -78 -54.5 -152.5t-146.5 -150.5 l-137 -121h162.5t102.5 1.5t64.5 3.5t49.5 8q12 -90 9 -125t-18 -47q-14 -16 -33.5 -20.5t-56.5 -4.5h-504q-14 25 -23 51.5t-9 61.5z" />
<glyph unicode="&#xb3;" horiz-adv-x="720" d="M54.5 665.5q-7.5 30.5 21.5 108.5q20 -6 74.5 -20.5t125.5 -14.5q61 0 99.5 26t38.5 79q0 20 -8.5 40.5t-30 34t-58 18.5t-96.5 -1l-14 104q100 23 139 51.5t39 71.5q0 35 -20.5 56.5t-61.5 21.5q-25 0 -49.5 -6t-47 -12t-41 -12.5t-30.5 -6.5q-20 0 -47 47q-29 47 2 78 q8 8 30.5 21.5t57.5 26t79 21.5t95 9q115 0 185.5 -45t70.5 -154q0 -80 -51 -129t-117 -63q96 -4 153.5 -56.5t57.5 -136.5q0 -72 -26.5 -122t-72.5 -80.5t-106.5 -45t-130.5 -14.5q-96 0 -158.5 22.5t-82.5 43.5q-12 8 -19.5 38.5z" />
<glyph unicode="&#xb4;" horiz-adv-x="516" d="M51 1165q53 94 88 148.5t58.5 83t43 37t42.5 8.5q31 0 68.5 -14.5t113.5 -61.5q-74 -88 -120 -139t-75.5 -77t-48.5 -33t-37 -7q-29 0 -56.5 11.5t-76.5 43.5z" />
<glyph unicode="&#xb5;" horiz-adv-x="1138" d="M113 -467q0 27 1 93.5t1 151.5v178v174v139.5v74.5v569q0 47 41 70t145 23q47 0 63.5 -25t16.5 -47q0 -33 -1 -97.5t-1 -144.5t-1 -167t-1 -163q0 -96 38 -134t109 -38q68 0 120 42t104 100q2 252 1 393t-1 188t41.5 70t146.5 23q47 0 63.5 -17.5t16.5 -50.5v-81t-1 -132 t-1 -163v-175v-140.5t1 -98.5t4 -76.5t9 -71.5q-20 -4 -70.5 -6t-89.5 -2q-59 0 -91 34.5t-25 100.5l16 41l-6 4q-123 -180 -285 -180q-82 0 -125 33l-4 -7l14 -24l5 -451z" />
<glyph unicode="&#xb6;" horiz-adv-x="1040" d="M23 969q0 209 121.5 315.5t379.5 106.5q174 0 292 -8.5t196 -2.5q4 -51 4 -84.5t-3 -54t-9.5 -32t-12.5 -17.5q-14 -12 -33.5 -16.5t-48.5 -4.5q-23 0 -46 3.5t-32 3.5v-1049q0 -78 -6 -134t-18 -97t-29.5 -69t-40.5 -50q-51 -51 -114.5 -68.5t-141.5 -17.5 q-100 0 -129 28q-8 8 -14 17.5t-9 28t-2 49t5 80.5q96 0 149.5 9t77.5 34q23 23 31 55.5t8 77.5v132t-1 165t-1 182v184v445l-139 -2v-617q-96 -6 -176 14.5t-137.5 69.5t-89 129t-31.5 195z" />
<glyph unicode="&#xb7;" horiz-adv-x="464" d="M88 678q0 59 44 89t149 30q41 0 68.5 -15.5t27.5 -68.5q0 -74 -6 -118t-24.5 -67.5t-50.5 -31t-83 -7.5q-37 0 -61.5 8.5t-39 29t-19.5 57.5t-5 94z" />
<glyph unicode="&#xb8;" horiz-adv-x="378" d="M52.5 -320.5q-5.5 19.5 2.5 78.5q29 0 51.5 4.5t34.5 20.5q14 16 15.5 41.5t-9.5 85.5h156q8 -18 16.5 -52t8.5 -73q0 -84 -51.5 -123t-118.5 -39q-41 0 -61.5 9.5t-30.5 19.5q-8 8 -13.5 27.5z" />
<glyph unicode="&#xb9;" horiz-adv-x="593" d="M33.5 1264.5q-2.5 23.5 13.5 35.5q10 10 47 26.5t109 41.5q70 23 103.5 32t66.5 9q51 0 73.5 -21.5t22.5 -70.5v-752l-238 -10v649l-170 -26q-25 63 -27.5 86.5z" />
<glyph unicode="&#xba;" horiz-adv-x="710" d="M55 1053q0 90 22.5 153.5t63.5 104.5t96.5 60.5t120.5 19.5q66 0 120 -19.5t94 -60.5t62.5 -104.5t22.5 -153.5t-22.5 -153.5t-62.5 -104.5t-95 -60.5t-119 -19.5q-66 0 -121 19.5t-96 60.5t-63.5 104.5t-22.5 153.5zM238 1053q0 -104 30.5 -153.5t89.5 -49.5t88 49.5 t29 153.5q0 106 -28.5 153t-88.5 47q-59 0 -89.5 -47t-30.5 -153z" />
<glyph unicode="&#xbb;" horiz-adv-x="1005" d="M76 819q6 19 41 53q41 41 63.5 47.5t38.5 -10.5l297 -288q8 -43 11 -71t0 -46.5t-11 -32.5t-24 -31l-271 -268q-16 -16 -39.5 -11t-62.5 46q-35 35 -42 53.5t7 36.5l182 244l-184 241q-12 18 -6 37zM498 819q6 19 41 53q41 41 63.5 47.5t38.5 -10.5l299 -288 q8 -43 11 -71t0 -46.5t-12 -32.5t-26 -31l-270 -268q-16 -16 -38.5 -11t-63.5 46q-35 35 -41 53.5t6 36.5l182 244l-184 241q-12 18 -6 37z" />
<glyph unicode="&#xbc;" horiz-adv-x="1720" d="M56 1264.5q-3 23.5 14 35.5q16 18 155 68q70 23 105 32t65 9q53 0 76 -21.5t23 -70.5l-2 -752l-238 -10v649l-170 -26q-25 63 -28 86.5zM297 -123l770 1569q20 39 50 54.5t71 15.5q51 0 98 -6.5t72 -10.5l-770 -1569q-18 -39 -49 -54t-72 -15q-51 0 -98 6t-72 10z M969 188q0 27 8 59t35.5 96.5t80 177t142.5 300.5q10 25 40 29t91 -23q63 -27 76.5 -51t-0.5 -51l-248 -469l133 2l16 86q10 41 45 60.5t107 19.5q51 0 47 -53v-109l117 6q12 -92 9 -123.5t-15 -44.5q-12 -12 -35 -16t-76 -4q2 -35 0 -81t8 -114q-8 -2 -26.5 -3t-40 -2 t-43 -1h-37.5q-45 0 -68.5 22.5t-23.5 63.5l4 115l-305 -2q-16 16 -28.5 42.5t-12.5 67.5z" />
<glyph unicode="&#xbd;" horiz-adv-x="1808" d="M56 1264.5q-3 23.5 14 35.5q16 18 155 68q70 23 105 32t65 9q53 0 76 -21.5t23 -70.5l-2 -752l-238 -10v649l-170 -26q-25 63 -28 86.5zM303 -123l770 1569q20 39 50 54.5t71 15.5q51 0 99 -6.5t71 -10.5l-770 -1569q-18 -39 -49 -54t-72 -15q-51 0 -98 6t-72 10z M1114 113q0 51 41 104t129 121q94 76 140 124t46 97q0 98 -102 98q-25 0 -52.5 -6t-52 -13t-45 -13.5t-28.5 -6.5q-14 0 -24.5 7.5t-28.5 42.5q-20 35 -16.5 52t20.5 34q10 10 33.5 25.5t60.5 30.5t84 25.5t106 10.5q137 0 210 -58.5t73 -181.5q0 -78 -54.5 -152.5 t-146.5 -150.5l-139 -121h163.5t103.5 1t64.5 4t47.5 8q12 -90 10 -124t-16 -48q-16 -14 -34.5 -18.5t-55.5 -4.5h-504q-14 23 -23.5 50.5t-9.5 62.5z" />
<glyph unicode="&#xbe;" horiz-adv-x="1794" d="M68.5 665.5q-7.5 30.5 21.5 108.5q20 -6 74.5 -20.5t126.5 -14.5q61 0 99 26t38 79q0 20 -8 40.5t-29.5 34t-58.5 18.5t-96 -1l-15 104q98 23 138 51.5t40 71.5q0 35 -21.5 56.5t-60.5 21.5q-25 0 -49 -6t-46.5 -12t-41 -12.5t-30.5 -6.5q-14 0 -23.5 11.5t-24.5 35.5 q-16 27 -14 44.5t16 33.5q8 8 31 21.5t57.5 26t78.5 21.5t96 9q115 0 185.5 -45t70.5 -154q0 -80 -51.5 -129t-116.5 -63q96 -4 153.5 -56.5t57.5 -136.5q0 -72 -27 -122t-73 -80.5t-106.5 -45t-129.5 -14.5q-96 0 -158.5 23.5t-85.5 42.5q-10 8 -17.5 38.5zM385 -123 l768 1569q20 39 50 54.5t73 15.5q49 0 97 -6.5t71 -10.5l-768 -1569q-20 -39 -50 -54t-73 -15q-49 0 -97 6t-71 10zM1051 188q0 27 8 59t35.5 96.5t80 177t142.5 300.5q10 25 38.5 29t92.5 -23q61 -27 74.5 -51t-0.5 -51q-4 -8 -25.5 -49t-54.5 -104.5t-76 -145.5t-90 -170 l133 2q4 23 7 43.5t9 42.5q12 39 37 59.5t90 20.5q41 0 56.5 -13.5t15.5 -43.5l-2 -105q16 2 47 2t70 4q6 -47 8 -76.5t1 -48t-5 -29t-10 -16.5q-14 -12 -39 -15t-72 -3q2 -35 0 -81t8 -114q-8 -2 -26.5 -3t-40 -2t-43 -1h-37.5q-45 0 -68.5 22.5t-23.5 63.5l4 115l-305 -2 q-16 16 -27.5 42.5t-11.5 67.5z" />
<glyph unicode="&#xbf;" horiz-adv-x="704" d="M18 -142q0 82 30 143.5t72 114t88 101.5t78 104q16 29 23.5 68t8.5 80t-3 80t-10 65l213 10q8 -37 15 -83t8 -96t-7 -99t-30 -92q-29 -51 -64 -96.5t-65.5 -88.5t-52 -86t-21.5 -92q0 -82 47 -115.5t108 -33.5q70 0 112 19.5t63 19.5q12 0 23 -9.5t32 -54.5 q23 -49 19.5 -67.5t-17.5 -30.5q-8 -8 -32.5 -22.5t-61.5 -28t-88.5 -23.5t-114.5 -10q-172 0 -272.5 79.5t-100.5 243.5zM270 796q0 68 6 108t22.5 61.5t45 27.5t76.5 6q35 0 56 -7t33.5 -25.5t17.5 -52.5t5 -87t-40 -80.5t-136 -27.5q-39 0 -62.5 15t-23.5 62z" />
<glyph unicode="&#xc0;" d="M14.5 56q-4.5 24 8.5 63l391 1175q8 29 21.5 47.5t43 29.5t82.5 15.5t139 4.5q57 0 87 -15.5t44 -60.5l390 -1194q12 -41 8 -64.5t-21 -40.5q-8 -8 -19 -13t-38 -8t-74 -3t-127 2l-104 352h-471l-105 -352q-74 -2 -116.5 -2t-66.5 3t-34 8t-18 13q-16 16 -20.5 40z M309 1610q31 47 54.5 76.5t44 46t37 21.5t32.5 5q18 0 37.5 -6t50.5 -24.5t79 -53.5t122 -92q-41 -70 -71.5 -91.5t-65.5 -21.5q-14 0 -30.5 4.5t-50.5 17.5t-90.5 41t-148.5 77zM424 551h379l-170 559l-23 92l-20 -92z" />
<glyph unicode="&#xc1;" d="M14.5 56q-4.5 24 8.5 63l391 1175q8 29 21.5 47.5t43 29.5t82.5 15.5t139 4.5q57 0 87 -15.5t44 -60.5l390 -1194q12 -41 8 -64.5t-21 -40.5q-8 -8 -19 -13t-38 -8t-74 -3t-127 2l-104 352h-471l-105 -352q-74 -2 -116.5 -2t-66.5 3t-34 8t-18 13q-16 16 -20.5 40z M424 551h379l-170 559l-23 92l-20 -92zM471 1583q74 57 121 92t78 53.5t50 24.5t40 6q33 0 74 -34.5t94 -114.5q-92 -49 -149.5 -77t-91.5 -41t-52 -17.5t-33 -4.5q-29 0 -57.5 21.5t-73.5 91.5z" />
<glyph unicode="&#xc2;" d="M14.5 56q-4.5 24 8.5 63l391 1175q8 29 21.5 47.5t43 29.5t82.5 15.5t139 4.5q57 0 87 -15.5t44 -60.5l390 -1194q12 -41 8 -64.5t-21 -40.5q-8 -8 -19 -13t-38 -8t-74 -3t-127 2l-104 352h-471l-105 -352q-74 -2 -116.5 -2t-66.5 3t-34 8t-18 13q-16 16 -20.5 40z M373 1550q0 20 9.5 36t31.5 36q37 37 64.5 62.5t50 42t45 23.5t47.5 7t47.5 -7t46 -23.5t51 -42t64.5 -62.5q20 -20 30.5 -35.5t10.5 -36.5q0 -29 -20.5 -52t-57.5 -28l-172 82l-172 -82q-35 4 -55.5 28t-20.5 52zM424 551h379l-170 559l-23 92l-20 -92z" />
<glyph unicode="&#xc3;" d="M14.5 56q-4.5 24 8.5 63l391 1175q8 29 21.5 47.5t43 29.5t82.5 15.5t139 4.5q57 0 87 -15.5t44 -60.5l390 -1194q12 -41 8 -64.5t-21 -40.5q-8 -8 -19 -13t-38 -8t-74 -3t-127 2l-104 352h-471l-105 -352q-74 -2 -116.5 -2t-66.5 3t-34 8t-18 13q-16 16 -20.5 40z M315 1597q0 86 38 117t87 31q41 0 79 -10.5t71.5 -21.5t64.5 -21.5t55 -10.5q31 0 40.5 20.5t2.5 61.5q98 18 138.5 -15.5t40.5 -119.5t-38 -116.5t-87 -30.5q-41 0 -80 10t-75 21.5t-65.5 21.5t-52.5 10q-53 0 -41 -82q-98 -18 -138 15.5t-40 119.5zM424 551h379l-170 559 l-23 92l-20 -92z" />
<glyph unicode="&#xc4;" d="M14.5 56q-4.5 24 8.5 63l391 1175q8 29 21.5 47.5t43 29.5t82.5 15.5t139 4.5q57 0 87 -15.5t44 -60.5l390 -1194q12 -41 8 -64.5t-21 -40.5q-8 -8 -19 -13t-38 -8t-74 -3t-127 2l-104 352h-471l-105 -352q-74 -2 -116.5 -2t-66.5 3t-34 8t-18 13q-16 16 -20.5 40z M301 1642q0 53 37 80t135 27q43 0 65.5 -14.5t22.5 -65.5q0 -66 -7 -103.5t-23.5 -59t-46 -27.5t-74.5 -6q-31 0 -51.5 6t-34 24.5t-18.5 52t-5 86.5zM424 551h379l-170 559l-23 92l-20 -92zM680 1642q0 53 38 80t136 27q43 0 64.5 -14.5t21.5 -65.5q0 -66 -7 -103.5 t-23.5 -59t-45 -27.5t-73.5 -6q-31 0 -52.5 6t-34 24.5t-18.5 52t-6 86.5z" />
<glyph unicode="&#xc5;" d="M14.5 56q-4.5 24 8.5 63l391 1175q8 29 21.5 47.5t43 29.5t82.5 15.5t139 4.5q57 0 87 -15.5t44 -60.5l390 -1194q12 -41 8 -64.5t-21 -40.5q-8 -8 -19 -13t-38 -8t-74 -3t-127 2l-104 352h-471l-105 -352q-74 -2 -116.5 -2t-66.5 3t-34 8t-18 13q-16 16 -20.5 40z M387 1659q0 59 18.5 100t50.5 66.5t74 37t91 11.5q100 0 166.5 -48t66.5 -167q0 -61 -17.5 -102t-48 -67t-73.5 -37t-94 -11q-49 0 -91 11t-74 37t-50.5 66.5t-18.5 102.5zM424 551h379l-170 559l-23 92l-20 -92zM543 1659q0 -47 22.5 -69.5t55.5 -22.5q35 0 56 22.5 t21 69.5q0 51 -21.5 70.5t-55.5 19.5q-33 0 -55.5 -19.5t-22.5 -70.5z" />
<glyph unicode="&#xc6;" horiz-adv-x="1808" d="M12.5 68q-4.5 32 18.5 67l719 1190q23 41 58.5 53.5t100.5 12.5h12.5h35h76.5h138.5t219.5 -1t319 -1q2 -55 3 -89t0 -53.5t-5 -30t-10 -16.5q-10 -10 -27.5 -14t-58.5 -4l-447 2l-2 -371h488v-195h-488v-411h243t147.5 1t90 5t70.5 10q4 -18 9.5 -53t5.5 -74 q0 -47 -30 -71.5t-95 -24.5h-711l10 332h-450l-191 -344q-72 0 -114 2t-64.5 6t-32.5 10t-18 14q-16 16 -20.5 48zM553 530h350l8 656z" />
<glyph unicode="&#xc7;" horiz-adv-x="1077" d="M78 666q0 373 161.5 553t454.5 180q49 0 94.5 -6.5t84 -16.5t66.5 -22.5t40 -24.5q10 -10 16 -21.5t6 -29.5t-6 -47t-20 -72q-20 4 -77.5 17.5t-139.5 13.5q-193 0 -294.5 -128t-101.5 -396q0 -231 105.5 -349t300.5 -118q78 0 134 9t87 19q25 -82 24 -115.5t-20 -52.5 q-29 -29 -107.5 -50t-189.5 -21q-143 0 -257.5 39t-194.5 121.5t-123 210.5t-43 307zM466.5 -320.5q-5.5 19.5 2.5 78.5q29 0 51.5 4.5t34.5 20.5q14 16 15.5 41.5t-9.5 85.5h156q8 -18 16.5 -52t8.5 -73q0 -84 -51.5 -123t-118.5 -39q-41 0 -61.5 9.5t-30.5 19.5 q-8 8 -13.5 27.5z" />
<glyph unicode="&#xc8;" horiz-adv-x="1067" d="M139 0q2 162 4 307q0 61 1 127t2 125t1 111.5v89.5q0 117 -1 206t-1 161.5t-1 134t-1 124.5h826q2 -53 3 -86.5t0 -53t-5 -30t-11 -16.5q-10 -10 -27.5 -14t-58.5 -4l-446 2l-4 -373h489v-195h-489l2 -409h236.5t152.5 1t95 4t65 11q4 -18 10 -53t6 -74 q0 -47 -29.5 -71.5t-95.5 -24.5h-723zM309 1610q31 47 54.5 76.5t44 46t37 21.5t32.5 5q18 0 37.5 -6t50.5 -24.5t79 -53.5t122 -92q-41 -70 -71.5 -91.5t-65.5 -21.5q-14 0 -30.5 4.5t-50.5 17.5t-90.5 41t-148.5 77z" />
<glyph unicode="&#xc9;" horiz-adv-x="1067" d="M139 0q2 162 4 307q0 61 1 127t2 125t1 111.5v89.5q0 117 -1 206t-1 161.5t-1 134t-1 124.5h826q2 -53 3 -86.5t0 -53t-5 -30t-11 -16.5q-10 -10 -27.5 -14t-58.5 -4l-446 2l-4 -373h489v-195h-489l2 -409h236.5t152.5 1t95 4t65 11q4 -18 10 -53t6 -74 q0 -47 -29.5 -71.5t-95.5 -24.5h-723zM413 1583q74 57 121 92t78 53.5t50 24.5t40 6q33 0 74 -34.5t94 -114.5q-92 -49 -149.5 -77t-91.5 -41t-52 -17.5t-33 -4.5q-29 0 -57.5 21.5t-73.5 91.5z" />
<glyph unicode="&#xca;" horiz-adv-x="1067" d="M139 0q2 162 4 307q0 61 1 127t2 125t1 111.5v89.5q0 117 -1 206t-1 161.5t-1 134t-1 124.5h826q2 -53 3 -86.5t0 -53t-5 -30t-11 -16.5q-10 -10 -27.5 -14t-58.5 -4l-446 2l-4 -373h489v-195h-489l2 -409h236.5t152.5 1t95 4t65 11q4 -18 10 -53t6 -74 q0 -47 -29.5 -71.5t-95.5 -24.5h-723zM334 1550q0 20 9.5 36t31.5 36q37 37 64.5 62.5t50 42t45 23.5t47.5 7t47.5 -7t46 -23.5t51 -42t64.5 -62.5q20 -20 30.5 -35.5t10.5 -36.5q0 -29 -20.5 -52t-57.5 -28l-172 82l-172 -82q-35 4 -55.5 28t-20.5 52z" />
<glyph unicode="&#xcb;" horiz-adv-x="1067" d="M139 0q2 162 4 307q0 61 1 127t2 125t1 111.5v89.5q0 117 -1 206t-1 161.5t-1 134t-1 124.5h826q2 -53 3 -86.5t0 -53t-5 -30t-11 -16.5q-10 -10 -27.5 -14t-58.5 -4l-446 2l-4 -373h489v-195h-489l2 -409h236.5t152.5 1t95 4t65 11q4 -18 10 -53t6 -74 q0 -47 -29.5 -71.5t-95.5 -24.5h-723zM244 1642q0 53 37 80t135 27q43 0 65.5 -14.5t22.5 -65.5q0 -66 -7 -103.5t-23.5 -59t-46 -27.5t-74.5 -6q-31 0 -51.5 6t-34 24.5t-18.5 52t-5 86.5zM623 1642q0 53 38 80t136 27q43 0 64.5 -14.5t21.5 -65.5q0 -66 -7 -103.5 t-23.5 -59t-45 -27.5t-73.5 -6q-31 0 -52.5 6t-34 24.5t-18.5 52t-6 86.5z" />
<glyph unicode="&#xcc;" horiz-adv-x="567" d="M-15 1610q31 47 54.5 76.5t44 46t37 21.5t32.5 5q18 0 37.5 -6t50.5 -24.5t79 -53.5t122 -92q-41 -70 -71.5 -91.5t-65.5 -21.5q-14 0 -30.5 4.5t-50.5 17.5t-90.5 41t-148.5 77zM139 -10q2 117 4 241q2 106 3 234.5t1 249.5q0 80 -1 166t-1 164.5t-1 144t-1 104.5 q0 27 7.5 45.5t29 29.5t60.5 16.5t100 5.5q43 0 65.5 -14.5t22.5 -55.5q0 -53 -1 -134t-3 -172t-3 -182.5t-1 -162.5v-670z" />
<glyph unicode="&#xcd;" horiz-adv-x="567" d="M139 -10q2 117 4 241q2 106 3 234.5t1 249.5q0 80 -1 166t-1 164.5t-1 144t-1 104.5q0 27 7.5 45.5t29 29.5t60.5 16.5t100 5.5q43 0 65.5 -14.5t22.5 -55.5q0 -53 -1 -134t-3 -172t-3 -182.5t-1 -162.5v-670zM143 1583q74 57 121 92t78 53.5t50 24.5t40 6q33 0 74 -34.5 t94 -114.5q-92 -49 -149.5 -77t-91.5 -41t-52 -17.5t-33 -4.5q-29 0 -57.5 21.5t-73.5 91.5z" />
<glyph unicode="&#xce;" horiz-adv-x="567" d="M37 1550q0 20 9.5 36t31.5 36q37 37 64.5 62.5t50 42t45 23.5t47.5 7t47.5 -7t46 -23.5t51 -42t64.5 -62.5q20 -20 30.5 -35.5t10.5 -36.5q0 -29 -20.5 -52t-57.5 -28l-172 82l-172 -82q-35 4 -55.5 28t-20.5 52zM139 -10q2 117 4 241q2 106 3 234.5t1 249.5q0 80 -1 166 t-1 164.5t-1 144t-1 104.5q0 27 7.5 45.5t29 29.5t60.5 16.5t100 5.5q43 0 65.5 -14.5t22.5 -55.5q0 -53 -1 -134t-3 -172t-3 -182.5t-1 -162.5v-670z" />
<glyph unicode="&#xcf;" horiz-adv-x="567" d="M-35 1642q0 53 37 80t135 27q43 0 65.5 -14.5t22.5 -65.5q0 -66 -7 -103.5t-23.5 -59t-46 -27.5t-74.5 -6q-31 0 -51.5 6t-34 24.5t-18.5 52t-5 86.5zM139 -10q2 117 4 241q2 106 3 234.5t1 249.5q0 80 -1 166t-1 164.5t-1 144t-1 104.5q0 27 7.5 45.5t29 29.5t60.5 16.5 t100 5.5q43 0 65.5 -14.5t22.5 -55.5q0 -53 -1 -134t-3 -172t-3 -182.5t-1 -162.5v-670zM344 1642q0 53 38 80t136 27q43 0 64.5 -14.5t21.5 -65.5q0 -66 -7 -103.5t-23.5 -59t-45 -27.5t-73.5 -6q-31 0 -52.5 6t-34 24.5t-18.5 52t-6 86.5z" />
<glyph unicode="&#xd0;" horiz-adv-x="1343" d="M18.5 683q-0.5 32 2 51.5t7.5 29.5t13 18q10 10 29.5 15.5t60.5 5.5h62q0 45 -1.5 120.5t-1.5 157.5t-1 161t-1 130q27 4 74 8t105.5 7.5t124 5.5t126.5 2q156 0 277 -39t203 -122t125 -214t43 -315q0 -190 -42 -325.5t-124 -221.5t-203 -127t-281 -41q-31 0 -92 3 t-126.5 8t-125 11t-88.5 13q2 82 4 178q2 80 2 184.5t3 214.5l-170 -2q-4 51 -4.5 83zM463 211q23 -2 63.5 -4t87.5 -2q84 0 152 24.5t116 83t73.5 153.5t25.5 236q0 135 -26.5 226.5t-76 148t-117 80t-149.5 23.5h-86t-59 -2q0 -35 -1 -137.5t-1 -237.5l207 2q4 -53 4 -86 t-2 -51.5t-7 -28.5t-14 -16q-10 -10 -31.5 -16.5t-74.5 -6.5l-82 2q0 -59 -1 -118.5t-1 -112v-94v-66.5z" />
<glyph unicode="&#xd1;" horiz-adv-x="1368" d="M139 -10q2 123 4 252q2 111 3 246t1 264q0 61 -1 143t-1 160t-1 143.5t-1 95.5q0 53 40 75t157 22q29 0 44 -8.5t32 -32.5l571 -944q-10 51 -17 101t-7 118v96t-1 129t-1 143.5t-1.5 135t-1.5 106.5v59q0 27 7.5 45.5t28 29.5t56 16.5t91.5 5.5q45 0 66.5 -14.5 t21.5 -55.5q0 -33 -1 -112t-3 -174t-3 -194.5t-1 -170.5v-670l-269 -10l-569 923q6 -27 12 -63q4 -31 9.5 -73t5.5 -91v-686zM391 1597q0 86 38 117t87 31q41 0 79 -10.5t71.5 -21.5t64.5 -21.5t55 -10.5q31 0 40.5 20.5t2.5 61.5q98 18 138.5 -15.5t40.5 -119.5t-38 -116.5 t-87 -30.5q-41 0 -80 10t-75 21.5t-65.5 21.5t-52.5 10q-53 0 -41 -82q-98 -18 -138 15.5t-40 119.5z" />
<glyph unicode="&#xd2;" horiz-adv-x="1337" d="M76 690q0 186 41 320.5t117.5 220.5t186 127t247.5 41q137 0 247.5 -41t187.5 -127t118 -220t41 -321q0 -184 -41 -318t-118 -220t-187.5 -127t-247.5 -41t-247 41t-186.5 127t-117.5 220t-41 318zM360 690q0 -260 82 -377.5t226 -117.5q145 0 226 117.5t81 377.5 q0 262 -81 380t-226 118q-143 0 -225.5 -118t-82.5 -380zM379 1610q31 47 54.5 76.5t44 46t37 21.5t32.5 5q18 0 37.5 -6t50.5 -24.5t79 -53.5t122 -92q-41 -70 -71.5 -91.5t-65.5 -21.5q-14 0 -30.5 4.5t-50.5 17.5t-90.5 41t-148.5 77z" />
<glyph unicode="&#xd3;" horiz-adv-x="1337" d="M76 690q0 186 41 320.5t117.5 220.5t186 127t247.5 41q137 0 247.5 -41t187.5 -127t118 -220t41 -321q0 -184 -41 -318t-118 -220t-187.5 -127t-247.5 -41t-247 41t-186.5 127t-117.5 220t-41 318zM360 690q0 -260 82 -377.5t226 -117.5q145 0 226 117.5t81 377.5 q0 262 -81 380t-226 118q-143 0 -225.5 -118t-82.5 -380zM540 1583q74 57 121 92t78 53.5t50 24.5t40 6q33 0 74 -34.5t94 -114.5q-92 -49 -149.5 -77t-91.5 -41t-52 -17.5t-33 -4.5q-29 0 -57.5 21.5t-73.5 91.5z" />
<glyph unicode="&#xd4;" horiz-adv-x="1337" d="M76 690q0 186 41 320.5t117.5 220.5t186 127t247.5 41q137 0 247.5 -41t187.5 -127t118 -220t41 -321q0 -184 -41 -318t-118 -220t-187.5 -127t-247.5 -41t-247 41t-186.5 127t-117.5 220t-41 318zM360 690q0 -260 82 -377.5t226 -117.5q145 0 226 117.5t81 377.5 q0 262 -81 380t-226 118q-143 0 -225.5 -118t-82.5 -380zM426 1550q0 20 9.5 36t31.5 36q37 37 64.5 62.5t50 42t45 23.5t47.5 7t47.5 -7t46 -23.5t51 -42t64.5 -62.5q20 -20 30.5 -35.5t10.5 -36.5q0 -29 -20.5 -52t-57.5 -28l-172 82l-172 -82q-35 4 -55.5 28t-20.5 52z " />
<glyph unicode="&#xd5;" horiz-adv-x="1337" d="M76 690q0 186 41 320.5t117.5 220.5t186 127t247.5 41q137 0 247.5 -41t187.5 -127t118 -220t41 -321q0 -184 -41 -318t-118 -220t-187.5 -127t-247.5 -41t-247 41t-186.5 127t-117.5 220t-41 318zM360 690q0 -260 82 -377.5t226 -117.5q145 0 226 117.5t81 377.5 q0 262 -81 380t-226 118q-143 0 -225.5 -118t-82.5 -380zM360 1597q0 86 38 117t87 31q41 0 79 -10.5t71.5 -21.5t64.5 -21.5t55 -10.5q31 0 40.5 20.5t2.5 61.5q98 18 138.5 -15.5t40.5 -119.5t-38 -116.5t-87 -30.5q-41 0 -80 10t-75 21.5t-65.5 21.5t-52.5 10 q-53 0 -41 -82q-98 -18 -138 15.5t-40 119.5z" />
<glyph unicode="&#xd6;" horiz-adv-x="1337" d="M76 690q0 186 41 320.5t117.5 220.5t186 127t247.5 41q137 0 247.5 -41t187.5 -127t118 -220t41 -321q0 -184 -41 -318t-118 -220t-187.5 -127t-247.5 -41t-247 41t-186.5 127t-117.5 220t-41 318zM352 1642q0 53 37 80t135 27q43 0 65.5 -14.5t22.5 -65.5 q0 -66 -7 -103.5t-23.5 -59t-46 -27.5t-74.5 -6q-31 0 -51.5 6t-34 24.5t-18.5 52t-5 86.5zM360 690q0 -260 82 -377.5t226 -117.5q145 0 226 117.5t81 377.5q0 262 -81 380t-226 118q-143 0 -225.5 -118t-82.5 -380zM731 1642q0 53 38 80t136 27q43 0 64.5 -14.5 t21.5 -65.5q0 -66 -7 -103.5t-23.5 -59t-45 -27.5t-73.5 -6q-31 0 -52.5 6t-34 24.5t-18.5 52t-6 86.5z" />
<glyph unicode="&#xd7;" horiz-adv-x="948" d="M88 840q33 37 55.5 59.5t39 34.5t28.5 16t22 4q14 0 34 -10t44 -41l166 -186l246 254q76 -63 96.5 -92t20.5 -52q0 -14 -9.5 -31.5t-39.5 -47.5l-181 -173l252 -260q-33 -37 -55.5 -59.5t-38.5 -34.5t-27.5 -15t-23.5 -3q-14 0 -32.5 8t-47.5 41l-166 186l-244 -250 q-39 31 -61.5 52.5t-34.5 38t-16 28.5t-4 25q0 14 8 32.5t41 47.5l180 168z" />
<glyph unicode="&#xd8;" horiz-adv-x="1337" d="M76 690q0 186 41 320.5t117.5 220.5t186 127t247.5 41q156 0 270 -51l86 141q14 23 35.5 26t77.5 -30q45 -27 51 -46.5t-6 -41.5l-92 -154q84 -86 128 -223t44 -330q0 -184 -41 -318t-118 -220t-187.5 -127t-247.5 -41q-154 0 -269 51l-82 -141q-12 -23 -34.5 -25 t-77.5 31q-43 25 -50.5 45t5.5 43l86 149q-82 86 -126 222.5t-44 330.5zM352 690q0 -86 15.5 -162.5t44.5 -124.5l409 742q-31 23 -70.5 33t-82.5 10q-143 0 -229.5 -118t-86.5 -380zM516 236q63 -41 152 -41q145 0 230 117.5t85 377.5q0 86 -14.5 163t-42.5 124z" />
<glyph unicode="&#xd9;" horiz-adv-x="1349" d="M131 1294q0 27 7 45.5t28.5 29.5t60.5 16.5t101 5.5q45 0 66.5 -14.5t21.5 -55.5q0 -27 -1 -85t-1 -135t-2 -163t-2 -167t-1 -149.5t-1 -107.5q0 -160 60 -238.5t204 -78.5q143 0 205.5 78.5t62.5 238.5v109.5t-1 148.5t-1 164t-1 156.5t-1 127v74.5q0 27 7 45.5 t27.5 29.5t59.5 16.5t100 5.5q45 0 67 -14.5t22 -55.5q0 -39 -1 -103.5t-1 -165t-1.5 -242.5t-1.5 -337q0 -123 -37.5 -214t-108.5 -150.5t-171 -89t-225 -29.5q-123 0 -222.5 29.5t-170 90t-108.5 151.5t-38 214q0 358 -1 558t-1 261zM383 1610q31 47 54.5 76.5t44 46 t37 21.5t32.5 5q18 0 37.5 -6t50.5 -24.5t79 -53.5t122 -92q-41 -70 -71.5 -91.5t-65.5 -21.5q-14 0 -30.5 4.5t-50.5 17.5t-90.5 41t-148.5 77z" />
<glyph unicode="&#xda;" horiz-adv-x="1349" d="M131 1294q0 27 7 45.5t28.5 29.5t60.5 16.5t101 5.5q45 0 66.5 -14.5t21.5 -55.5q0 -27 -1 -85t-1 -135t-2 -163t-2 -167t-1 -149.5t-1 -107.5q0 -160 60 -238.5t204 -78.5q143 0 205.5 78.5t62.5 238.5v109.5t-1 148.5t-1 164t-1 156.5t-1 127v74.5q0 27 7 45.5 t27.5 29.5t59.5 16.5t100 5.5q45 0 67 -14.5t22 -55.5q0 -39 -1 -103.5t-1 -165t-1.5 -242.5t-1.5 -337q0 -123 -37.5 -214t-108.5 -150.5t-171 -89t-225 -29.5q-123 0 -222.5 29.5t-170 90t-108.5 151.5t-38 214q0 358 -1 558t-1 261zM555 1583q74 57 121 92t78 53.5 t50 24.5t40 6q33 0 74 -34.5t94 -114.5q-92 -49 -149.5 -77t-91.5 -41t-52 -17.5t-33 -4.5q-29 0 -57.5 21.5t-73.5 91.5z" />
<glyph unicode="&#xdb;" horiz-adv-x="1349" d="M131 1294q0 27 7 45.5t28.5 29.5t60.5 16.5t101 5.5q45 0 66.5 -14.5t21.5 -55.5q0 -27 -1 -85t-1 -135t-2 -163t-2 -167t-1 -149.5t-1 -107.5q0 -160 60 -238.5t204 -78.5q143 0 205.5 78.5t62.5 238.5v109.5t-1 148.5t-1 164t-1 156.5t-1 127v74.5q0 27 7 45.5 t27.5 29.5t59.5 16.5t100 5.5q45 0 67 -14.5t22 -55.5q0 -39 -1 -103.5t-1 -165t-1.5 -242.5t-1.5 -337q0 -123 -37.5 -214t-108.5 -150.5t-171 -89t-225 -29.5q-123 0 -222.5 29.5t-170 90t-108.5 151.5t-38 214q0 358 -1 558t-1 261zM444 1550q0 20 9.5 36t31.5 36 q37 37 64.5 62.5t50 42t45 23.5t47.5 7t47.5 -7t46 -23.5t51 -42t64.5 -62.5q20 -20 30.5 -35.5t10.5 -36.5q0 -29 -20.5 -52t-57.5 -28l-172 82l-172 -82q-35 4 -55.5 28t-20.5 52z" />
<glyph unicode="&#xdc;" horiz-adv-x="1349" d="M131 1294q0 27 7 45.5t28.5 29.5t60.5 16.5t101 5.5q45 0 66.5 -14.5t21.5 -55.5q0 -27 -1 -85t-1 -135t-2 -163t-2 -167t-1 -149.5t-1 -107.5q0 -160 60 -238.5t204 -78.5q143 0 205.5 78.5t62.5 238.5v109.5t-1 148.5t-1 164t-1 156.5t-1 127v74.5q0 27 7 45.5 t27.5 29.5t59.5 16.5t100 5.5q45 0 67 -14.5t22 -55.5q0 -39 -1 -103.5t-1 -165t-1.5 -242.5t-1.5 -337q0 -123 -37.5 -214t-108.5 -150.5t-171 -89t-225 -29.5q-123 0 -222.5 29.5t-170 90t-108.5 151.5t-38 214q0 358 -1 558t-1 261zM373 1642q0 53 37 80t135 27 q43 0 65.5 -14.5t22.5 -65.5q0 -66 -7 -103.5t-23.5 -59t-46 -27.5t-74.5 -6q-31 0 -51.5 6t-34 24.5t-18.5 52t-5 86.5zM752 1642q0 53 38 80t136 27q43 0 64.5 -14.5t21.5 -65.5q0 -66 -7 -103.5t-23.5 -59t-45 -27.5t-73.5 -6q-31 0 -52.5 6t-34 24.5t-18.5 52t-6 86.5z " />
<glyph unicode="&#xdd;" horiz-adv-x="1101" d="M11.5 1321q-1.5 27 18 42t61.5 21.5t114 6.5q59 0 77.5 -17.5t34.5 -70.5l246 -631l256 637q10 27 22.5 43t34 24t57.5 11.5t93 3.5q39 0 56.5 -26t-5.5 -73l-389 -841q-2 -84 -2 -163t-2 -145q-2 -76 -2 -143l-281 -10q0 43 2 110q2 57 3.5 142.5t1.5 206.5l-377 806 q-18 39 -19.5 66zM397 1583q74 57 121 92t78 53.5t50 24.5t40 6q33 0 74 -34.5t94 -114.5q-92 -49 -149.5 -77t-91.5 -41t-52 -17.5t-33 -4.5q-29 0 -57.5 21.5t-73.5 91.5z" />
<glyph unicode="&#xde;" horiz-adv-x="1120" d="M139 -10q0 143 2 282q0 59 1 123t2 127.5t1 122v107.5q0 201 -2 333t-2 209q0 27 7.5 45.5t29 29.5t60 16.5t100.5 5.5q45 0 67.5 -14.5t20.5 -57.5l-4 -170q29 4 68.5 8t78.5 4q111 0 203 -25.5t157.5 -78.5t101.5 -139.5t36 -204.5q0 -123 -36 -208t-99.5 -139.5 t-150.5 -79t-187 -24.5q-41 0 -89 6t-87 15v-283zM418 475q29 -4 61.5 -7t69.5 -3q47 0 89 11t74.5 41t51 78t18.5 122q0 70 -19.5 116t-51 73.5t-74.5 37.5t-90 10t-80 -3t-45 -7q0 -35 -1 -92t-1 -123.5t-1 -133.5t-1 -120z" />
<glyph unicode="&#xdf;" horiz-adv-x="1138" d="M115 -10v77t1 114.5t1 161.5v214v105.5t-1 104.5t-1 92v69q0 125 25.5 228.5t82 177t147.5 114.5t222 41q135 0 222 -47t130 -128t40 -187.5t-48 -223.5q-84 -47 -118 -88t-34 -98q0 -37 22.5 -64.5t56.5 -52.5t73 -50.5t72.5 -60t56 -83t22.5 -117.5q0 -147 -90 -225 t-243 -78q-82 0 -149.5 18.5t-96.5 44.5q-16 16 -18.5 47t20.5 107q35 -8 86 -17.5t100 -9.5q61 0 95 27.5t34 81.5q0 41 -22.5 71.5t-56 56t-73.5 52.5t-74 60.5t-56.5 78.5t-22.5 111q0 96 49 161.5t158 122.5q25 51 28 104.5t-13.5 96.5t-52.5 69.5t-89 26.5 q-223 0 -223 -358l2 -938z" />
<glyph unicode="&#xe0;" horiz-adv-x="1105" d="M68 475q0 141 35.5 241.5t96 165t140.5 94.5t170 30q78 0 137.5 -20.5t87.5 -39.5q16 35 60.5 47.5t111.5 12.5q47 0 64.5 -17.5t17.5 -52.5q0 -18 -1 -66.5t-3 -113t-3 -136.5t-1 -135q0 -129 1 -209.5t2 -133t4 -83t9 -59.5q-31 -4 -85 -7t-95 -3q-53 0 -77.5 33.5 t-16.5 95.5l20 45l-4 6q-25 -35 -57.5 -67.5t-74.5 -58.5t-90 -42t-103 -16q-346 0 -346 489zM342 485q0 -164 45 -230.5t125 -66.5q31 0 62.5 14.5t59.5 34t50.5 43t34.5 42.5v151.5t2 140t3 112.5t3 67q-35 12 -77 18t-85 6q-49 0 -91 -14.5t-70.5 -52t-45 -102 t-16.5 -163.5zM342 1366q76 45 113 60.5t69 15.5q23 0 41.5 -8.5t43 -37t59.5 -82.5t88 -149q-49 -33 -76.5 -44t-56.5 -11q-18 0 -37 7t-48.5 33t-75.5 77t-120 139z" />
<glyph unicode="&#xe1;" horiz-adv-x="1105" d="M68 475q0 141 35.5 241.5t96 165t140.5 94.5t170 30q78 0 137.5 -20.5t87.5 -39.5q16 35 60.5 47.5t111.5 12.5q47 0 64.5 -17.5t17.5 -52.5q0 -18 -1 -66.5t-3 -113t-3 -136.5t-1 -135q0 -129 1 -209.5t2 -133t4 -83t9 -59.5q-31 -4 -85 -7t-95 -3q-53 0 -77.5 33.5 t-16.5 95.5l20 45l-4 6q-25 -35 -57.5 -67.5t-74.5 -58.5t-90 -42t-103 -16q-346 0 -346 489zM342 485q0 -164 45 -230.5t125 -66.5q31 0 62.5 14.5t59.5 34t50.5 43t34.5 42.5v151.5t2 140t3 112.5t3 67q-35 12 -77 18t-85 6q-49 0 -91 -14.5t-70.5 -52t-45 -102 t-16.5 -163.5zM403 1165q53 94 88 148.5t58.5 83t43 37t42.5 8.5q31 0 68.5 -14.5t113.5 -61.5q-74 -88 -120 -139t-75.5 -77t-48.5 -33t-37 -7q-29 0 -56.5 11.5t-76.5 43.5z" />
<glyph unicode="&#xe2;" horiz-adv-x="1105" d="M68 475q0 141 35.5 241.5t96 165t140.5 94.5t170 30q78 0 137.5 -20.5t87.5 -39.5q16 35 60.5 47.5t111.5 12.5q47 0 64.5 -17.5t17.5 -52.5q0 -18 -1 -66.5t-3 -113t-3 -136.5t-1 -135q0 -129 1 -209.5t2 -133t4 -83t9 -59.5q-31 -4 -85 -7t-95 -3q-53 0 -77.5 33.5 t-16.5 95.5l20 45l-4 6q-25 -35 -57.5 -67.5t-74.5 -58.5t-90 -42t-103 -16q-346 0 -346 489zM313 1176q0 33 31 71q29 37 53.5 70t50 57.5t52 40t61.5 15.5q33 0 61.5 -15.5t54 -40t50 -57.5t53.5 -70q31 -39 31 -71q0 -29 -17.5 -45.5t-58.5 -26.5l-174 145l-174 -145 q-41 10 -57.5 26.5t-16.5 45.5zM342 485q0 -164 45 -230.5t125 -66.5q31 0 62.5 14.5t59.5 34t50.5 43t34.5 42.5v151.5t2 140t3 112.5t3 67q-35 12 -77 18t-85 6q-49 0 -91 -14.5t-70.5 -52t-45 -102t-16.5 -163.5z" />
<glyph unicode="&#xe3;" horiz-adv-x="1105" d="M68 475q0 141 35.5 241.5t96 165t140.5 94.5t170 30q78 0 137.5 -20.5t87.5 -39.5q16 35 60.5 47.5t111.5 12.5q47 0 64.5 -17.5t17.5 -52.5q0 -18 -1 -66.5t-3 -113t-3 -136.5t-1 -135q0 -129 1 -209.5t2 -133t4 -83t9 -59.5q-31 -4 -85 -7t-95 -3q-53 0 -77.5 33.5 t-16.5 95.5l20 45l-4 6q-25 -35 -57.5 -67.5t-74.5 -58.5t-90 -42t-103 -16q-346 0 -346 489zM241 1249q0 86 38 117t87 31q41 0 79 -10.5t71.5 -21.5t64.5 -21.5t55 -10.5q31 0 40.5 20.5t2.5 61.5q98 18 138.5 -15.5t40.5 -119.5t-38 -116.5t-87 -30.5q-41 0 -80 10 t-75 21.5t-65.5 21.5t-52.5 10q-53 0 -41 -82q-98 -18 -138 15.5t-40 119.5zM342 485q0 -164 45 -230.5t125 -66.5q31 0 62.5 14.5t59.5 34t50.5 43t34.5 42.5v151.5t2 140t3 112.5t3 67q-35 12 -77 18t-85 6q-49 0 -91 -14.5t-70.5 -52t-45 -102t-16.5 -163.5z" />
<glyph unicode="&#xe4;" horiz-adv-x="1105" d="M68 475q0 141 35.5 241.5t96 165t140.5 94.5t170 30q78 0 137.5 -20.5t87.5 -39.5q16 35 60.5 47.5t111.5 12.5q47 0 64.5 -17.5t17.5 -52.5q0 -18 -1 -66.5t-3 -113t-3 -136.5t-1 -135q0 -129 1 -209.5t2 -133t4 -83t9 -59.5q-31 -4 -85 -7t-95 -3q-53 0 -77.5 33.5 t-16.5 95.5l20 45l-4 6q-25 -35 -57.5 -67.5t-74.5 -58.5t-90 -42t-103 -16q-346 0 -346 489zM254 1307q0 53 37 80.5t135 27.5q43 0 65.5 -15.5t22.5 -64.5q0 -66 -7 -104.5t-23.5 -59t-46 -27.5t-74.5 -7q-31 0 -51.5 7t-34 25.5t-18.5 51.5t-5 86zM342 485 q0 -164 45 -230.5t125 -66.5q31 0 62.5 14.5t59.5 34t50.5 43t34.5 42.5v151.5t2 140t3 112.5t3 67q-35 12 -77 18t-85 6q-49 0 -91 -14.5t-70.5 -52t-45 -102t-16.5 -163.5zM633 1307q0 53 38 80.5t136 27.5q43 0 64.5 -15.5t21.5 -64.5q0 -66 -7 -104.5t-23.5 -59 t-45 -27.5t-73.5 -7q-31 0 -52.5 7t-34 25.5t-18.5 51.5t-6 86z" />
<glyph unicode="&#xe5;" horiz-adv-x="1105" d="M68 475q0 141 35.5 241.5t96 165t140.5 94.5t170 30q78 0 137.5 -20.5t87.5 -39.5q16 35 60.5 47.5t111.5 12.5q47 0 64.5 -17.5t17.5 -52.5q0 -18 -1 -66.5t-3 -113t-3 -136.5t-1 -135q0 -129 1 -209.5t2 -133t4 -83t9 -59.5q-31 -4 -85 -7t-95 -3q-53 0 -77.5 33.5 t-16.5 95.5l20 45l-4 6q-25 -35 -57.5 -67.5t-74.5 -58.5t-90 -42t-103 -16q-346 0 -346 489zM342 485q0 -164 45 -230.5t125 -66.5q31 0 62.5 14.5t59.5 34t50.5 43t34.5 42.5v151.5t2 140t3 112.5t3 67q-35 12 -77 18t-85 6q-49 0 -91 -14.5t-70.5 -52t-45 -102 t-16.5 -163.5zM348 1294q0 59 18.5 100.5t50.5 67t74 36.5t91 11q100 0 166.5 -48t66.5 -167q0 -123 -65.5 -170t-167.5 -47q-49 0 -91 11.5t-74 36t-50.5 66.5t-18.5 103zM504 1294q0 -47 22.5 -69.5t55.5 -22.5q35 0 56 22.5t21 69.5q0 49 -21.5 69.5t-55.5 20.5 q-33 0 -55.5 -20.5t-22.5 -69.5z" />
<glyph unicode="&#xe6;" horiz-adv-x="1683" d="M68 475q0 141 35.5 241.5t96 165t140.5 94.5t170 30q78 0 137.5 -20.5t87.5 -39.5q16 35 60.5 47.5t111.5 12.5q47 0 64.5 -17.5t17.5 -52.5v-6q43 35 97 55.5t128 20.5q203 0 306.5 -107.5t103.5 -343.5q0 -57 -26.5 -80.5t-86.5 -23.5h-128.5h-152.5t-144.5 1t-102.5 1 q-6 -154 64.5 -212.5t207.5 -58.5q51 0 98.5 5.5t87.5 12.5t70.5 14t49.5 13q12 -41 17 -65.5t5 -41t-5 -25.5t-13 -17q-31 -31 -123 -59.5t-236 -28.5q-145 0 -256.5 48t-175.5 155q-25 -35 -60.5 -71t-79.5 -66.5t-99.5 -50t-120.5 -19.5q-346 0 -346 489zM342 485 q0 -164 45 -230.5t125 -66.5q31 0 62.5 14.5t59.5 34t50.5 43t34.5 42.5v151.5t2 140t3 112.5t3 67q-35 12 -77 18t-85 6q-49 0 -91 -14.5t-70.5 -52t-45 -102t-16.5 -163.5zM985 586l385 4q4 123 -44 176t-124 53q-92 0 -150.5 -66.5t-66.5 -166.5z" />
<glyph unicode="&#xe7;" horiz-adv-x="821" d="M66 483q0 145 34.5 245.5t95 162t139.5 88.5t169 27q98 0 162.5 -26t91.5 -52q8 -8 14 -17.5t5 -25t-8 -40t-24 -61.5q-25 6 -67.5 16.5t-102.5 10.5q-109 0 -173 -74t-64 -252q0 -88 17.5 -147t48 -95t73.5 -51.5t96 -15.5q68 0 114 10.5t73 20.5q12 -37 18 -60.5t6 -40 t-6 -26.5t-16 -21q-23 -23 -89.5 -48t-185.5 -25q-90 0 -167.5 28.5t-134 88t-88 153.5t-31.5 227zM326.5 -320.5q-5.5 19.5 2.5 78.5q29 0 51.5 4.5t34.5 20.5q14 16 15.5 41.5t-9.5 85.5h156q8 -18 16.5 -52t8.5 -73q0 -84 -51.5 -123t-118.5 -39q-41 0 -61.5 9.5 t-30.5 19.5q-8 8 -13.5 27.5z" />
<glyph unicode="&#xe8;" horiz-adv-x="1040" d="M66 465q0 135 35.5 236.5t100 169t155.5 101.5t202 34q100 0 179 -25t132.5 -79t82 -139t28.5 -208q0 -57 -26.5 -80.5t-86.5 -23.5h-128.5h-152.5t-144.5 1t-102.5 1q-6 -154 64.5 -212.5t207.5 -58.5q51 0 98.5 5.5t87.5 12.5t70.5 14t49.5 13q12 -41 17 -65.5t5 -41 t-5 -25.5t-13 -17q-31 -31 -123 -59.5t-236 -28.5q-109 0 -200 27.5t-157.5 85t-103 147.5t-36.5 215zM311 1366q76 45 113 60.5t69 15.5q23 0 41.5 -8.5t43 -37t59.5 -82.5t88 -149q-49 -33 -76.5 -44t-56.5 -11q-18 0 -37 7t-48.5 33t-75.5 77t-120 139zM342 586l385 4 q4 123 -44 176t-124 53q-92 0 -150.5 -66.5t-66.5 -166.5z" />
<glyph unicode="&#xe9;" horiz-adv-x="1040" d="M66 465q0 135 35.5 236.5t100 169t155.5 101.5t202 34q100 0 179 -25t132.5 -79t82 -139t28.5 -208q0 -57 -26.5 -80.5t-86.5 -23.5h-128.5h-152.5t-144.5 1t-102.5 1q-6 -154 64.5 -212.5t207.5 -58.5q51 0 98.5 5.5t87.5 12.5t70.5 14t49.5 13q12 -41 17 -65.5t5 -41 t-5 -25.5t-13 -17q-31 -31 -123 -59.5t-236 -28.5q-109 0 -200 27.5t-157.5 85t-103 147.5t-36.5 215zM342 586l385 4q4 123 -44 176t-124 53q-92 0 -150.5 -66.5t-66.5 -166.5zM463 1165q53 94 88 148.5t58.5 83t43 37t42.5 8.5q31 0 68.5 -14.5t113.5 -61.5 q-74 -88 -120 -139t-75.5 -77t-48.5 -33t-37 -7q-29 0 -56.5 11.5t-76.5 43.5z" />
<glyph unicode="&#xea;" horiz-adv-x="1040" d="M66 465q0 135 35.5 236.5t100 169t155.5 101.5t202 34q100 0 179 -25t132.5 -79t82 -139t28.5 -208q0 -57 -26.5 -80.5t-86.5 -23.5h-128.5h-152.5t-144.5 1t-102.5 1q-6 -154 64.5 -212.5t207.5 -58.5q51 0 98.5 5.5t87.5 12.5t70.5 14t49.5 13q12 -41 17 -65.5t5 -41 t-5 -25.5t-13 -17q-31 -31 -123 -59.5t-236 -28.5q-109 0 -200 27.5t-157.5 85t-103 147.5t-36.5 215zM327 1176q0 33 31 71q29 37 53.5 70t50 57.5t52 40t61.5 15.5q33 0 61.5 -15.5t54 -40t50 -57.5t53.5 -70q31 -39 31 -71q0 -29 -17.5 -45.5t-58.5 -26.5l-174 145 l-174 -145q-41 10 -57.5 26.5t-16.5 45.5zM342 586l385 4q4 123 -44 176t-124 53q-92 0 -150.5 -66.5t-66.5 -166.5z" />
<glyph unicode="&#xeb;" horiz-adv-x="1040" d="M66 465q0 135 35.5 236.5t100 169t155.5 101.5t202 34q100 0 179 -25t132.5 -79t82 -139t28.5 -208q0 -57 -26.5 -80.5t-86.5 -23.5h-128.5h-152.5t-144.5 1t-102.5 1q-6 -154 64.5 -212.5t207.5 -58.5q51 0 98.5 5.5t87.5 12.5t70.5 14t49.5 13q12 -41 17 -65.5t5 -41 t-5 -25.5t-13 -17q-31 -31 -123 -59.5t-236 -28.5q-109 0 -200 27.5t-157.5 85t-103 147.5t-36.5 215zM260 1307q0 53 37 80.5t135 27.5q43 0 65.5 -15.5t22.5 -64.5q0 -66 -7 -104.5t-23.5 -59t-46 -27.5t-74.5 -7q-31 0 -51.5 7t-34 25.5t-18.5 51.5t-5 86zM342 586l385 4 q4 123 -44 176t-124 53q-92 0 -150.5 -66.5t-66.5 -166.5zM639 1307q0 53 38 80.5t136 27.5q43 0 64.5 -15.5t21.5 -64.5q0 -66 -7 -104.5t-23.5 -59t-45 -27.5t-73.5 -7q-31 0 -52.5 7t-34 25.5t-18.5 51.5t-6 86z" />
<glyph unicode="&#xec;" horiz-adv-x="503" d="M6 1366q76 45 113 60.5t69 15.5q23 0 41.5 -8.5t43 -37t59.5 -82.5t88 -149q-49 -33 -76.5 -44t-56.5 -11q-18 0 -37 7t-48.5 33t-75.5 77t-120 139zM119 -10q0 37 1 112.5t1 165.5t1 184.5t1 168.5q0 33 -1 71.5t-1 78.5t-1 77t-1 63q0 47 40 71t144 24q45 0 63.5 -16.5 t18.5 -51.5v-938z" />
<glyph unicode="&#xed;" horiz-adv-x="503" d="M119 -10q0 37 1 112.5t1 165.5t1 184.5t1 168.5q0 33 -1 71.5t-1 78.5t-1 77t-1 63q0 47 40 71t144 24q45 0 63.5 -16.5t18.5 -51.5v-938zM137 1165q53 94 88 148.5t58.5 83t43 37t42.5 8.5q31 0 68.5 -14.5t113.5 -61.5q-74 -88 -120 -139t-75.5 -77t-48.5 -33t-37 -7 q-29 0 -56.5 11.5t-76.5 43.5z" />
<glyph unicode="&#xee;" horiz-adv-x="503" d="M6 1176q0 33 31 71q29 37 53.5 70t50 57.5t52 40t61.5 15.5q33 0 61.5 -15.5t54 -40t50 -57.5t53.5 -70q31 -39 31 -71q0 -29 -17.5 -45.5t-58.5 -26.5l-174 145l-174 -145q-41 10 -57.5 26.5t-16.5 45.5zM119 -10q0 37 1 112.5t1 165.5t1 184.5t1 168.5q0 33 -1 71.5 t-1 78.5t-1 77t-1 63q0 47 40 71t144 24q45 0 63.5 -16.5t18.5 -51.5v-938z" />
<glyph unicode="&#xef;" horiz-adv-x="503" d="M-66 1307q0 53 37 80.5t135 27.5q43 0 65.5 -15.5t22.5 -64.5q0 -66 -7 -104.5t-23.5 -59t-46 -27.5t-74.5 -7q-31 0 -51.5 7t-34 25.5t-18.5 51.5t-5 86zM119 -10q0 37 1 112.5t1 165.5t1 184.5t1 168.5q0 33 -1 71.5t-1 78.5t-1 77t-1 63q0 47 40 71t144 24 q45 0 63.5 -16.5t18.5 -51.5v-938zM313 1307q0 53 38 80.5t136 27.5q43 0 64.5 -15.5t21.5 -64.5q0 -66 -7 -104.5t-23.5 -59t-45 -27.5t-73.5 -7q-31 0 -52.5 7t-34 25.5t-18.5 51.5t-6 86z" />
<glyph unicode="&#xf0;" horiz-adv-x="1058" d="M66 469q0 143 38.5 238.5t101 151.5t141.5 79t161 23q51 0 112.5 -12.5t88.5 -26.5q-12 74 -45 149.5t-95 120.5l-133 -135q-72 25 -98.5 43t-26.5 41q0 16 8.5 30.5t24.5 30.5l66 51q-25 16 -72 26.5t-82 14.5q-27 2 -38 20.5t-11 45.5q0 80 18.5 111.5t46.5 31.5 q20 0 53 -3t71 -10t77 -19.5t70 -28.5l129 133q82 -16 105.5 -35.5t23.5 -42.5q0 -25 -31 -57l-68 -64q86 -55 142.5 -138t89.5 -184.5t46 -216t13 -237.5q0 -170 -33.5 -286.5t-95 -189.5t-147.5 -105.5t-193 -32.5q-223 0 -340.5 118.5t-117.5 364.5zM330 473 q0 -152 56 -223.5t153 -71.5q96 0 147 77t51 257q0 59 -3 118.5t-11 106.5q-27 12 -80 24.5t-98 12.5q-49 0 -89 -13t-68 -47t-43 -92.5t-15 -148.5z" />
<glyph unicode="&#xf1;" horiz-adv-x="1138" d="M113 913q0 47 46 70t150 23q37 0 51.5 -17.5t14.5 -44.5t-3 -54.5t-7 -55.5l6 -5q29 31 66.5 62t82.5 56.5t97.5 42t111.5 16.5q147 0 220 -87.5t73 -269.5t-1 -291.5t-1 -176t2 -105.5t8 -76q-10 -2 -28.5 -4t-42 -3t-47.5 -1h-44q-59 0 -86.5 32.5t-27.5 81.5v498 q0 106 -31 150.5t-98 44.5q-63 0 -127 -42t-117 -89v-668l-266 -10q4 160 4 314.5v283.5q0 98 -3 185t-3 140zM264 1249q0 86 38 117t87 31q41 0 79 -10.5t71.5 -21.5t64.5 -21.5t55 -10.5q31 0 40.5 20.5t2.5 61.5q98 18 138.5 -15.5t40.5 -119.5t-38 -116.5t-87 -30.5 q-41 0 -80 10t-75 21.5t-65.5 21.5t-52.5 10q-53 0 -41 -82q-98 -18 -138 15.5t-40 119.5z" />
<glyph unicode="&#xf2;" horiz-adv-x="1075" d="M66 498q0 139 38.5 235t104 156.5t151.5 88.5t179 28q92 0 177 -28t150.5 -88.5t104.5 -156.5t39 -235t-38 -236.5t-102.5 -159t-150.5 -89t-180 -27.5t-180.5 27.5t-151 89t-103 158.5t-38.5 237zM280 1366q76 45 113 60.5t69 15.5q23 0 41.5 -8.5t43 -37t59.5 -82.5 t88 -149q-49 -33 -76.5 -44t-56.5 -11q-18 0 -37 7t-48.5 33t-75.5 77t-120 139zM330 498q0 -166 53 -245t156 -79q100 0 153 79t53 245q0 162 -53 240.5t-153 78.5q-102 0 -155.5 -79t-53.5 -240z" />
<glyph unicode="&#xf3;" horiz-adv-x="1075" d="M66 498q0 139 38.5 235t104 156.5t151.5 88.5t179 28q92 0 177 -28t150.5 -88.5t104.5 -156.5t39 -235t-38 -236.5t-102.5 -159t-150.5 -89t-180 -27.5t-180.5 27.5t-151 89t-103 158.5t-38.5 237zM330 498q0 -166 53 -245t156 -79q100 0 153 79t53 245q0 162 -53 240.5 t-153 78.5q-102 0 -155.5 -79t-53.5 -240zM442 1165q53 94 88 148.5t58.5 83t43 37t42.5 8.5q31 0 68.5 -14.5t113.5 -61.5q-74 -88 -120 -139t-75.5 -77t-48.5 -33t-37 -7q-29 0 -56.5 11.5t-76.5 43.5z" />
<glyph unicode="&#xf4;" horiz-adv-x="1075" d="M66 498q0 139 38.5 235t104 156.5t151.5 88.5t179 28q92 0 177 -28t150.5 -88.5t104.5 -156.5t39 -235t-38 -236.5t-102.5 -159t-150.5 -89t-180 -27.5t-180.5 27.5t-151 89t-103 158.5t-38.5 237zM291 1176q0 33 31 71q29 37 53.5 70t50 57.5t52 40t61.5 15.5 q33 0 61.5 -15.5t54 -40t50 -57.5t53.5 -70q31 -39 31 -71q0 -29 -17.5 -45.5t-58.5 -26.5l-174 145l-174 -145q-41 10 -57.5 26.5t-16.5 45.5zM330 498q0 -166 53 -245t156 -79q100 0 153 79t53 245q0 162 -53 240.5t-153 78.5q-102 0 -155.5 -79t-53.5 -240z" />
<glyph unicode="&#xf5;" horiz-adv-x="1075" d="M66 498q0 139 38.5 235t104 156.5t151.5 88.5t179 28q92 0 177 -28t150.5 -88.5t104.5 -156.5t39 -235t-38 -236.5t-102.5 -159t-150.5 -89t-180 -27.5t-180.5 27.5t-151 89t-103 158.5t-38.5 237zM229 1249q0 86 38 117t87 31q41 0 79 -10.5t71.5 -21.5t64.5 -21.5 t55 -10.5q31 0 40.5 20.5t2.5 61.5q98 18 138.5 -15.5t40.5 -119.5t-38 -116.5t-87 -30.5q-41 0 -80 10t-75 21.5t-65.5 21.5t-52.5 10q-53 0 -41 -82q-98 -18 -138 15.5t-40 119.5zM330 498q0 -166 53 -245t156 -79q100 0 153 79t53 245q0 162 -53 240.5t-153 78.5 q-102 0 -155.5 -79t-53.5 -240z" />
<glyph unicode="&#xf6;" horiz-adv-x="1075" d="M66 498q0 139 38.5 235t104 156.5t151.5 88.5t179 28q92 0 177 -28t150.5 -88.5t104.5 -156.5t39 -235t-38 -236.5t-102.5 -159t-150.5 -89t-180 -27.5t-180.5 27.5t-151 89t-103 158.5t-38.5 237zM217 1307q0 53 37 80.5t135 27.5q43 0 65.5 -15.5t22.5 -64.5 q0 -66 -7 -104.5t-23.5 -59t-46 -27.5t-74.5 -7q-31 0 -51.5 7t-34 25.5t-18.5 51.5t-5 86zM330 498q0 -166 53 -245t156 -79q100 0 153 79t53 245q0 162 -53 240.5t-153 78.5q-102 0 -155.5 -79t-53.5 -240zM596 1307q0 53 38 80.5t136 27.5q43 0 64.5 -15.5t21.5 -64.5 q0 -66 -7 -104.5t-23.5 -59t-45 -27.5t-73.5 -7q-31 0 -52.5 7t-34 25.5t-18.5 51.5t-6 86z" />
<glyph unicode="&#xf7;" horiz-adv-x="925" d="M29 540.5q0 32.5 2 52t7 29t13 17.5q10 10 30.5 15t61.5 5h760q4 -53 5 -84.5t-1 -51t-7 -29t-13 -17.5q-10 -10 -30.5 -15t-61.5 -5h-762q-4 51 -4 83.5zM342 238q0 55 41 82.5t141 27.5q41 0 66.5 -15.5t25.5 -64.5q0 -70 -6 -111.5t-23.5 -63t-48 -29t-79.5 -7.5 q-35 0 -57.5 7.5t-36 28t-18.5 55.5t-5 90zM342 946q0 57 41 84t141 27q41 0 66.5 -15.5t25.5 -64.5q0 -70 -6 -112t-23.5 -63.5t-48 -28.5t-79.5 -7q-35 0 -57.5 7t-36 27.5t-18.5 55.5t-5 90z" />
<glyph unicode="&#xf8;" horiz-adv-x="1075" d="M66 498q0 139 38.5 236t104 158.5t151.5 89.5t179 28q90 0 176 -29l57 100q14 23 31.5 26t58.5 -20t49.5 -40t-4.5 -39l-57 -101q72 -61 115 -161.5t43 -247.5q0 -139 -38 -236.5t-102.5 -159t-149.5 -89t-179 -27.5q-100 0 -187 30l-53 -96q-14 -23 -33.5 -24.5 t-62.5 22.5q-37 20 -45 36.5t6 39.5l53 98q-72 61 -111.5 160.5t-39.5 245.5zM319 498q0 -49 7.5 -99.5t21.5 -81.5l264 486q-37 16 -73 16q-102 0 -161 -78.5t-59 -242.5zM455 195q37 -18 84 -19q100 0 158.5 80t58.5 242q0 53 -8.5 106t-22.5 84z" />
<glyph unicode="&#xf9;" horiz-adv-x="1136" d="M113 344v569q0 47 42 70t146 23q45 0 61.5 -19.5t16.5 -52.5t-1 -97.5t-1 -141.5t-1 -157.5t-1 -148.5q0 -115 32.5 -157t104.5 -42q63 0 122.5 42t113.5 100v581q0 47 40.5 70t145.5 23q47 0 63.5 -17.5t16.5 -50.5v-81t-1 -131t-1 -163v-176v-140.5t1 -98.5t4 -76.5 t9 -71.5q-20 -4 -70.5 -6t-91.5 -2q-59 0 -90 34.5t-24 100.5l16 41l-6 4q-131 -182 -361 -182q-141 0 -213.5 85t-72.5 269zM307 1366q76 45 113 60.5t69 15.5q23 0 41.5 -8.5t43 -37t59.5 -82.5t88 -149q-49 -33 -76.5 -44t-56.5 -11q-18 0 -37 7t-48.5 33t-75.5 77 t-120 139z" />
<glyph unicode="&#xfa;" horiz-adv-x="1136" d="M113 344v569q0 47 42 70t146 23q45 0 61.5 -19.5t16.5 -52.5t-1 -97.5t-1 -141.5t-1 -157.5t-1 -148.5q0 -115 32.5 -157t104.5 -42q63 0 122.5 42t113.5 100v581q0 47 40.5 70t145.5 23q47 0 63.5 -17.5t16.5 -50.5v-81t-1 -131t-1 -163v-176v-140.5t1 -98.5t4 -76.5 t9 -71.5q-20 -4 -70.5 -6t-91.5 -2q-59 0 -90 34.5t-24 100.5l16 41l-6 4q-131 -182 -361 -182q-141 0 -213.5 85t-72.5 269zM446 1165q53 94 88 148.5t58.5 83t43 37t42.5 8.5q31 0 68.5 -14.5t113.5 -61.5q-74 -88 -120 -139t-75.5 -77t-48.5 -33t-37 -7q-29 0 -56.5 11.5 t-76.5 43.5z" />
<glyph unicode="&#xfb;" horiz-adv-x="1136" d="M113 344v569q0 47 42 70t146 23q45 0 61.5 -19.5t16.5 -52.5t-1 -97.5t-1 -141.5t-1 -157.5t-1 -148.5q0 -115 32.5 -157t104.5 -42q63 0 122.5 42t113.5 100v581q0 47 40.5 70t145.5 23q47 0 63.5 -17.5t16.5 -50.5v-81t-1 -131t-1 -163v-176v-140.5t1 -98.5t4 -76.5 t9 -71.5q-20 -4 -70.5 -6t-91.5 -2q-59 0 -90 34.5t-24 100.5l16 41l-6 4q-131 -182 -361 -182q-141 0 -213.5 85t-72.5 269zM323 1176q0 33 31 71q29 37 53.5 70t50 57.5t52 40t61.5 15.5q33 0 61.5 -15.5t54 -40t50 -57.5t53.5 -70q31 -39 31 -71q0 -29 -17.5 -45.5 t-58.5 -26.5l-174 145l-174 -145q-41 10 -57.5 26.5t-16.5 45.5z" />
<glyph unicode="&#xfc;" horiz-adv-x="1136" d="M113 344v569q0 47 42 70t146 23q45 0 61.5 -19.5t16.5 -52.5t-1 -97.5t-1 -141.5t-1 -157.5t-1 -148.5q0 -115 32.5 -157t104.5 -42q63 0 122.5 42t113.5 100v581q0 47 40.5 70t145.5 23q47 0 63.5 -17.5t16.5 -50.5v-81t-1 -131t-1 -163v-176v-140.5t1 -98.5t4 -76.5 t9 -71.5q-20 -4 -70.5 -6t-91.5 -2q-59 0 -90 34.5t-24 100.5l16 41l-6 4q-131 -182 -361 -182q-141 0 -213.5 85t-72.5 269zM250 1307q0 53 37 80.5t135 27.5q43 0 65.5 -15.5t22.5 -64.5q0 -66 -7 -104.5t-23.5 -59t-46 -27.5t-74.5 -7q-31 0 -51.5 7t-34 25.5t-18.5 51.5 t-5 86zM629 1307q0 53 38 80.5t136 27.5q43 0 64.5 -15.5t21.5 -64.5q0 -66 -7 -104.5t-23.5 -59t-45 -27.5t-73.5 -7q-31 0 -52.5 7t-34 25.5t-18.5 51.5t-6 86z" />
<glyph unicode="&#xfd;" horiz-adv-x="970" d="M6 915q-18 49 25 70t164 21q45 0 60 -12.5t32 -57.5l219 -690q14 53 40.5 144t55.5 191.5t54.5 192.5t39.5 146q6 25 14.5 41t28 26t54 14.5t92.5 4.5q37 0 57.5 -17.5t3.5 -77.5q-25 -84 -60.5 -193.5t-76.5 -231t-84 -246.5t-82 -242q-43 -129 -84 -217t-86 -141.5 t-99.5 -77t-123.5 -23.5q-113 0 -152 27.5t-39 68.5q0 20 3.5 43t15.5 64q33 -6 63.5 -9t73.5 -3q27 0 52.5 8t48 31.5t45 67.5t45.5 118q-41 104 -96.5 238.5t-113 268.5t-107.5 255t-83 198zM362 1165q53 94 88 148.5t58.5 83t43 37t42.5 8.5q31 0 68.5 -14.5t113.5 -61.5 q-74 -88 -120 -139t-75.5 -77t-48.5 -33t-37 -7q-29 0 -56.5 11.5t-76.5 43.5z" />
<glyph unicode="&#xfe;" horiz-adv-x="1091" d="M113 -344q2 180 3 310t2 230.5t2 179t1 156.5v136t-1 160t-2 167t-2 158t-1 132v89q0 47 41 69.5t145 22.5q43 0 61.5 -16t18.5 -51q0 -68 -1 -139.5t-3 -140t-3 -131t-3 -111.5l-19 -43l4 -7q47 68 130 123.5t192 55.5q170 0 258 -121t88 -369q0 -143 -34 -244.5 t-93 -165t-138 -92t-167 -28.5q-76 0 -128 11t-87 23v-195.5t2 -123.5t6 -83t10 -71q-6 0 -28.5 -1t-50 -2t-56.5 -2t-47 -1q-59 0 -79.5 33t-20.5 82zM367 190q39 -8 80.5 -13t78.5 -5q51 0 92 15.5t71 52t45.5 101.5t15.5 163q0 166 -47.5 231.5t-122.5 65.5 q-27 0 -55.5 -12.5t-56.5 -32t-52.5 -41t-40.5 -39.5q2 -123 1 -215t-3 -152q-2 -70 -6 -119z" />
<glyph unicode="&#xff;" horiz-adv-x="970" d="M6 915q-18 49 25 70t164 21q45 0 60 -12.5t32 -57.5l219 -690q14 53 40.5 144t55.5 191.5t54.5 192.5t39.5 146q6 25 14.5 41t28 26t54 14.5t92.5 4.5q37 0 57.5 -17.5t3.5 -77.5q-25 -84 -60.5 -193.5t-76.5 -231t-84 -246.5t-82 -242q-43 -129 -84 -217t-86 -141.5 t-99.5 -77t-123.5 -23.5q-113 0 -152 27.5t-39 68.5q0 20 3.5 43t15.5 64q33 -6 63.5 -9t73.5 -3q27 0 52.5 8t48 31.5t45 67.5t45.5 118q-41 104 -96.5 238.5t-113 268.5t-107.5 255t-83 198zM174 1307q0 53 37 80.5t135 27.5q43 0 65.5 -15.5t22.5 -64.5q0 -66 -7 -104.5 t-23.5 -59t-46 -27.5t-74.5 -7q-31 0 -51.5 7t-34 25.5t-18.5 51.5t-5 86zM553 1307q0 53 38 80.5t136 27.5q43 0 64.5 -15.5t21.5 -64.5q0 -66 -7 -104.5t-23.5 -59t-45 -27.5t-73.5 -7q-31 0 -52.5 7t-34 25.5t-18.5 51.5t-6 86z" />
<glyph unicode="&#x152;" horiz-adv-x="1798" d="M76 690q0 186 41 320.5t116.5 220.5t185 127t247.5 41q61 0 119.5 -19.5t86.5 -50.5v55q35 2 101.5 3.5t148.5 1.5h171h169h142.5h91.5q2 -57 3 -91t-1 -53.5t-6 -29t-11 -15.5q-8 -8 -24.5 -13t-68.5 -6t-155.5 -1t-283.5 4v-369h487v-199h-487v-409h246t152.5 1t91 5 t61.5 10q4 -18 9 -53t5 -72q0 -47 -31.5 -72.5t-93.5 -25.5h-78h-116.5h-138h-141h-126t-92.5 2l2 51q-35 -31 -98.5 -50t-141.5 -19q-135 0 -243.5 41t-183 127t-115.5 220t-41 318zM360 690q0 -260 81 -377.5t225 -117.5q141 0 204 104l4 463v170t-2 141q-29 51 -82 83 t-124 32q-143 0 -224.5 -118t-81.5 -380z" />
<glyph unicode="&#x153;" horiz-adv-x="1693" d="M68 498q0 139 41 236t106.5 158.5t150.5 89.5t171 28q129 0 215 -50.5t127 -134.5q45 86 137 135.5t215 49.5q92 0 168 -26t128 -81t79.5 -144t25.5 -214q-2 -92 -98 -92h-541q-8 -147 55.5 -209t206.5 -62q117 0 201 18.5t113 26.5q27 -78 24.5 -106.5t-20.5 -44.5 q-14 -14 -48 -29.5t-81 -28t-104.5 -20.5t-118.5 -8q-123 0 -218.5 41t-136.5 131q-37 -82 -126 -129t-208 -47q-94 0 -179 27.5t-148.5 89t-100 158.5t-36.5 237zM334 498q0 -322 196 -322q98 0 150.5 80t52.5 242q0 322 -198 321q-98 0 -149.5 -78.5t-51.5 -242.5z M995 586h96.5t102.5 1t99 2t87 1q4 123 -45 177t-127 54q-94 0 -150.5 -67.5t-62.5 -167.5z" />
<glyph unicode="&#x178;" horiz-adv-x="1101" d="M11.5 1321q-1.5 27 18 42t61.5 21.5t114 6.5q59 0 77.5 -17.5t34.5 -70.5l246 -631l256 637q10 27 22.5 43t34 24t57.5 11.5t93 3.5q39 0 56.5 -26t-5.5 -73l-389 -841q-2 -84 -2 -163t-2 -145q-2 -76 -2 -143l-281 -10q0 43 2 110q2 57 3.5 142.5t1.5 206.5l-377 806 q-18 39 -19.5 66zM250 1642q0 53 37 80t135 27q43 0 65.5 -14.5t22.5 -65.5q0 -66 -7 -103.5t-23.5 -59t-46 -27.5t-74.5 -6q-31 0 -51.5 6t-34 24.5t-18.5 52t-5 86.5zM629 1642q0 53 38 80t136 27q43 0 64.5 -14.5t21.5 -65.5q0 -66 -7 -103.5t-23.5 -59t-45 -27.5 t-73.5 -6q-31 0 -52.5 6t-34 24.5t-18.5 52t-6 86.5z" />
<glyph unicode="&#x2c6;" horiz-adv-x="600" d="M51 1176q0 33 31 71q29 37 53.5 70t50 57.5t52 40t61.5 15.5q33 0 61.5 -15.5t54 -40t50 -57.5t53.5 -70q31 -39 31 -71q0 -29 -17.5 -45.5t-58.5 -26.5l-174 145l-174 -145q-41 10 -57.5 26.5t-16.5 45.5z" />
<glyph unicode="&#x2dc;" horiz-adv-x="716" d="M51 1249q0 86 38 117t87 31q41 0 79 -10.5t71.5 -21.5t64.5 -21.5t55 -10.5q31 0 40.5 20.5t2.5 61.5q98 18 138.5 -15.5t40.5 -119.5t-38 -116.5t-87 -30.5q-41 0 -80 10t-75 21.5t-65.5 21.5t-52.5 10q-53 0 -41 -82q-98 -18 -138 15.5t-40 119.5z" />
<glyph unicode="&#x2000;" horiz-adv-x="937" />
<glyph unicode="&#x2001;" horiz-adv-x="1874" />
<glyph unicode="&#x2002;" horiz-adv-x="937" />
<glyph unicode="&#x2003;" horiz-adv-x="1874" />
<glyph unicode="&#x2004;" horiz-adv-x="624" />
<glyph unicode="&#x2005;" horiz-adv-x="468" />
<glyph unicode="&#x2006;" horiz-adv-x="312" />
<glyph unicode="&#x2007;" horiz-adv-x="312" />
<glyph unicode="&#x2008;" horiz-adv-x="234" />
<glyph unicode="&#x2009;" horiz-adv-x="374" />
<glyph unicode="&#x200a;" horiz-adv-x="104" />
<glyph unicode="&#x2010;" horiz-adv-x="708" d="M66 602q0 33 2 52.5t7 29.5t13 16q10 10 29.5 16.5t62.5 6.5h459q4 -51 4 -83t-2 -51.5t-7 -29.5t-11 -18q-10 -10 -31 -16.5t-64 -6.5h-458q-4 51 -4 84z" />
<glyph unicode="&#x2011;" horiz-adv-x="708" d="M66 602q0 33 2 52.5t7 29.5t13 16q10 10 29.5 16.5t62.5 6.5h459q4 -51 4 -83t-2 -51.5t-7 -29.5t-11 -18q-10 -10 -31 -16.5t-64 -6.5h-458q-4 51 -4 84z" />
<glyph unicode="&#x2012;" horiz-adv-x="708" d="M66 602q0 33 2 52.5t7 29.5t13 16q10 10 29.5 16.5t62.5 6.5h459q4 -51 4 -83t-2 -51.5t-7 -29.5t-11 -18q-10 -10 -31 -16.5t-64 -6.5h-458q-4 51 -4 84z" />
<glyph unicode="&#x2013;" horiz-adv-x="1007" d="M-6 653q0 33 2 53.5t7 29.5t13 18q10 10 30 15t63 5h901q4 -53 4 -86t-2 -53.5t-7.5 -29.5t-11.5 -17q-10 -10 -30.5 -15.5t-61.5 -5.5h-903q-4 53 -4 86z" />
<glyph unicode="&#x2014;" horiz-adv-x="2031" d="M-6 653q0 33 2 53.5t7 29.5t13 18q10 10 30 15t63 5h1925q4 -55 4 -88t-2 -52.5t-7.5 -28.5t-13.5 -17q-10 -10 -32.5 -15.5t-75.5 -5.5h-1909q-4 53 -4 86z" />
<glyph unicode="&#x2018;" horiz-adv-x="421" d="M86 1063q0 117 12.5 200t30 137t37 85t33.5 43q29 27 80 26.5t125 -32.5q-23 -43 -39 -89t-16 -112q0 -41 6 -94t6 -129q0 -61 -43 -90t-142 -29q-41 0 -65.5 15.5t-24.5 68.5z" />
<glyph unicode="&#x2019;" horiz-adv-x="421" d="M41 1013q23 43 39 89t16 112q0 41 -6 94t-6 129q0 61 43 90t142 29q41 0 65.5 -15.5t24.5 -68.5q0 -117 -12.5 -200t-30 -137t-37 -85t-33.5 -43q-29 -27 -80 -26.5t-125 32.5z" />
<glyph unicode="&#x201a;" horiz-adv-x="411" d="M35 -244q23 43 39 89t16 112q0 41 -6 94t-6 129q0 61 43 90t142 29q41 0 65.5 -15.5t24.5 -68.5q0 -117 -12.5 -200t-30 -137t-37 -85t-33.5 -43q-29 -27 -80 -26.5t-125 32.5z" />
<glyph unicode="&#x201c;" horiz-adv-x="806" d="M86 1063q0 117 12.5 200t30 137t37 85t33.5 43q29 27 80 26.5t125 -32.5q-23 -43 -39 -89t-16 -112q0 -41 6 -94t6 -129q0 -61 -43 -90t-142 -29q-41 0 -65.5 15.5t-24.5 68.5zM471 1063q0 117 12.5 200t30 137t37 85t33.5 43q29 27 80 26.5t125 -32.5q-23 -43 -39 -89 t-16 -112q0 -41 6 -94t6 -129q0 -61 -43 -90t-142 -29q-41 0 -65.5 15.5t-24.5 68.5z" />
<glyph unicode="&#x201d;" horiz-adv-x="804" d="M41 1013q23 43 39 89t16 112q0 41 -6 94t-6 129q0 61 43 90t142 29q41 0 65.5 -15.5t24.5 -68.5q0 -117 -12.5 -200t-30 -137t-37 -85t-33.5 -43q-29 -27 -80 -26.5t-125 32.5zM424 1013q23 43 39 89t16 112q0 41 -6 94t-6 129q0 61 43 90t142 29q41 0 65.5 -15.5 t24.5 -68.5q0 -117 -12.5 -200t-30 -137t-37 -85t-33.5 -43q-29 -27 -80 -26.5t-125 32.5z" />
<glyph unicode="&#x201e;" horiz-adv-x="794" d="M35 -244q23 43 39 89t16 112q0 41 -6 94t-6 129q0 61 43 90t142 29q41 0 65.5 -15.5t24.5 -68.5q0 -117 -12.5 -200t-30 -137t-37 -85t-33.5 -43q-29 -27 -80 -26.5t-125 32.5zM418 -244q23 43 39 89t16 112q0 41 -6 94t-6 129q0 61 43 90t142 29q41 0 65.5 -15.5 t24.5 -68.5q0 -117 -12.5 -200t-30 -137t-37 -85t-33.5 -43q-29 -27 -80 -26.5t-125 32.5z" />
<glyph unicode="&#x2022;" horiz-adv-x="702" d="M94 745q0 111 79 162t257 51q82 0 131 -33.5t49 -129.5q0 -127 -12 -203t-43 -116t-86 -53t-141 -13q-70 0 -115 14t-71.5 51t-37 102.5t-10.5 167.5z" />
<glyph unicode="&#x2026;" horiz-adv-x="1415" d="M88 180q0 59 44 89t149 30q41 0 68.5 -15.5t27.5 -68.5q0 -74 -6 -118t-24.5 -67.5t-50.5 -30.5t-83 -7q-37 0 -61.5 8t-39 28.5t-19.5 57.5t-5 94zM563 180q0 59 44 89t149 30q41 0 68.5 -15.5t27.5 -68.5q0 -74 -6 -118t-24.5 -67.5t-50.5 -30.5t-83 -7q-37 0 -61.5 8 t-39 28.5t-19.5 57.5t-5 94zM1038 180q0 59 44 89t149 30q41 0 68.5 -15.5t27.5 -68.5q0 -74 -6 -118t-24.5 -67.5t-50.5 -30.5t-83 -7q-37 0 -61.5 8t-38.5 28.5t-19.5 57.5t-5.5 94z" />
<glyph unicode="&#x202f;" horiz-adv-x="374" />
<glyph unicode="&#x2039;" horiz-adv-x="583" d="M54 577.5q3 18.5 11.5 33t24.5 30.5l270 268q16 16 39 10t64 -47q35 -35 42 -52t-7 -38l-183 -241l185 -244q12 -18 6 -36.5t-41 -53.5q-41 -41 -63.5 -46t-39.5 11l-296 287q-8 43 -11.5 71.5t-0.5 47z" />
<glyph unicode="&#x203a;" horiz-adv-x="583" d="M106 820.5q6 18.5 41 53.5q41 41 63.5 46t39.5 -11l296 -287q8 -43 11.5 -71.5t0.5 -47t-11.5 -33t-24.5 -30.5l-270 -268q-16 -16 -39 -10t-64 47q-35 35 -42 52t7 38l183 241l-185 244q-12 18 -6 36.5z" />
<glyph unicode="&#x205f;" horiz-adv-x="468" />
<glyph unicode="&#x20ac;" horiz-adv-x="1095" d="M23 557.5q6 28.5 18 40.5q10 10 26.5 15t47.5 5h51l2 111h-137q-6 78 -1 105.5t17 42.5q10 10 26.5 15t47.5 5h63q18 104 66.5 190.5t122 147.5t171 94t214.5 33q104 0 175 -20.5t97 -45.5q8 -10 14.5 -20t6.5 -28.5t-6.5 -47.5t-20.5 -72q-27 8 -79 18.5t-124 10.5 q-147 0 -233 -68.5t-113 -191.5h445q8 -78 3 -105.5t-20 -41.5q-10 -10 -25.5 -15.5t-48.5 -5.5h-378v-111h450q6 -78 1 -105.5t-17 -41.5q-10 -10 -26.5 -15t-47.5 -5h-340q27 -131 116 -196t249 -65q70 0 124 10.5t76 16.5q12 -43 18.5 -70.5t5.5 -45t-7 -29t-15 -19.5 q-27 -27 -102.5 -48t-181.5 -21q-129 0 -229.5 35.5t-171 98t-112.5 147.5t-55 186h-161q-8 78 -2 106.5z" />
<glyph unicode="&#x2122;" horiz-adv-x="1355" d="M23 1299.5q0 23.5 2 37t6 20.5t10 13q16 16 55 16h422q2 -41 2 -65.5t-2 -37.5t-6 -19.5t-10 -12.5q-8 -8 -18.5 -12t-32.5 -2l-82 2v-471l-183 -10v481l-161 -2q-2 39 -2 62.5zM520.5 799.5q-2.5 13.5 1.5 36.5l84 501q4 29 31 42.5t98 13.5q61 0 86 -11.5t31 -38.5 l61 -411l68 411q4 25 35 37.5t96 12.5q53 0 75.5 -11.5t29.5 -35.5l83 -506q8 -41 -10 -60q-10 -10 -41.5 -16t-115.5 -8l-50 438l-8 -127l-65 -301l-211 -10l-80 438l-2 -127l-35 -307q-76 -2 -106.5 1t-40.5 13q-12 12 -14.5 25.5z" />
<glyph unicode="&#x25fc;" horiz-adv-x="1013" d="M0 0v1014h1014v-1014h-1014z" />
</font>
</defs>
</svg>
