<?xml version="1.0" standalone="no"?>
<!DOCTYPE svg PUBLIC "-//W3C//DTD SVG 1.1//EN" "http://www.w3.org/Graphics/SVG/1.1/DTD/svg11.dtd" >
<svg xmlns="http://www.w3.org/2000/svg">
<metadata></metadata>
<defs>
<font id="coles_hpextrabold" horiz-adv-x="1142" >
<font-face units-per-em="2048" ascent="1638" descent="-410" />
<missing-glyph horiz-adv-x="368" />
<glyph unicode="&#xfb01;" horiz-adv-x="1183" d="M-5 929.5q1 22.5 5 35t14 22.5q12 14 42 17.5t114 1.5l-2 131q0 88 19.5 154.5t65.5 110.5t119.5 65.5t184.5 21.5q90 0 154.5 -7t107.5 -17.5t67.5 -22.5t37.5 -25q10 -10 16 -21.5t7 -30.5t-5 -50t-18 -78q-33 6 -100.5 15.5t-159.5 9.5q-94 0 -134.5 -30t-42.5 -128 v-103l500 7q57 0 78.5 -19.5t21.5 -58.5l-2 -930l-315 -10q0 37 1 103.5t3 147.5t2 166v156q0 20 -1 50t-2 61t-1 58.5v45.5q-137 0 -287 6v-86v-112.5t1 -128t1 -131.5q0 -154 2 -326l-321 -10v190.5t1 216t1 211v176.5l-162 -4q-6 55 -10 91t-3 58.5z" />
<glyph unicode="&#xfb02;" horiz-adv-x="1232" d="M-5 929.5q1 22.5 5 35t14 22.5q12 14 39 18.5t94 0.5v131q0 96 21.5 162.5t67 108.5t117 61.5t171.5 19.5q88 0 178.5 -9.5t165 -22.5t127 -29.5t64.5 -28.5q18 -16 24.5 -40t6.5 -73l-15 -989q0 -35 3 -51.5t16 -28.5q16 -16 50 -14t62 6q16 -90 13.5 -126t-23.5 -54 q-16 -16 -64.5 -27.5t-111.5 -11.5q-127 0 -188.5 54t-61.5 183q0 33 1 92.5t3 132t3 150.5t1 148q0 63 -1 130.5t-2 133t-2 126t-1 107.5q-29 6 -75 10.5t-79 4.5q-68 0 -109.5 -30t-41.5 -128v-103l201 7q6 -53 9 -90t1 -62t-8 -39t-15 -22q-6 -6 -17 -10.5t-32.5 -4.5 t-55.5 1t-85 3v-458q0 -154 2 -326l-322 -10v190.5t1 216t1 211v176.5l-139 -4q-6 55 -10 91t-3 58.5z" />
<glyph unicode="&#xfb03;" horiz-adv-x="1777" d="M-5 929.5q1 22.5 5 35t14 22.5q12 14 39 18.5t94 0.5v129q0 96 20.5 160.5t61.5 102.5t98.5 54t131.5 16q57 0 114.5 -7t108.5 -17t92 -22.5t68 -22.5q41 45 111.5 67.5t197.5 22.5q160 0 252 -24.5t115 -47.5q10 -10 16 -21.5t6 -30.5t-5 -50t-17 -78q-35 6 -102.5 15.5 t-160.5 9.5q-94 0 -134 -30t-40 -128v-103l500 7q55 0 77.5 -19.5t22.5 -58.5l-2 -930l-315 -10q0 47 1 114.5t2 145.5t2 158.5t-1 154.5q0 20 -1 50t-2 61t-1 58.5v45.5q-18 0 -52 1t-74 2t-82 2t-77 1v-89v-114.5t1 -130t1 -131.5q0 -152 2 -319l-323 -10v190.5t1 216 t1 211v176.5q-47 0 -126 -1t-171 1v-465q0 -152 2 -319l-322 -10v190.5t1 216t1 211v176.5l-139 -4q-6 55 -10 91t-3 58.5zM467 1001l295 5v20t-1 36.5t-1 41v33.5q0 31 3 57.5t7 32.5q-45 6 -89 11t-91 5q-66 0 -94.5 -31.5t-28.5 -109.5v-101z" />
<glyph unicode="&#xfb04;" horiz-adv-x="1849" d="M-5 929.5q1 22.5 5 35t14 22.5q12 14 39 18.5t94 0.5v129q0 96 20.5 160.5t61.5 102.5t98.5 54t131.5 16q57 0 113.5 -7t105.5 -17t89 -22.5t67 -24.5q45 49 120.5 70.5t184.5 21.5q88 0 177 -9.5t164.5 -22.5t128 -29.5t66.5 -28.5q16 -16 23.5 -40t5.5 -73l-14 -989 q0 -35 4 -51.5t16 -28.5q14 -14 48 -13t63 5q18 -90 14 -126t-23 -54q-18 -16 -65 -27.5t-111 -11.5q-127 0 -188.5 54t-61.5 183q0 33 1.5 92.5t1.5 132t1 150.5t1 148v130.5t-1 133t-2.5 126t-1.5 107.5q-29 6 -74.5 10.5t-78.5 4.5q-68 0 -109 -30t-43 -128v-103l201 7 q6 -53 8 -90t1 -62t-7 -39t-14 -22q-8 -6 -19.5 -10.5t-32 -4.5t-54.5 1t-85 3l4 -784l-323 -10l2 794q-45 -2 -125 -2t-172 2v-465q0 -152 2 -319l-322 -10l2 794l-139 -4q-6 55 -10 91t-3 58.5zM467 1001l295 5v19t-1 34.5t-1 41v38.5q0 23 2 47t8 41q-47 6 -90 11t-90 5 q-66 0 -94.5 -31.5t-28.5 -109.5v-101z" />
<glyph unicode="&#xd;" horiz-adv-x="368" />
<glyph horiz-adv-x="0" />
<glyph horiz-adv-x="0" />
<glyph unicode=" "  horiz-adv-x="368" />
<glyph unicode="&#x09;" horiz-adv-x="368" />
<glyph unicode="&#xa0;" horiz-adv-x="368" />
<glyph unicode="!" horiz-adv-x="559" d="M115 1348q0 57 48 82.5t179 25.5q59 0 80.5 -21.5t21.5 -58.5q0 -49 -2 -115.5t-4 -143.5t-6 -158.5t-6 -159.5q-8 -184 -16 -383l-256 -10q-12 203 -21 385q-4 78 -7 158.5t-6 154.5t-4 137.5t-1 106.5zM127 197q0 61 45 91.5t160 30.5q47 0 75.5 -16t28.5 -74 q0 -78 -7 -125t-26.5 -71.5t-53.5 -32.5t-87 -8q-41 0 -67.5 8t-42 30.5t-20.5 63t-5 103.5z" />
<glyph unicode="&#x22;" horiz-adv-x="872" d="M64 1405q-4 72 48 103.5t169 31.5q49 0 78 -19.5t27 -80.5l-11 -428l-297 -11zM487 1405q-4 72 48 103.5t169 31.5q49 0 78 -19.5t27 -80.5l-11 -428l-297 -11z" />
<glyph unicode="#" horiz-adv-x="1357" d="M53 444q0 39 3 61.5t8.5 34t11.5 17.5q10 10 26.5 16.5t49.5 6.5h133l24 221h-203q-4 61 -4 100t3.5 61.5t8.5 34t11 17.5q10 10 27.5 17t48.5 7h135l33 256q6 47 30.5 65.5t71.5 18.5q45 0 97.5 -7t84.5 -13q-4 -10 -6 -25.5t-7 -48.5t-12 -91t-20 -155h213l33 256 q6 47 30.5 65.5t71.5 18.5q45 0 97.5 -7t85.5 -13q-4 -10 -6.5 -25.5t-6.5 -48.5t-11 -91t-19 -155h204q2 -63 3.5 -101t-2 -61.5t-8.5 -34t-11 -18.5q-10 -10 -29.5 -16t-56.5 -6h-127l-25 -221h205q2 -61 3 -100.5t-2 -62t-8 -33.5t-11 -17q-10 -10 -28.5 -16.5 t-55.5 -6.5h-129l-31 -274q-6 -47 -30.5 -65.5t-71.5 -18.5q-45 0 -96.5 7t-86.5 13q2 10 5.5 26.5t8.5 51.5t11 96.5t18 163.5h-213l-30 -274q-4 -47 -30 -65.5t-73 -18.5q-45 0 -96 7t-86 13q2 10 5 26.5t8.5 52.5t11.5 97.5t18 161.5h-203q-4 61 -4 100zM559 580h213 l23 221h-211z" />
<glyph unicode="$" horiz-adv-x="1034" d="M68 153.5q0 22.5 9 56.5t32 83q92 -25 177 -43.5t169 -18.5q86 0 128 34t42 93t-41 95t-101.5 64t-132 55.5t-132 71.5t-101.5 111.5t-41 176.5q0 92 29.5 158.5t77.5 110.5t106.5 67.5t118.5 34.5l-2 143q0 25 7 42t27.5 28.5t56 16.5t91.5 5q35 0 51 -15.5t16 -56.5 l-4 -153q29 -2 69 -10.5t79 -20.5t70.5 -26.5t45.5 -28.5q10 -10 15.5 -24.5t4.5 -37t-12.5 -55.5t-35.5 -80q-57 10 -134 27.5t-161 17.5q-92 0 -133 -31.5t-41 -85.5q0 -51 41 -82.5t101.5 -58t132 -55.5t132 -75t101.5 -116.5t41 -181.5q0 -94 -24.5 -161.5t-66.5 -112.5 t-100.5 -72t-126.5 -39l2 -237l-245 -11v238q-47 2 -95.5 11t-91.5 23.5t-76.5 31t-50.5 34.5q-10 10 -17 23.5t-7 36z" />
<glyph unicode="%" horiz-adv-x="1900" d="M49 1010q0 203 99.5 297t271.5 94q170 0 270.5 -94t100.5 -297t-100.5 -297.5t-270.5 -94.5q-172 0 -271.5 94.5t-99.5 297.5zM305 1010q0 -188 115 -189q115 1 115 189t-115 188t-115 -188zM387 -121l772 1561q23 43 56.5 59.5t80.5 16.5q63 0 123 -6.5t88 -12.5 l-772 -1560q-23 -43 -56.5 -59.5t-80.5 -16.5q-63 0 -122.5 6t-88.5 12zM1110 377q0 203 98.5 297t272.5 94t272 -94t98 -297q0 -205 -98 -299t-272 -94t-272.5 94t-98.5 299zM1366 377q0 -190 115 -191q114 1 114 191q0 188 -114 188q-115 0 -115 -188z" />
<glyph unicode="&#x26;" horiz-adv-x="1370" d="M49 393q0 92 26.5 157.5t67.5 113t90.5 78t92.5 53.5q-25 29 -54.5 66.5t-55.5 82.5t-43 97.5t-17 111.5q0 158 100 250t270 92q63 0 114.5 -10t88.5 -24.5t61.5 -30t34.5 -25.5q18 -18 21 -38t-15 -69q-14 -43 -22 -54t-25 -11q-29 0 -63.5 9t-93.5 9q-145 0 -146 -114 q0 -68 46 -142.5t135 -185.5q66 -84 119 -142.5t91 -97.5q25 84 34 197t9 246q90 8 147.5 4t89.5 -19.5t43 -41t11 -58.5q0 -78 -6 -144.5t-19.5 -129t-35 -125t-51.5 -131.5q23 -29 49 -53.5t49 -39.5q23 -18 63.5 -28t98.5 -2q6 -66 8 -106t0 -61.5t-7 -31.5t-12 -16 q-14 -14 -41.5 -26.5t-80.5 -12.5q-86 0 -164 45q-25 14 -56.5 41.5t-60.5 62.5q-39 -35 -79 -62.5t-88 -47t-107.5 -29.5t-137.5 -10q-225 0 -352 106.5t-127 296.5zM383 408q0 -86 54 -130.5t138 -44.5q51 0 96.5 19.5t78.5 62.5l-252 275q-59 -33 -87 -80t-28 -102z" />
<glyph unicode="'" horiz-adv-x="489" d="M84 1405q-4 72 48 103.5t169 31.5q49 0 78 -19.5t27 -80.5l-11 -428l-297 -11z" />
<glyph unicode="(" horiz-adv-x="616" d="M74 647q0 221 33.5 396.5t77.5 299t86.5 195.5t58.5 88q14 14 31.5 22.5t48 8.5t76.5 -8.5t120 -22.5q-61 -129 -108 -285q-41 -133 -74 -311t-33 -383t33 -383t74 -311q47 -156 108 -285q-74 -16 -120 -22t-76.5 -6t-48 7t-31.5 21q-16 16 -58.5 88t-86.5 196t-77.5 299 t-33.5 396z" />
<glyph unicode=")" horiz-adv-x="616" d="M10 -332q59 129 107 285q41 133 74.5 311t33.5 383t-33.5 383t-74.5 311q-47 156 -107 285q74 14 120 22.5t77 8.5t48.5 -8.5t31.5 -22.5q16 -16 58 -88t86 -195.5t78 -299t34 -396.5t-34 -396t-78 -299t-86 -195.5t-58 -88.5q-14 -14 -31.5 -21t-48.5 -7t-77 6t-120 22z " />
<glyph unicode="*" horiz-adv-x="772" d="M43 1278q31 86 55.5 116.5t48.5 30.5q18 0 41 -16l123 -96l-18 217q88 14 123 9t49 -19q20 -20 14 -54l-22 -153l180 125q57 -70 68.5 -98.5t11.5 -43.5q0 -18 -11.5 -30.5t-23.5 -16.5l-152 -61l199 -92q-31 -86 -55.5 -116t-46.5 -30q-23 0 -43 17l-125 94l20 -217 q-45 -8 -74.5 -10.5t-49 0t-31 7.5t-17.5 11q-10 10 -13 24.5t-1 30.5l20 154l-178 -125q-29 35 -45 57.5t-23.5 38t-9.5 25.5t-2 20q0 33 39 47l146 62z" />
<glyph unicode="+" horiz-adv-x="1017" d="M66 546q0 40 2 62.5t8 33.5t14 20q10 10 31.5 16t71.5 6l192 -6l-6 336q70 6 113 6t68.5 -3t38.5 -9.5t22 -14.5q10 -10 16 -31.5t6 -72.5l-6 -211l311 6q4 -66 4 -105.5t-2 -62t-7 -34t-13 -19.5q-10 -10 -33 -16.5t-72 -6.5l-188 6l6 -321q-70 -6 -113 -7t-68.5 2 t-38.5 9t-22 14q-10 10 -16 33t-6 72l6 198l-315 -6q-4 66 -4 106z" />
<glyph unicode="," horiz-adv-x="503" d="M45 -233q23 41 41 87t18 111q0 45 -7 103.5t-7 150.5q0 72 51.5 103.5t167.5 31.5q49 0 77 -19.5t28 -80.5q0 -127 -14.5 -216t-34 -146.5t-40 -89t-32.5 -44.5q-33 -29 -95.5 -29.5t-152.5 38.5z" />
<glyph unicode="-" horiz-adv-x="712" d="M55 612.5q0 38.5 2 62t8.5 34t14.5 18.5q10 10 31.5 17.5t72.5 7.5h469q4 -66 4 -106t-2 -62.5t-7 -33.5t-13 -20q-10 -10 -32.5 -16t-72.5 -6h-471q-4 66 -4 104.5z" />
<glyph unicode="." horiz-adv-x="520" d="M90 219q0 68 49 101.5t178 33.5q49 0 81 -19.5t32 -80.5q0 -86 -7 -138.5t-28.5 -80t-58.5 -35.5t-96 -8q-47 0 -76 9t-45.5 34.5t-22.5 69.5t-6 114z" />
<glyph unicode="/" horiz-adv-x="831" d="M-6 -147q8 16 16 36.5t26.5 70.5t50.5 143.5t85 255t132 404.5t192 593q27 76 108 76q20 0 54 -2.5t68 -5.5t65 -5t47 -4q-6 -14 -14.5 -34.5t-26 -70.5t-48 -143.5t-85 -256t-135 -406.5t-195.5 -594q-23 -76 -107 -76q-23 0 -55.5 2t-67 5t-65.5 6t-45 6z" />
<glyph unicode="0" horiz-adv-x="1200" d="M70 666q0 356 139 520t391 164q254 0 392.5 -164t138.5 -520q0 -178 -36 -307.5t-103.5 -212.5t-167 -122.5t-226.5 -39.5q-252 0 -390 163t-138 519zM414 666q0 -125 12 -209t35.5 -135.5t58.5 -73t78 -21.5q45 0 81 21.5t60.5 73t37 135.5t12.5 209q0 127 -12.5 212 t-37 135t-59.5 71.5t-80 21.5q-43 0 -78 -21.5t-59.5 -71.5t-36.5 -135t-12 -212z" />
<glyph unicode="1" horiz-adv-x="761" d="M4.5 1152q-2.5 22 1 34t13.5 22q16 14 67.5 38t149.5 59q172 57 254 57q70 0 101.5 -29.5t31.5 -99.5l-8 -1051q0 -41 2 -86t6 -92q-10 -2 -34.5 -3t-54.5 -2t-60.5 -2t-55.5 -1q-68 0 -104.5 37t-34.5 94l2 928l-240 -43q-16 51 -25 84.5t-11.5 55.5z" />
<glyph unicode="2" horiz-adv-x="950" d="M12 137q0 31 8.5 59.5t39 74.5t91 117t162.5 185q63 70 106.5 123.5t70 98.5t39 84t12.5 82q0 74 -44 112.5t-122 38.5q-43 0 -83 -10t-73 -21.5t-58.5 -21.5t-39.5 -10q-12 0 -27.5 11t-40.5 54q-29 47 -26.5 71.5t24.5 47.5q12 12 46 33.5t86.5 43t121 37t152.5 15.5 q90 0 168 -22.5t135 -68.5t90 -117t33 -169q0 -117 -57.5 -220t-167.5 -214l-304 -307h249.5t158.5 1t95 4t59 7q4 -35 7 -72t1 -90q-4 -53 -31 -73.5t-86 -20.5h-762q-10 25 -21.5 60.5t-11.5 76.5z" />
<glyph unicode="3" horiz-adv-x="968" d="M-4 130.5q0 21.5 8.5 56t26.5 89.5q14 -4 45 -12t71 -15t86 -12.5t91 -5.5q115 0 183.5 51.5t68.5 149.5q0 45 -16.5 80t-56.5 56.5t-106.5 27.5t-166.5 -4l-25 174q317 61 318 223q0 61 -35 95t-109 34q-45 0 -86 -10t-73.5 -22.5t-57 -22.5t-37.5 -10q-23 0 -36 11 t-40 52q-29 47 -26.5 71.5t24.5 47.5q12 12 49 33.5t92.5 42t130.5 36t165 15.5q80 0 149.5 -17.5t121.5 -57.5t83 -102.5t31 -150.5q0 -111 -82 -189.5t-223 -113.5q164 -4 259 -89t95 -251q0 -98 -37 -173t-106.5 -126t-167 -76.5t-220.5 -25.5q-150 0 -245 29.5 t-125 58.5q-8 8 -14.5 19.5t-6.5 33z" />
<glyph unicode="4" horiz-adv-x="1085" d="M40 426q0 25 3.5 48.5t14.5 60t34.5 95t64.5 150.5t103.5 226.5t152.5 322.5q8 16 19.5 26.5t33 12.5t53 -6t79.5 -27q49 -20 77.5 -37.5t41 -35t11.5 -34t-12 -34.5l-387 -678l226 4l20 174q6 27 16.5 47.5t32 35t56 20.5t92.5 6q59 0 81.5 -21.5t22.5 -60.5l-2 -195 q12 0 61.5 1t108.5 8q6 -66 8 -107t0 -65.5t-8 -37t-14 -20.5q-16 -18 -56.5 -24.5t-99.5 -4.5q0 -47 -1 -114.5t9 -157.5q-10 -2 -34.5 -3t-53.5 -2t-59.5 -2t-55.5 -1q-68 0 -104.5 37t-34.5 94l4 149l-456 -2q-16 23 -32 68t-16 84z" />
<glyph unicode="5" horiz-adv-x="983" d="M12 129.5q0 20.5 7.5 55t25.5 89.5q12 -4 43 -10t71 -13t86 -12.5t89 -5.5q113 0 184.5 51.5t71.5 153.5q0 135 -114 172t-372 0q-2 31 -4 86.5t-3 121t-1 135t-1 128t-1 98.5v48q0 41 4 62.5t19 37.5q16 14 33.5 18.5t50.5 4.5q113 0 218 -1t192 -1h149.5t89.5 2 q4 -31 7 -63t3 -75q0 -72 -31.5 -94t-99.5 -22q-51 0 -120.5 2t-172.5 6l-8 -244q113 6 206 -10t159.5 -61.5t102.5 -123t36 -194.5q0 -123 -42 -213t-115 -150.5t-169 -89t-205 -28.5q-147 0 -243.5 28.5t-124.5 57.5q-8 8 -14.5 20.5t-6.5 33z" />
<glyph unicode="6" horiz-adv-x="1114" d="M68 539q0 180 37.5 331.5t115.5 260t198 170t286 61.5q139 0 211.5 -22.5t93.5 -39.5q8 -6 12 -13t5 -18.5t-1 -29.5t-8 -47q-14 -68 -25.5 -83t-31.5 -15q-12 0 -31 4t-48.5 8t-70.5 8t-100 4q-78 0 -139.5 -26.5t-105.5 -69.5t-70.5 -95.5t-39.5 -103.5l-18 -51l6 -4 q39 49 108.5 81t161.5 32q72 0 150 -18.5t141.5 -64.5t104.5 -127t41 -206q0 -129 -36 -220t-100.5 -147.5t-155.5 -82t-202 -25.5t-202 27.5t-154.5 91t-98 169t-34.5 261.5zM412 436q0 -111 39 -157t108 -46q70 0 110 45t40 156q0 205 -146 205q-76 0 -113.5 -52 t-37.5 -151z" />
<glyph unicode="7" horiz-adv-x="931" d="M4 1227q0 74 15.5 97.5t56.5 23.5h819q10 -16 24.5 -54.5t14.5 -91.5q0 -33 -9 -67.5t-34.5 -92t-68.5 -148.5t-111 -235q-92 -193 -149.5 -311.5t-91 -189t-49 -106.5t-23.5 -62q-86 0 -145.5 6t-95.5 20.5t-51.5 39t-15.5 59.5q0 16 3.5 33.5t18.5 54.5t46 100.5 t87 167.5t141 260t208 379l-518 -8q-41 0 -56.5 23.5t-15.5 101.5z" />
<glyph unicode="8" horiz-adv-x="1136" d="M57 328q0 123 70.5 206.5t193.5 137.5q-35 16 -73.5 43.5t-72.5 68.5t-56.5 95.5t-22.5 126.5q0 82 35 148.5t96.5 112.5t148.5 70.5t191 24.5t191.5 -24.5t150 -69.5t97 -111.5t34.5 -148.5q0 -59 -19.5 -107.5t-50 -85.5t-67.5 -61.5t-72 -36.5q123 -70 185.5 -162 t62.5 -197q0 -100 -36 -170.5t-102.5 -115.5t-160.5 -66.5t-213 -21.5q-233 0 -371.5 84t-138.5 260zM399 369q0 -70 48 -106t120 -36t121 37t49 103q0 68 -55.5 112.5t-128.5 73.5q-78 -35 -116 -83t-38 -101zM422 981q0 -66 46 -103.5t128 -66.5q47 25 84 69t37 111 q0 63 -45.5 96t-104.5 33t-102 -34.5t-43 -104.5z" />
<glyph unicode="9" horiz-adv-x="1107" d="M61 887q0 129 36 220t100.5 147.5t155.5 82t202 25.5t202 -27.5t154.5 -91t98.5 -169t35 -261.5q0 -180 -37 -331.5t-116 -260t-199 -170t-285 -61.5q-117 0 -202 23.5t-106 45.5q-10 10 -16 24.5t-5 37t9 58.5t25 89q12 -4 40.5 -9t67.5 -11t86 -10.5t94 -4.5 q80 0 140.5 27t104.5 70t70.5 95t37.5 103l20 52l-6 4q-35 -47 -104.5 -80t-161.5 -33q-74 0 -152 18.5t-142.5 65.5t-105.5 127t-41 205zM404 918q0 -205 147 -205q74 0 113 52t39 150q0 111 -40 157t-110 46t-109.5 -44.5t-39.5 -155.5z" />
<glyph unicode=":" horiz-adv-x="520" d="M90 219q0 68 49 101.5t178 33.5q49 0 81 -19.5t32 -80.5q0 -86 -7 -138.5t-28.5 -80t-58.5 -35.5t-96 -8q-47 0 -76 9t-45.5 34.5t-22.5 69.5t-6 114zM90 815q0 68 49 101.5t178 33.5q49 0 81 -19.5t32 -80.5q0 -86 -7 -138.5t-28.5 -80t-58.5 -35.5t-96 -8q-47 0 -76 9 t-45.5 34.5t-22.5 69.5t-6 114z" />
<glyph unicode=";" horiz-adv-x="516" d="M55 -233q23 41 41 87t18 111q0 45 -7 103.5t-7 150.5q0 72 51.5 103.5t167.5 31.5q49 0 77 -19.5t28 -80.5q0 -127 -14.5 -216t-34 -146.5t-40 -89t-32.5 -44.5q-33 -29 -95.5 -29.5t-152.5 38.5zM88 815q0 68 49 101.5t178 33.5q49 0 81 -19.5t32 -80.5q0 -86 -7 -138.5 t-28.5 -80t-58.5 -35.5t-96 -8q-47 0 -76 9t-45.5 34.5t-22.5 69.5t-6 114z" />
<glyph unicode="&#x3c;" horiz-adv-x="915" d="M64.5 583.5q9.5 63.5 56.5 100.5l512 373q35 31 67.5 18.5t85.5 -86.5q53 -78 54.5 -115.5t-39.5 -62.5l-453 -279l455 -280q41 -23 39 -61.5t-56 -114.5q-51 -72 -83.5 -86.5t-69.5 14.5l-555 397q-23 119 -13.5 182.5z" />
<glyph unicode="=" horiz-adv-x="970" d="M80 320.5q0 39.5 3 62.5t8 34t13 19q10 10 33 16.5t72 6.5h676q4 -66 4 -106t-2 -62.5t-8.5 -33.5t-14.5 -19q-10 -10 -31.5 -16.5t-72.5 -6.5h-676q-4 66 -4 105.5zM80 748.5q0 39.5 3 62.5t8 34t13 19q10 10 33 16.5t72 6.5h676q4 -66 4 -106t-2 -62.5t-8.5 -33.5 t-14.5 -19q-10 -10 -31.5 -16.5t-72.5 -6.5h-676q-4 66 -4 105.5z" />
<glyph unicode="&#x3e;" horiz-adv-x="915" d="M74 874.5q2 38.5 55 114.5q51 72 85 86.5t69 -14.5l555 -397q23 -119 13.5 -182.5t-56.5 -100.5l-510 -373q-37 -31 -69 -18.5t-85 88.5q-55 78 -56 116.5t40 61.5l452 276l-454 281q-41 23 -39 61.5z" />
<glyph unicode="?" horiz-adv-x="753" d="M7 1336q3 22 20 34q10 8 34.5 23.5t64.5 29t94 23.5t124 10q88 0 159.5 -19.5t123 -59.5t79 -101t27.5 -143q0 -80 -29.5 -138.5t-71.5 -107.5t-87 -94t-74 -95q-16 -29 -23.5 -66.5t-7.5 -76.5t4.5 -76t8.5 -63l-258 -10q-8 37 -15.5 83t-8.5 94t6 97t30 92 q25 43 55.5 83t59 77t48 74.5t19.5 78.5q0 70 -41 98.5t-96 28.5q-59 0 -96 -17t-60 -17q-6 0 -13 1t-14.5 9t-16.5 24.5t-21 44.5q-27 57 -24 79zM178 197q0 61 45 91.5t162 30.5q45 0 73.5 -16t28.5 -74q0 -78 -7 -125t-25.5 -71.5t-52 -32.5t-89.5 -8q-41 0 -66.5 8 t-41 30.5t-21.5 63t-6 103.5z" />
<glyph unicode="@" horiz-adv-x="2033" d="M74 387q0 266 82 460.5t226 320.5t338.5 186.5t422.5 60.5q190 0 341.5 -44t257 -128t162 -206t56.5 -279q0 -158 -44 -285t-137 -217t-240.5 -139t-354.5 -49q-59 0 -79 18t-20 49q0 16 9.5 53t19.5 74q12 43 29 94l-10 6q-25 -63 -55.5 -118.5t-70.5 -95t-89.5 -62.5 t-106.5 -23q-51 0 -95 18.5t-77 58.5t-52.5 100.5t-19.5 146.5q0 156 39 266.5t104.5 181t152.5 104.5t184 34q74 0 127 -15.5t69 -21.5q10 20 55 29.5t117 9.5q47 0 63.5 -10.5t16.5 -36.5q0 -12 -3 -35t-14.5 -74t-31 -140t-49.5 -237q-16 -74 -20.5 -100.5t-6.5 -36.5 q61 2 119.5 33t102.5 88t71 136t27 177q0 213 -131.5 329t-415.5 116q-152 0 -296.5 -42t-256 -136.5t-180 -246t-68.5 -370.5q0 -139 41 -238.5t113.5 -162t170 -92t210.5 -29.5q147 0 235 21.5t111 29.5q18 -57 26 -92t9.5 -56.5t-5 -32.5t-16.5 -22q-27 -29 -128 -54.5 t-255 -25.5q-152 0 -292 35t-248.5 121t-174 231.5t-65.5 364.5zM846 416q0 -59 21.5 -94t62.5 -35q49 0 88 36.5t67.5 92t49 121t32.5 125.5l23 104q-20 4 -51 8t-64 4q-55 0 -98 -31.5t-73 -84t-44 -117t-14 -129.5z" />
<glyph unicode="A" horiz-adv-x="1294" d="M16 66q-1 6 -1 14q0 25 12 59l364 1141q10 33 25.5 54.5t51.5 33.5t100 17.5t175 5.5q72 0 110 -18.5t54 -74.5l363 -1157q10 -35 10 -59q0 -10 -1 -16q-5 -28 -24 -46q-10 -10 -23 -16t-45 -9t-90.5 -3t-158.5 2l-94 336h-424l-92 -336q-92 -2 -145.5 -2t-81 3t-40 9 t-20.5 16q-21 18 -25 46zM473 571h324l-144 514l-20 93l-21 -93z" />
<glyph unicode="B" horiz-adv-x="1204" d="M125 20q2 111 4 234q2 104 3 233t1 258q0 61 -1 148.5t-2 176.5t-1 170v132q33 4 86 8t115.5 7.5t127 5.5t120.5 2q272 0 399 -94.5t127 -272.5q0 -68 -21.5 -118t-52.5 -87t-66.5 -59.5t-66.5 -32.5q31 -8 74 -29.5t82 -61.5t66.5 -98.5t27.5 -138.5q0 -123 -44 -203.5 t-118 -126.5t-173 -64.5t-210 -18.5q-74 0 -151.5 3t-145 8t-117 10t-63.5 9zM459 254q25 -4 63.5 -5t73.5 -1q43 0 83 7t70.5 26.5t50 54.5t19.5 90q0 51 -17.5 86t-49 54.5t-75.5 27.5t-95 8q-16 0 -37 -1t-39 -1q-23 -2 -43 -2q0 -117 -1 -184.5t-1 -102.5q-2 -41 -2 -57 zM461 813q16 0 54 -2t77 -2q205 0 205 164q0 88 -58.5 127t-169.5 39q-23 0 -55.5 -2t-50.5 -4v-50q0 -33 -1 -96t-1 -174z" />
<glyph unicode="C" horiz-adv-x="1062" d="M74 666q0 371 159.5 552t454.5 181q102 0 184 -22.5t111 -53.5q10 -10 17.5 -23.5t8.5 -35t-5.5 -55t-22.5 -85.5q-23 6 -76 17.5t-127 11.5q-174 0 -267 -120.5t-93 -366.5q0 -209 95 -318.5t269 -109.5q72 0 124 8t83 18q14 -49 21.5 -83t7.5 -57.5t-6 -36.5t-17 -24 q-31 -31 -108.5 -53t-188.5 -22q-143 0 -258.5 37.5t-196.5 119.5t-125 211t-44 310z" />
<glyph unicode="D" horiz-adv-x="1316" d="M125 25q2 117 4 239q2 104 3 232.5t1 251.5q0 61 -1 147t-2 175t-1 170v132q29 4 83 8t118.5 7.5t134.5 5.5t129 2q156 0 276.5 -39t203.5 -124t126 -216t43 -316q0 -190 -42 -324t-125 -220t-203.5 -126t-280.5 -40q-31 0 -96.5 3t-138 8t-137 11t-95.5 13zM461 250 q16 -4 54 -6t79 -2q70 0 127 22.5t96 75.5t60.5 141t21.5 219q0 125 -21.5 209t-61.5 136.5t-97 75t-129 22.5h-74t-53 -2v-102.5v-153.5t-1 -180.5t-1 -182.5v-160.5v-111.5z" />
<glyph unicode="E" horiz-adv-x="1060" d="M125 0q0 164 2 309q0 61 1 127t2 126.5t1 113.5v90v192.5t-1 151.5t-2 135.5t-1 140.5h852q2 -66 4 -106.5t1 -63t-5 -34t-12 -19.5q-12 -12 -32 -16t-65 -4l-407 2v-322h459v-227h-459v-352q139 0 226 -1q44 0 79.5 -0.5t63.5 0.5q56 1 88 4t61 11q4 -23 11 -63.5 t7 -83.5q0 -53 -32.5 -82t-106.5 -29h-735z" />
<glyph unicode="F" horiz-adv-x="1017" d="M125 -10q0 162 2 307q0 61 1 125.5t2 124t1 111v85.5q0 266 -2 423t-2 220h852q2 -66 4 -106q1 -26 1 -46v-18q-1 -22 -5 -33.5t-12 -19.5q-12 -12 -32 -16t-65 -4l-407 2v-348h452v-232h-452v-565z" />
<glyph unicode="G" horiz-adv-x="1286" d="M74 666q0 371 162.5 552t478.5 181q147 0 244.5 -30t125.5 -58q12 -12 19.5 -26.5t7.5 -37t-6.5 -58.5t-18.5 -91q-74 25 -156.5 40t-148.5 15q-364 0 -364 -484q0 -226 89 -331t257 -105q29 0 57.5 2.5t38.5 6.5l-2 286l-158 -2q-5 62 -5 102v13q1 43 5.5 66.5t13.5 34 t21 16.5q14 8 32.5 12t61.5 5h33q37 0 90 -1q80 -2 219 -4v-719q-27 -10 -75.5 -21.5t-111 -20.5t-135.5 -15t-147 -6q-154 0 -270.5 37.5t-196 119.5t-120.5 211t-41 310z" />
<glyph unicode="H" horiz-adv-x="1394" d="M125 -10q0 121 2 248q0 111 1 244.5t1 262.5v537q0 31 8 51.5t33 33.5t71 18.5t124 5.5q53 1 79 -15q25 -14 25 -60v-7l-6 -475h469q-2 156 -3 277.5t-1 170.5q0 31 8 51.5t32.5 33.5t70.5 18.5t124 5.5q53 0 80 -15.5t27 -66.5q0 -55 -1 -129t-2 -156t-2 -168t-1 -166 q0 -131 -1 -254t-1 -221v-215l-336 -10q0 78 2 174q2 80 2 187.5t2 230.5h-469v-582z" />
<glyph unicode="I" horiz-adv-x="593" d="M125 -10l4 237q2 104 3 229t1 242q0 86 -1 172t-1 164t-1 142.5t-1 105.5q0 31 7 51.5t32 33.5t71 18.5t123 5.5q53 0 80 -15.5t27 -66.5q0 -55 -1 -135t-3 -168t-3 -176.5t-1 -157.5v-672z" />
<glyph unicode="J" horiz-adv-x="718" d="M22 104q-2 12 -2 26t2 32q3 35 15 88q16 -2 41.5 -5t50.5 -3q70 0 102.5 33.5t32.5 111.5l-10 895q0 31 7 51.5t31.5 33.5t71 18.5t123.5 5.5q53 0 80 -15.5t27 -64.5l-10 -940q-4 -209 -90 -292t-246 -83q-84 0 -132 16.5t-65 32.5q-10 10 -18 23.5t-11 35.5z" />
<glyph unicode="K" horiz-adv-x="1300" d="M125 -10q2 115 4 237q2 104 3 229t1 242q0 86 -1 176.5t-1 171t-1 143t-1 93.5t7 51.5t32 33.5t71 18.5t123 5.5q53 1 81 -15q26 -14 26 -60v-7q-2 -74 -2 -163t-2 -167q-2 -92 -4 -182l-19 -43l4 -9l500 619q25 31 71 37q6 1 12 1q47 0 138 -38q73 -32 83 -64 q2 -6 2 -12q0 -29 -33 -67l-381 -430q137 -225 220 -354.5t131 -197t71.5 -93t42.5 -44.5q-72 -68 -128.5 -93t-113.5 -25q-47 0 -86 18t-68 72l-280 512l-164 -189l-2 -397z" />
<glyph unicode="L" horiz-adv-x="972" d="M125 0q0 12 1 84t3 178.5t3 230t1 240.5q0 174 -2 319.5t-2 229.5q0 31 7 51.5t32 33.5t71 18.5t123 5.5q53 0 80 -15.5t27 -66.5l-10 -1055h201.5h130t84 3t61.5 9q4 -20 11 -67t7 -88q0 -53 -32.5 -82t-106.5 -29h-690z" />
<glyph unicode="M" horiz-adv-x="1828" d="M41 70q-1 8 -1 19q0 28 7 73l184 1122q6 33 22.5 54.5t51.5 33.5t94.5 17.5t155.5 5.5q92 0 128 -19.5t46 -60.5l172 -821l31 -226l22 226l150 790q6 33 18.5 54.5t44 33.5t90 17.5t154.5 5.5q100 0 137 -17.5t41 -54.5l193 -1153q7 -45 7 -74q0 -11 -1 -20 q-4 -31 -23 -49q-10 -10 -25.5 -17.5t-49.5 -12.5q-32 -5 -90 -6h-25q-52 0 -125 3l-102 1048l-7 123l-243 -1167l-396 -14l-213 1058l-14 123l-125 -1171q-74 -3 -122 -3h-22q-52 1 -81 5t-40 10t-22 17q-18 19 -22 47z" />
<glyph unicode="N" horiz-adv-x="1392" d="M125 -10q2 121 4 250q2 111 3 245t1 263q0 61 -1 141t-1 156.5t-1 141t-1 95.5t8 51.5t34 33.5t72 18.5t122 5.5q33 0 50 -9.5t38 -40.5l522 -852q-6 33 -11.5 61t-8.5 55.5t-5 58t-2 71.5q0 45 -1 129t-1 171t-1 158t-1 89q0 31 8.5 51.5t32 33.5t66.5 18.5t110 5.5 q53 0 80 -15.5t27 -66.5q0 -45 -1 -124t-3 -170t-3 -182.5t-1 -162.5v-670l-322 -10l-518 831q6 -29 12 -65q4 -33 9 -78t5 -98v-580z" />
<glyph unicode="O" horiz-adv-x="1355" d="M74 690q0 190 41 325.5t118.5 220.5t189.5 124t255 39t254.5 -39t189.5 -124t119 -220t41 -326q0 -190 -41 -324.5t-119 -219.5t-189.5 -123.5t-254.5 -38.5t-255 38.5t-189.5 123.5t-118.5 219.5t-41 324.5zM416 690q0 -248 68.5 -353.5t193.5 -105.5q127 0 194.5 105.5 t67.5 353.5q0 125 -17.5 213t-51 143.5t-82 80t-111.5 24.5q-125 0 -193.5 -105.5t-68.5 -355.5z" />
<glyph unicode="P" horiz-adv-x="1171" d="M125 -10q2 152 4 295q2 123 3 250t1 213q0 229 -3 395t-3 229q31 2 81 6t110.5 8.5t129 6.5t136.5 2q117 0 215 -28t168.5 -86t109.5 -147.5t39 -211.5q0 -123 -38 -210t-103.5 -142.5t-157.5 -81t-199 -25.5q-33 0 -77.5 5t-79.5 11v-479zM461 711q23 -4 47 -6.5 t57 -2.5q41 0 78 10.5t65.5 37t46 70.5t17.5 110q0 63 -17.5 106t-46 68.5t-66.5 36t-79 10.5q-45 0 -68.5 -2t-33.5 -4v-434z" />
<glyph unicode="Q" horiz-adv-x="1355" d="M74 690q0 190 41 325.5t118.5 220.5t189.5 124t255 39t254.5 -39t189.5 -124t119 -220t41 -326q0 -184 -37 -304t-88 -193.5t-106.5 -109.5t-94.5 -50q45 -53 76 -88t52.5 -57.5t38 -38t34.5 -27.5q-90 -119 -186 -119q-31 0 -59.5 8t-61.5 37t-73 84t-95 152h-4 q-143 0 -255 38.5t-189.5 123.5t-118.5 219.5t-41 324.5zM416 690q0 -248 68.5 -353.5t193.5 -105.5q127 0 194.5 105.5t67.5 353.5q0 125 -17.5 213t-51 143.5t-82 80t-111.5 24.5q-125 0 -193.5 -105.5t-68.5 -355.5z" />
<glyph unicode="R" horiz-adv-x="1210" d="M125 -10q2 152 4 295q2 123 3 250t1 213q0 231 -3 396t-3 228q66 6 190.5 14.5t264.5 8.5q117 0 216 -23.5t171.5 -77t112.5 -137.5t40 -207q0 -92 -23.5 -158.5t-58 -111.5t-77.5 -70.5t-80 -34.5q94 -158 150.5 -247.5t89 -137t50 -66t33.5 -34.5q-117 -104 -227 -104 h-4q-104 0 -150 90l-235 444h-127v-520zM463 754q25 -2 53 -2h57q37 0 75 11t66.5 34.5t47 61.5t18.5 93t-18.5 93t-49 61.5t-70.5 34t-81 10.5q-43 0 -63.5 -1t-34.5 -3v-393z" />
<glyph unicode="S" horiz-adv-x="1038" d="M64 154q2 24 11 58t31 83q92 -27 179.5 -44.5t171.5 -17.5q174 0 174 136q0 59 -41 100t-103.5 78t-134 76t-134 91t-103.5 125.5t-41 180.5q0 98 34.5 170t96 118t146.5 68.5t188 22.5q70 0 131 -9.5t110 -22.5t84 -28.5t49 -29.5q10 -10 15.5 -24.5t4.5 -37 t-12.5 -55.5t-35.5 -82q-59 10 -136 27.5t-169 17.5q-82 0 -122 -36t-40 -97q0 -53 41 -91t103.5 -74t134 -76t134 -94t103.5 -129t41 -181q0 -193 -116 -290t-361 -97q-162 0 -268.5 33.5t-141.5 70.5q-10 10 -18 24q-6 11 -6 29v7z" />
<glyph unicode="T" horiz-adv-x="1087" d="M1 1244v19q0 27 2 45q3 24 8 36t14 20q10 10 33.5 16t76.5 6h946q4 -70 5 -112v-19q0 -29 -2 -47q-3 -24 -8 -35.5t-13 -19.5q-10 -10 -33.5 -15t-77.5 -5l-239 2v-270.5v-261.5t1 -278.5t3 -324.5l-342 -10q2 182 3 336.5t1 293t-1 265.5t-1 250l-371 -2q-4 71 -5 111z " />
<glyph unicode="U" horiz-adv-x="1388" d="M125 1282q0 31 8 51.5t32.5 33.5t71 18.5t123.5 5.5q53 0 79 -15.5t26 -66.5v-84.5t-1 -133t-2 -160.5t-2 -164t-1 -146.5v-106.5q0 -150 56 -215.5t177 -65.5q119 0 177.5 65.5t58.5 215.5v108.5t-1 146.5t-1 161t-1 153.5t-1 125v73.5q0 31 7 51.5t31.5 33.5t70.5 18.5 t124 5.5q53 0 80 -15.5t27 -66.5q0 -39 -1 -101.5t-2 -161t-2.5 -238.5t-1.5 -335q0 -125 -41.5 -216t-116.5 -150.5t-178.5 -88t-228.5 -28.5t-228.5 28.5t-178 89t-116.5 151.5t-42 214q0 346 -1 547t-1 262z" />
<glyph unicode="V" horiz-adv-x="1214" d="M27 1315.5q0 27.5 21.5 44t69.5 24t134 7.5q37 0 60.5 -5.5t36.5 -17.5t21.5 -32.5t14.5 -53.5l233 -1055l252 1055q6 33 16.5 54.5t37 33.5t77 16.5t138.5 4.5q53 0 65 -32q5 -14 6 -32q0 -25 -10 -59l-383 -1264q-90 -8 -172 -14q-73 -4 -147 -6h-28q-56 0 -99 6 l-334 1257q-10 41 -10 68.5z" />
<glyph unicode="W" horiz-adv-x="1855" d="M32 1316q1 28 21.5 44t67.5 23.5t133 7.5q39 0 62.5 -5.5t38 -17.5t21.5 -32.5t11 -53.5l166 -1055l164 1047q4 33 20.5 55.5t49 35.5t85 19.5t129.5 6.5q45 0 75 -2.5t47.5 -11.5t25.5 -25.5t12 -42.5l170 -1082l182 1030q6 43 15.5 70t36 40t78 18.5t139.5 5.5 q53 0 62 -31q4 -15 4 -35q0 -22 -5 -51l-299 -1270q-84 -8 -166 -14q-72 -4 -150 -5h-23q-65 0 -115 5q-47 276 -84 502l-32 188t-28 171t-20 129t-11 64q-2 -12 -9 -64t-19.5 -128t-26.5 -168t-29 -186q-35 -221 -77 -494q-94 -8 -179 -14q-71 -4 -147 -6h-29q-56 0 -92 6 l-268 1257q-7 36 -7 62v7z" />
<glyph unicode="X" horiz-adv-x="1208" d="M4 1288q61 59 122.5 85t121.5 26q35 0 63.5 -12.5t53.5 -53.5l249 -409l244 432q12 23 28 34t44 14q8 1 18 1q23 0 53 -5q43 -7 107 -22q37 -10 55.5 -23.5t21.5 -30.5t-6.5 -39.5t-25.5 -49.5l-344 -535q111 -184 177.5 -290.5t106.5 -165t63.5 -86t47.5 -54.5 q-63 -59 -117.5 -88.5t-111.5 -29.5q-47 0 -80 18.5t-57 63.5l-236 413l-252 -454q-23 -43 -81 -43t-163 32q-77 24 -77 61q0 33 32 83l347 545q-78 125 -134.5 212t-97.5 148t-68.5 99t-46 61.5t-32 37z" />
<glyph unicode="Y" horiz-adv-x="1144" d="M20 1308v6q0 27 20 44q23 18 74.5 25.5t137.5 7.5q39 0 61.5 -4.5t37 -16.5t22.5 -33.5t18 -54.5l203 -592l225 604q12 33 25.5 52.5t40 28.5t69.5 12.5t113 3.5q41 0 63 -28q11 -13 11 -33q0 -21 -13 -50l-385 -848q-2 -84 -2 -161.5t-2 -137.5q-2 -70 -2 -133l-336 -10 q0 41 2 104q2 53 2.5 137t2.5 201l-365 801q-20 45 -23 75z" />
<glyph unicode="Z" horiz-adv-x="1056" d="M51 143q0 27 5 54.5t23.5 69.5t54.5 105.5t99.5 166t157.5 249t230 355.5l-488 -2q-23 0 -36 4t-20 17.5t-10.5 39t-3.5 66.5t3.5 64.5t10.5 35.5t20.5 15t35.5 3h830q4 -10 10 -27.5t11 -39t8 -44t3 -38.5q0 -33 -5 -63.5t-23.5 -74.5t-55.5 -107.5t-98 -163 t-152.5 -242t-220.5 -342.5q160 0 253 -1q46 0 83 -1q36 0 64 1q54 1 83 4t58 9q4 -20 11 -61t7 -84q0 -53 -32.5 -82t-106.5 -29h-774q-10 23 -22.5 62.5t-12.5 80.5z" />
<glyph unicode="[" horiz-adv-x="569" d="M63 -356q0 197 3 385q0 80 1 165t2 165.5t1 155.5v134v189.5t-1 205t-1 200.5t-1 178t-1 138.5v77.5h483v-241h-166q-2 -141 -2 -277q0 -59 -1 -121.5t-1 -124v-119v-106.5v-469q0 -143 2 -295h168v-241h-486z" />
<glyph unicode="\" horiz-adv-x="831" d="M-6 1415q16 2 47 4t64.5 5t66.5 5.5t55 2.5q82 0 109 -76q113 -350 191.5 -593t132 -404.5t85 -255t50 -143.5t26.5 -70.5t17 -36.5q-16 -2 -46 -5.5t-65 -6.5t-68.5 -5t-54.5 -2q-84 0 -106 76q-117 350 -197 594t-134 406.5t-85 256t-48.5 143.5t-25.5 70.5t-14 34.5z " />
<glyph unicode="]" horiz-adv-x="571" d="M20 -115h168v295v126t1 126.5t1 117.5v99v106.5t-1 119t-1 124v121.5q-2 135 -2 277h-166v241h484v-77.5t-1 -138.5t-1 -178t-1 -200.5t-1 -205v-189.5v-134v-155.5t1 -165.5t1 -165q2 -188 4 -385h-486v241z" />
<glyph unicode="^" horiz-adv-x="901" d="M61 784q0 20 7.5 42t17.5 44q86 170 137 272.5t88 158t67 74t73 18.5t73.5 -18.5t66.5 -74t86 -158t136 -272.5q27 -47 27 -86q0 -41 -41 -62.5t-107 -16.5l-241 397l-242 -397q-66 -4 -107 17t-41 62z" />
<glyph unicode="_" horiz-adv-x="1024" d="M2 -281.5q0 39.5 2 62t8 34t15 19.5q10 10 31.5 16.5t70.5 6.5h889q4 -68 4 -107t-2 -62.5t-8 -33.5t-15 -19q-10 -10 -31.5 -16t-70.5 -6h-889q-4 66 -4 105.5z" />
<glyph unicode="`" horiz-adv-x="544" d="M45 1372q94 53 140 68.5t81 15.5q23 0 42.5 -8t44 -39t59 -90t88.5 -160q-66 -41 -99.5 -52t-66.5 -11q-20 0 -41 8t-51.5 35.5t-76.5 83t-120 149.5z" />
<glyph unicode="a" d="M57 473q0 141 38 241.5t100.5 166t145.5 96.5t173 31q78 0 138.5 -22.5t82.5 -39.5q16 35 68.5 48.5t136.5 13.5q57 0 77.5 -20.5t20.5 -59.5q0 -18 -1 -65.5t-2 -108t-2 -128t-1 -126.5v-212t2 -136.5t5 -86t10 -65.5q-18 -4 -47 -6t-60 -3t-61.5 -2t-55.5 -1 q-57 0 -85 34q-24 29 -24 75q0 7 1 14l18 45l-6 6q-49 -72 -127 -125t-188 -53q-170 0 -263.5 117.5t-93.5 371.5zM385 487q0 -145 42 -203.5t108 -58.5q27 0 53 12.5t51 31t44 39t32 36.5q-1 44 -1 89v45q1 68 2 126t3 103t4 63q-59 18 -141 18q-47 0 -83 -14t-61.5 -48 t-39 -92.5t-13.5 -146.5z" />
<glyph unicode="b" horiz-adv-x="1120" d="M94 29q8 94 9 205.5t1 226.5q0 82 -1 208t-3 259t-3 256t-1 200q0 53 49.5 79t173.5 26q59 0 80 -20.5t21 -57.5q0 -23 -1 -88.5t-4 -146t-6 -162.5t-6 -133l-20 -43l6 -7q47 70 126 123.5t190 53.5q170 0 264 -119t94 -373q0 -141 -43 -241.5t-114.5 -165t-168 -95 t-200.5 -30.5q-49 0 -105.5 3t-115 9t-116 14.5t-106.5 18.5zM395 215q33 -4 69 -9t73 -5q45 0 81.5 14t62.5 48t39 92.5t13 146.5q0 145 -43 203.5t-106 58.5q-51 0 -98.5 -39t-79.5 -76q0 -94 -1.5 -173t-3.5 -138q-2 -68 -6 -123z" />
<glyph unicode="c" horiz-adv-x="837" d="M55 483q0 147 37 247.5t98.5 162t141.5 88.5t168 27q106 0 174.5 -28t97.5 -52q8 -10 14.5 -20.5t5.5 -28t-8.5 -46t-25.5 -75.5q-23 4 -64 13t-94 9q-104 0 -160 -68q-55 -65 -55 -212v-11q0 -154 53.5 -217t151.5 -63q68 0 113 9t71 18q14 -47 20 -76q6 -25 6 -42v-6 q-1 -18 -7.5 -28t-18.5 -23q-29 -29 -98.5 -53t-194.5 -24q-90 0 -167.5 28.5t-135 89t-90.5 154.5t-33 227z" />
<glyph unicode="d" horiz-adv-x="1136" d="M57 485q0 139 36 238.5t96.5 162t141.5 92.5t171 30q72 0 131 -13.5t82 -23.5l-4 413q0 55 49 80t176 25q55 0 75.5 -20.5t20.5 -57.5q0 -76 -1 -164t-2 -198.5t-2 -245.5t-1 -303v-212t2 -136.5t5 -86t9 -65.5q-18 -4 -46.5 -6t-59.5 -3t-61.5 -2t-55.5 -1q-57 0 -83 34 q-23 29 -24 75q0 7 1 14l22 45l-6 8q-47 -72 -126.5 -126t-188.5 -54q-170 0 -263.5 119.5t-93.5 381.5zM387 487q0 -145 41 -203.5t107 -58.5q27 0 53 12.5t50 31t43 39t32 38.5q-1 30 -1 71v45q1 70 3 138t4 118t2 54q-27 6 -65.5 11t-73.5 5q-47 0 -83 -14t-60.5 -48 t-38 -92.5t-13.5 -146.5z" />
<glyph unicode="e" horiz-adv-x="1089" d="M55 471q0 133 37 233.5t105.5 168t165 101.5t217.5 34q221 0 337.5 -107.5t116.5 -355.5q0 -57 -27.5 -83t-91.5 -26h-532q-1 -14 -1 -26q0 -99 56 -144q62 -51 197 -51q111 0 201 17.5t129 25.5q14 -49 21 -80t6 -49t-7 -29.5t-16 -21.5q-33 -31 -135.5 -59.5 t-255.5 -28.5q-111 0 -207.5 26.5t-166 84t-109.5 149.5t-40 221zM387 590l340 2v17q0 91 -39 133q-43 46 -108 46q-84 0 -135.5 -56t-57.5 -142z" />
<glyph unicode="f" horiz-adv-x="679" d="M-5 930q1 22 5 34.5t14 22.5q12 14 39 19q19 3 57 3q16 0 37 -1l-2 157v9q0 165 72 239q74 76 246 76q84 0 145.5 -20.5t81.5 -41.5q10 -10 16.5 -21t6.5 -29.5t-5.5 -49.5t-17.5 -78q-23 4 -59.5 8.5t-67.5 4.5q-55 0 -77.5 -26t-22.5 -103l-2 -132l213 7 q10 -85 10 -130q0 -12 -1 -20q-3 -45 -21 -63q-8 -6 -21.5 -10.5t-37 -4.5t-59.5 1t-87 5v-86v-112.5t1 -129t1 -132.5q2 -154 4 -326l-318 -10q0 154 1 270.5t1 209.5v168v146l-139 -4q-6 55 -10 91q-3 29 -3 49v10z" />
<glyph unicode="g" horiz-adv-x="1132" d="M57 485q0 129 34 226.5t92.5 164t139 99.5t175.5 33q78 0 140 -18.5t93 -41.5q16 35 75.5 47.5t133.5 12.5q57 0 77.5 -20.5t20.5 -57.5q0 -35 -1 -69t-3 -72.5t-3 -86t-1 -110.5q0 -80 1 -160t2 -153.5t2 -137t1 -112.5q0 -137 -28.5 -228.5t-86 -146.5t-146.5 -79 t-208 -24q-182 0 -277 26t-126 56q-10 8 -15.5 21.5t-7.5 35t3.5 53.5t17.5 79q16 -4 50 -11.5t81 -15.5t104.5 -14t118.5 -6q96 0 150 43q51 40 51 133v14l-4 141l20 48l-6 10q-47 -76 -126 -128t-187 -52q-80 0 -145.5 25.5t-112.5 85t-73 154.5t-26 236zM387 487 q0 -76 11.5 -126t31 -80.5t47 -43t58.5 -12.5q25 0 51 12.5t49.5 31t44 40t35.5 39.5q-1 57 -1 110v51q1 75 3 134q2 68 4 127q-27 8 -65.5 13t-73.5 5q-96 0 -145.5 -65.5t-49.5 -235.5z" />
<glyph unicode="h" horiz-adv-x="1148" d="M94 -10q2 113 4 223q2 94 3 196.5t1 176.5q0 76 -1 186.5t-2 225t-2 219t-1 167.5q0 53 48.5 79t172.5 26q59 0 79 -20.5t20 -57.5q0 -27 -1 -94.5t-3 -148.5t-5.5 -159.5t-5.5 -127.5l-18 -43l6 -7q31 33 69 65t83 56.5t96 40t111 15.5q152 0 225.5 -88.5t73.5 -280.5 q0 -170 -1.5 -275.5t-1.5 -172t2.5 -107.5t8.5 -84q-10 -2 -34 -4t-52.5 -3l-57 -2t-51.5 -1q-66 0 -100.5 37t-34.5 90q0 31 1 82t1 114.5t1 135t1 143.5q0 98 -26.5 135t-90.5 37q-57 0 -112.5 -38t-98.5 -81v-645z" />
<glyph unicode="i" horiz-adv-x="514" d="M96 -10q0 37 1 106.5t2 153.5t2 172t1 162q0 31 -1 74.5t-2 89t-2 87.5t-1 68q0 53 47 79t172 26q59 0 80 -19.5t21 -58.5v-930zM96 1311q0 55 48.5 80.5t172.5 25.5q59 0 80 -19.5t21 -56.5q0 -78 -7.5 -122.5t-29 -68.5t-59 -30t-99.5 -6q-41 0 -65.5 8t-38 30 t-18.5 61t-5 98z" />
<glyph unicode="j" horiz-adv-x="514" d="M-115 -299q20 8 72.5 35.5t95.5 68.5q16 16 26.5 36t16.5 48.5t9.5 67.5t3.5 94l-13 852q0 53 48.5 79t170.5 26q59 0 80 -19.5t21 -58.5v-965q0 -115 -38 -193.5t-97 -127.5q-63 -53 -142.5 -79t-138.5 -26q-20 0 -35.5 7.5t-28 25.5t-25 49t-26.5 80zM96 1311 q0 55 48.5 80.5t170.5 25.5q59 0 81 -19.5t22 -56.5q0 -78 -7.5 -122.5t-29 -68.5t-59 -30t-99.5 -6q-41 0 -65.5 8t-38 30t-18.5 61t-5 98z" />
<glyph unicode="k" horiz-adv-x="1044" d="M94 -10q2 49 4 113.5t3 136t2 147.5t1 150q0 100 -1 222t-2 240.5t-2 221t-1 163.5q0 53 48.5 79t172.5 26q57 0 78 -20.5t21 -57.5q0 -49 -4 -229.5t-11 -499.5l-20 -43l6 -6l338 352q33 35 71 35h4q40 -2 118 -49q59 -35 66 -65q1 -6 1 -11q0 -24 -24 -49l-254 -238 q104 -164 164.5 -260t96.5 -149.5t53 -77t34 -37.5q-57 -51 -106.5 -76.5t-102.5 -25.5q-45 0 -84 19t-72 81l-186 344l-105 -96v-118.5t-2 -107.5q-2 -55 -4 -104z" />
<glyph unicode="l" horiz-adv-x="559" d="M96 227q0 33 1 92.5t3 132t3 150.5t1 148q0 84 -1 177t-2 180t-2 159.5t-1 117.5q0 53 47.5 79t171.5 26q59 0 79 -20.5t20 -57.5q0 -66 -1 -177.5t-3 -255.5t-5.5 -317.5t-5.5 -363.5q0 -35 3.5 -51.5t15.5 -28.5q16 -14 49.5 -13t62.5 5q14 -78 14 -115v-11 q-2 -36 -24 -54q-16 -16 -64 -27.5t-112 -11.5q-127 0 -188.5 54t-61.5 183z" />
<glyph unicode="m" horiz-adv-x="1753" d="M94 -10q4 193 4 340v258q0 88 -2 175t-2 140t53.5 79t180.5 26q43 0 60.5 -19.5t17.5 -46.5t-1.5 -48.5t-7.5 -55.5l6 -7q31 33 67 65t78 56.5t91 40t106 15.5q100 0 170 -51.5t95 -149.5q63 86 146 143.5t200 57.5q143 0 218 -86t75 -283v-275.5v-172t2 -107.5t8 -84 q-10 -2 -32.5 -4t-51.5 -3t-57.5 -2t-51.5 -1q-66 0 -100.5 36.5t-34.5 90.5v473q0 100 -26.5 137t-83.5 37q-47 0 -100.5 -38t-94.5 -87v-639l-305 -10v602q0 98 -26.5 135t-80.5 37q-45 0 -103 -38t-97 -81v-645z" />
<glyph unicode="n" horiz-adv-x="1161" d="M94 -10q4 182 4 334.5v269.5q0 84 -2 170t-2 139t53.5 79t180.5 26q43 0 60.5 -18.5t17.5 -47.5q0 -27 -2.5 -53.5t-6.5 -50.5l6 -7q27 31 64 63t82 56.5t97 41t114 16.5q150 0 224.5 -88.5t74.5 -280.5q0 -170 -1 -275.5t-1 -172t2 -107.5t8 -84q-10 -2 -33.5 -4 t-52.5 -3t-58.5 -2t-52.5 -1q-66 0 -98.5 36.5t-32.5 90.5v475q0 96 -26.5 134t-83.5 38q-59 0 -116.5 -39t-98.5 -80v-645z" />
<glyph unicode="o" horiz-adv-x="1103" d="M55 500q0 141 43 238.5t114 157.5t159 86t180 26t181 -26t160 -86t114 -157.5t43 -238.5t-42 -239.5t-112 -160t-160 -89t-184 -27.5t-183 27.5t-159 89t-112 159.5t-42 240zM371 498q0 -291 180 -291t180 291q0 286 -179 286h-1q-180 0 -180 -286z" />
<glyph unicode="p" horiz-adv-x="1130" d="M94 -332q2 324 5 552t3 380q0 37 -1 80t-2 84t-2 78t-1 61q0 53 51.5 79t178.5 26q43 0 60 -20.5t17 -49.5q0 -23 -2 -44.5t-6 -53.5l6 -9q47 70 127 123.5t187 53.5q168 0 263 -120t95 -384q0 -139 -36 -237.5t-96 -162t-140 -92t-168 -28.5q-78 0 -134.5 11t-84.5 23 v-185.5t1 -119.5t5 -85t12 -79q-10 0 -37.5 -1t-62.5 -2l-70 -2t-57 -1q-68 0 -89.5 36t-21.5 89zM406 215q33 -6 69.5 -10t71.5 -4q47 0 84 14t61.5 48t37.5 92.5t13 146.5q0 147 -42 204.5t-107 57.5q-25 0 -50.5 -11.5t-49 -28.5t-44 -36.5t-34.5 -38.5q0 -92 -1 -170 t-3 -137q-2 -68 -6 -127z" />
<glyph unicode="q" horiz-adv-x="1134" d="M57 473q0 141 38 241.5t100.5 166t145.5 96.5t173 31q78 0 138.5 -22.5t82.5 -39.5q16 35 68.5 48.5t136.5 13.5q57 0 77.5 -20.5t20.5 -59.5q0 -20 -1 -74.5t-2 -124.5t-2 -144.5t-1 -131.5v-302t-1 -218.5t-1 -151t1 -102t3 -71.5t6 -59q-14 0 -37.5 -1t-51 -2 t-55.5 -2t-50 -1q-68 0 -102.5 35t-34.5 88q0 27 1 86.5t2 128t3 133t2 99.5l18 43l-6 6q-49 -72 -127 -125t-188 -53q-170 0 -263.5 117.5t-93.5 371.5zM385 487q0 -145 42 -203.5t108 -58.5q27 0 53 12.5t51 31t44 39t32 36.5q-1 44 -1 89v45q1 67 2 125.5t3 103.5t4 63 q-59 18 -141 18q-47 0 -83 -14t-61.5 -48t-39 -92.5t-13.5 -146.5z" />
<glyph unicode="r" horiz-adv-x="749" d="M94 -10q4 211 4 365.5v262.5q0 33 -1 71t-1 77t-1 75t-1 62q0 53 53.5 79t180.5 26q43 0 60.5 -18.5t17.5 -47.5q0 -27 -2.5 -53.5t-6.5 -54.5l4 -7q57 98 122 139.5t112 41.5t70 -23q8 -8 13 -18.5t8 -34.5q2 -18 2 -44v-20q-1 -40 -7 -108q-14 1 -28 1q-61 1 -121 -21 q-74 -26 -158 -95v-645z" />
<glyph unicode="s" horiz-adv-x="839" d="M49 709q0 147 99.5 223t261.5 76q68 0 122 -10.5t94 -23.5t66.5 -28.5t38.5 -27.5q23 -23 23 -61v-6q-2 -42 -33 -114q-12 4 -39 11.5t-60.5 15.5t-72.5 13t-74 5q-59 0 -82.5 -18.5t-23.5 -52.5q0 -33 31.5 -53.5t78.5 -40t103.5 -43t103.5 -59.5t79 -90t32 -136 q0 -152 -105.5 -228.5t-290.5 -76.5q-115 0 -202.5 26.5t-124.5 61.5q-10 10 -16.5 22t-7.5 32.5t4 51.5t18 78q27 -8 63.5 -16.5t77.5 -15.5t82 -11t78 -4q102 0 102 76q0 35 -31.5 58.5t-79 45t-102.5 45t-102 58t-79 87t-32 130.5z" />
<glyph unicode="t" horiz-adv-x="722" d="M-4 929.5q0 22.5 5 35t15 22.5q12 15 39 19q19 3 57 3q17 0 38 -1l22 170q4 31 26.5 50t50 30.5t57.5 15.5t48 4q53 0 80 -14.5t27 -55.5v-207l227 7q10 -85 10 -130q0 -10 -1 -20q-3 -44 -21 -63q-15 -14 -61 -14q-1 1 -3 1q-48 0 -153 4l-4 -448q0 -84 31.5 -107.5 t95.5 -23.5q23 0 48 4t42 8q10 -47 13 -77.5t0 -51t-10 -33t-18 -20.5q-20 -20 -72.5 -33.5t-168.5 -13.5q-57 0 -107.5 13t-87.5 42t-57.5 77t-20.5 118l7 544l-140 -4q-8 55 -11 91t-3 58.5z" />
<glyph unicode="u" horiz-adv-x="1161" d="M94 903q0 53 47 79t174 26q55 0 75 -21.5t20 -58.5v-97.5t-1 -136t-1 -150.5v-141q0 -102 28.5 -138t89.5 -36q57 0 112.5 39t96.5 84v551q0 53 46 79t173 26q57 0 78 -20.5t21 -57.5v-549v-126t1 -95t4 -80t9 -80q-12 -2 -35.5 -4t-52.5 -3t-57.5 -2t-51.5 -1 q-68 0 -102 36q-31 32 -31 83v12l15 41l-7 6q-55 -88 -146 -133t-210 -45q-147 0 -220 86t-73 278q0 252 -1 384t-1 165z" />
<glyph unicode="v" horiz-adv-x="1011" d="M8 901q-7 17 -7 32q1 32 35 49q50 26 197 26q49 0 69 -13.5t30 -48.5l188 -708l191 669q8 29 18 48.5t33.5 30.5t62.5 16.5t105 5.5q52 0 72 -26q9 -13 10 -32q0 -21 -11 -49l-327 -901q-92 -4 -166 -6q-31 0 -62.5 -1t-56 -2t-41 -1h-18.5z" />
<glyph unicode="w" horiz-adv-x="1552" d="M8 887q-7 20 -7 36q-1 37 37 57q54 28 193 28q49 0 67.5 -14.5t29.5 -47.5l159 -710l148 667q8 31 19.5 51.5t35 31.5t63.5 16.5t105 5.5q43 0 61.5 -16.5t28.5 -51.5l164 -704l129 671q8 31 19.5 50.5t36 30.5t65.5 15.5t108 4.5q80 0 80 -61q0 -20 -8 -46l-274 -901 q-90 -4 -160 -6q-62 -4 -114 -5h-29q-24 0 -27 1l-164 626l-145 -616q-90 -4 -160 -6q-61 -4 -113 -5h-30q-24 0 -27 1z" />
<glyph unicode="x" horiz-adv-x="1017" d="M0 883q47 51 103.5 88t119.5 37q84 0 133 -70l172 -248l179 283q10 16 23 27q12 10 32 13q6 1 13 1q16 0 38 -6q31 -8 74 -25q72 -33 90 -57q7 -9 7 -20q0 -17 -17 -38l-279 -352q98 -125 156.5 -197.5t92.5 -112.5t51.5 -58.5t33.5 -34.5q-47 -51 -102.5 -89t-120.5 -38 q-84 0 -131 71l-185 271l-194 -303q-10 -16 -23.5 -27.5t-33.5 -14.5q-6 -1 -14 -1q-16 0 -36 5q-30 7 -73 27q-71 32 -91 56q-7 9 -8 20q0 18 21 41l286 371q-92 117 -147 185.5t-87 107.5t-49.5 55.5t-33.5 32.5z" />
<glyph unicode="y" horiz-adv-x="1021" d="M10 901q-10 21 -10 37q0 33 40 48q58 22 198 22q47 0 66.5 -13.5t29.5 -48.5l213 -649l174 610q8 29 19.5 48.5t34 30.5t61 16.5t104.5 5.5q53 0 72 -24q10 -11 10 -32t-10 -51l-301 -893q-49 -143 -95.5 -232t-96.5 -139.5t-106.5 -69t-123.5 -18.5q-70 0 -120 15.5 t-71 36.5q-8 8 -14 21t-7 33.5t3 52.5t16 81q16 -2 61.5 -8t90.5 -6q53 0 97 37.5t75 142.5z" />
<glyph unicode="z" horiz-adv-x="897" d="M41 125q0 23 3 44t17.5 50t42 72t76.5 107.5t123 156.5t178 221q-133 -4 -227 -5t-135 -1q-47 0 -62.5 25.5t-15.5 93.5q0 53 16.5 81.5t69.5 28.5h666q14 -16 31.5 -54t17.5 -81q0 -37 -14.5 -71.5t-62.5 -98t-138 -172t-242 -293.5q127 -2 208 -3h50q47 0 80 1 q49 2 74.5 5.5t42.5 9.5q4 -12 14 -49t10 -72q0 -55 -28.5 -88t-100.5 -33h-655q-14 20 -26.5 54t-12.5 71z" />
<glyph unicode="{" horiz-adv-x="698" d="M63 561v184q104 14 146.5 51.5t36.5 116.5l-29 519q0 125 56.5 176t160.5 51q102 0 156.5 -16.5t75.5 -36.5q16 -16 20 -49t-16 -119q-16 2 -35 4t-49 2q-29 0 -40 -15.5t-11 -44.5q0 -45 -1.5 -116.5t-1.5 -146t-1 -139t-1 -95.5q0 -94 -42 -150.5t-140 -81.5 q98 -25 140 -91t42 -177q0 -35 1 -100.5t1 -136t1.5 -135t1.5 -99.5q0 -27 11 -42t40 -15q31 0 49 2t35 6q10 -43 14 -73t3 -48t-7 -29.5t-14 -19.5q-23 -23 -76 -37t-156 -14q-104 0 -160.5 50t-56.5 175l29 522q6 84 -36 119t-147 49z" />
<glyph unicode="|" horiz-adv-x="587" d="M133 -479q0 248 2 467v190t1 185.5t1 164v123.5v138t-1 156t-1 157t-1 144.5t-1 114.5v69q0 55 45 81.5t174 26.5q59 0 81 -21.5t22 -60.5q0 -90 -1 -196.5t-2 -216t-2 -217t-1 -195.5v-116v-157t1 -180t1 -186q2 -217 4 -461z" />
<glyph unicode="}" horiz-adv-x="706" d="M11 -254q-1 18 3 48t15 73q16 -4 34.5 -6t49.5 -2q29 0 40 15t11 42q0 35 1 99.5t1 135t1 136t1 100.5q0 111 42 177.5t140 90.5q-98 25 -140 81.5t-42 150.5q0 31 -1 95.5t-1 139t-1 146t-1 116.5q0 29 -11.5 44.5t-39.5 15.5q-31 0 -49.5 -2t-34.5 -4 q-10 43 -14.5 71.5t-3.5 47t7.5 29.5t14.5 20q20 20 74.5 36.5t156.5 16.5q104 0 160.5 -51.5t56.5 -175.5l-28 -519q-6 -80 35.5 -116.5t146.5 -51.5v-184q-104 -14 -146.5 -49t-35.5 -119l28 -522q0 -125 -56 -175t-161 -50q-102 0 -155.5 14t-75.5 37q-8 8 -14.5 19.5 t-7.5 29.5z" />
<glyph unicode="~" horiz-adv-x="1017" d="M66 543q0 100 51 145t147 45q41 0 90 -3t100.5 -8t100.5 -8t90 -3q61 0 80.5 23.5t13.5 80.5q113 23 164 -15t51 -145q0 -102 -51 -147t-149 -45t-195.5 11t-185.5 11q-61 0 -81 -23.5t-13 -78.5q-113 -23 -163 15t-50 145z" />
<glyph unicode="&#xa1;" horiz-adv-x="561" d="M115 -385q0 49 1 115.5t4 143.5t6 159t7 160q8 182 19 382l256 11q10 -203 18 -385q4 -78 7 -159t6 -154.5t5 -137t2 -106.5q0 -57 -49 -83t-180 -26q-59 0 -80.5 21.5t-21.5 58.5zM125 762q0 78 7 125t25.5 71.5t52.5 32.5t89 8q41 0 66.5 -8t41 -30.5t21.5 -62.5 t6 -103t-44 -93t-163 -30q-45 0 -73.5 16.5t-28.5 73.5z" />
<glyph unicode="&#xa2;" horiz-adv-x="890" d="M70 649q0 145 32.5 242.5t81.5 157t108.5 90t113.5 43.5l-3 137q0 39 35 56.5t144 17.5q29 0 43 -10.5t14 -45.5l-2 -155q51 -6 98 -27.5t70 -44.5q10 -10 16 -20.5t5 -29t-9 -49t-26 -79.5q-25 6 -62 13t-96 7q-104 0 -162.5 -68.5t-58.5 -228.5q0 -291 211 -290 q63 0 115.5 9t76.5 17q14 -49 21.5 -78.5t7.5 -48t-7.5 -30t-19.5 -23.5q-29 -29 -77 -47.5t-103 -26.5v-194l-238 -11l4 205q-57 12 -116.5 42t-107.5 89.5t-78.5 152.5t-30.5 228z" />
<glyph unicode="&#xa3;" horiz-adv-x="1087" d="M51 94q-2 39 0 63.5t7 39t14 22.5q14 14 31.5 18.5t39.5 4.5h45q20 27 50 66.5t32 105.5q2 35 -7 75.5t-17 75.5h-107t-65 -4q-6 59 -6 94t3 53.5t8 25.5t11 14q18 18 64 18h45q-10 49 -32 115.5t-22 124.5q0 90 30 155.5t83 107.5t125 61.5t156 19.5q82 0 151.5 -12.5 t120.5 -28t83 -31.5t38 -23q20 -20 24.5 -40.5t-16.5 -67.5q-23 -53 -40 -66.5t-40 -13.5q-29 0 -88 19.5t-147 19.5q-70 0 -111 -41t-41 -113q0 -41 18.5 -92t28.5 -94q88 0 142.5 -1t88 -1t53 1t40.5 5q6 -49 8 -80t0 -50t-8 -30.5t-15 -19.5q-14 -16 -36.5 -20.5 t-63.5 -4.5h-154q6 -33 13.5 -73.5t7.5 -77.5q0 -59 -27.5 -102.5t-52.5 -69.5q147 0 237.5 -1t145.5 0t87 4t63 9q4 -20 11 -60t7 -85q0 -51 -34 -80t-105 -29h-302h-214h-145.5h-95.5t-63.5 -1t-48.5 -3q-6 59 -8 98z" />
<glyph unicode="&#xa4;" horiz-adv-x="1048" d="M14 1059q37 43 59.5 67.5t39 37t27 15.5t22.5 3q16 0 36.5 -10.5t55.5 -47.5l68 -75q37 23 88 37t116 14q78 0 129.5 -18.5t85.5 -41.5q43 43 69 70t41 43t24.5 25.5t17.5 19.5q41 -35 65.5 -58.5t37 -39t15.5 -26.5t3 -23q0 -16 -10.5 -36t-47.5 -54l-71 -68 q18 -33 37.5 -94.5t19.5 -139.5t-18.5 -137t-46.5 -106l68.5 -68.5t42 -41t26.5 -24t20 -16.5q-37 -43 -59.5 -66.5t-38.5 -35.5t-26.5 -15.5t-22.5 -3.5q-16 0 -37 10.5t-55 47.5l-68 73q-27 -16 -81 -32.5t-120 -16.5q-78 0 -132 17.5t-89 40.5q-43 -43 -68.5 -70t-41 -42 t-23.5 -24.5t-16 -19.5q-41 35 -65.5 58.5t-37 39t-15.5 26.5t-3 23q0 14 10 35t47 56l72 65q-23 37 -39 92t-16 135q0 86 18 146.5t45 103.5q-43 43 -69.5 69t-43 41t-25.5 23.5t-20 16.5zM322 659q0 -94 51 -158.5t153 -64.5t152.5 64.5t50.5 158.5q0 98 -50 163t-153 65 q-102 0 -153 -65t-51 -163z" />
<glyph unicode="&#xa5;" horiz-adv-x="1136" d="M7.5 1307.5q-1.5 27.5 21 43t74 22.5t137.5 7q39 0 61.5 -5t36.5 -17t22.5 -32.5t18.5 -53.5l203 -578l227 590q10 33 23.5 52.5t40 28.5t69.5 12t113 3q43 0 64.5 -27.5t-3.5 -82.5l-305 -656h195q4 -47 4 -75.5t-2 -46t-8.5 -25.5t-14.5 -14q-10 -8 -32.5 -13.5 t-73.5 -5.5h-148v-88h275q4 -47 4 -75.5t-2 -45t-8.5 -26t-14.5 -15.5q-10 -8 -33.5 -13t-79.5 -5h-145q0 -61 -1 -105.5t-1 -60.5l-340 -10q4 31 6 176h-274q-4 47 -4 75.5t3 46t8 26t13 14.5q10 10 31.5 14t73.5 4h151v88h-276q-4 45 -4 74t3 46t8 26.5t13 15.5 q10 8 31.5 13t73.5 5h71l-286 627q-18 39 -19.5 66.5z" />
<glyph unicode="&#xa6;" horiz-adv-x="581" d="M129 -446q2 115 2 241v241t2 267h313l7 -739zM131 1395q0 27 10.5 47t35 34.5t66.5 20.5t107 6q59 0 80 -20.5t21 -61.5q-2 -123 -2 -250q-2 -109 -2.5 -232.5t-0.5 -231.5h-311z" />
<glyph unicode="&#xa7;" horiz-adv-x="1001" d="M80 610q0 72 24.5 131.5t67.5 106.5q-35 41 -54.5 93t-19.5 120q0 84 30 147.5t85 105.5t133 63.5t172 21.5q133 0 221 -33t117 -61q10 -10 16.5 -24.5t4 -37t-13.5 -56.5t-36 -81q-53 14 -126.5 31.5t-151.5 17.5q-63 0 -98 -29.5t-35 -78.5q0 -43 38 -77t94 -65 t121.5 -64.5t122 -78.5t94.5 -107.5t38 -150.5q0 -78 -28 -137.5t-69 -102.5q39 -43 59.5 -95t20.5 -122q0 -86 -30.5 -149.5t-86 -105.5t-133 -62.5t-172.5 -20.5q-68 0 -125 9.5t-101 23.5t-74.5 30.5t-45.5 30.5q-10 10 -15 23.5t-4 36t12 56.5t36 83q57 -16 132 -32.5 t144 -16.5q145 0 146 108q0 43 -38 77t-94.5 64.5t-123 65.5t-122.5 82t-94 109.5t-38 150.5zM342 637q0 -45 24.5 -77t66.5 -59.5t95.5 -53t110.5 -56.5q10 16 16.5 35.5t6.5 42.5q0 45 -27 80t-70 62.5t-96 53t-107 54.5q-10 -16 -15 -40t-5 -42z" />
<glyph unicode="&#xa8;" horiz-adv-x="792" d="M45 1311q0 59 43 90t160 31q53 0 77.5 -17.5t24.5 -77.5q0 -76 -7 -121t-27.5 -69.5t-54.5 -31.5t-87 -7q-37 0 -61.5 7t-40 29.5t-21.5 61.5t-6 105zM442 1311q0 59 43 90t160 31q51 0 77 -17.5t26 -77.5q0 -76 -8.5 -121t-28 -69.5t-54 -31.5t-86.5 -7q-37 0 -61.5 7 t-39.5 29.5t-21.5 61.5t-6.5 105z" />
<glyph unicode="&#xa9;" horiz-adv-x="1544" d="M68 694q0 154 49 284t141 224t223 147.5t293 53.5t292 -53.5t222 -147.5t141.5 -224t49.5 -284t-49.5 -283.5t-141.5 -224t-222 -146.5t-292 -52t-293 52t-223 146.5t-141 224t-49 283.5zM287 694q0 -111 31.5 -205t93 -162.5t152.5 -107.5t210 -39t210 39t152.5 107.5 t93.5 163t32 204.5q0 111 -32 205t-93.5 164t-152.5 108.5t-210 38.5t-210 -38.5t-152.5 -108.5t-93 -164t-31.5 -205zM430 686q0 123 31 206t80 132t112.5 69.5t128.5 20.5q90 0 141.5 -22.5t71.5 -42.5q16 -18 18.5 -56.5t-26.5 -109.5q-23 4 -52.5 11t-70.5 7 q-74 0 -113.5 -53.5t-39.5 -157.5q0 -113 42 -158t113 -45q49 0 85 7.5t57 11.5q25 -72 22.5 -106.5t-24.5 -57.5q-23 -25 -80.5 -45.5t-139.5 -20.5q-76 0 -140 24t-112.5 73t-76 127t-27.5 186z" />
<glyph unicode="&#xaa;" horiz-adv-x="735" d="M47 913q0 125 107.5 173.5t287.5 27.5v31q0 53 -27.5 72.5t-80.5 19.5q-63 0 -121.5 -13.5t-83.5 -19.5q-29 57 -26 86t18 43q8 8 30.5 18.5t54.5 18.5t72.5 14.5t83.5 6.5q147 0 216 -52.5t69 -193.5v-198v-120t1 -68.5t5 -41.5q-29 -2 -73.5 -3t-71.5 -1 q-29 0 -52.5 17.5t-17.5 66.5l15 26l-2 4q-16 -23 -35 -43t-40.5 -35.5t-50 -25.5t-67.5 -10q-37 0 -75 11t-68.5 34.5t-49 61.5t-18.5 93zM254 920q0 -31 18.5 -47.5t46.5 -16.5q41 0 72 25.5t47 54.5v57q-102 14 -143 -8t-41 -65z" />
<glyph unicode="&#xab;" horiz-adv-x="1083" d="M65.5 582.5q2.5 21.5 11.5 37t25 33.5l263 267q18 20 44.5 15t79.5 -58q45 -45 52.5 -65.5t-6.5 -43.5l-154 -227l154 -228q14 -23 7 -43t-53 -65q-53 -53 -79.5 -58.5t-44.5 13.5l-285 286q-10 51 -13.5 83t-1 53.5zM522 582.5q2 21.5 11.5 37t25.5 33.5l262 267 q18 20 46 15t79 -58q45 -45 53.5 -65.5t-6.5 -43.5l-155 -227l155 -228q14 -23 6 -43t-51 -65q-53 -53 -79.5 -58.5t-47.5 13.5l-284 286q-8 51 -12.5 83t-2.5 53.5z" />
<glyph unicode="&#xac;" horiz-adv-x="1017" d="M66 543.5q0 40.5 3 64t9 34.5t14 20q23 23 103 22h743v-418q-121 -25 -172 -17.5t-66 23.5q-14 14 -20 36t-6 69l2 63h-604q-6 63 -6 103.5z" />
<glyph unicode="&#xad;" horiz-adv-x="712" d="M55 612.5q0 38.5 2 62t8.5 34t14.5 18.5q10 10 31.5 17.5t72.5 7.5h469q4 -66 4 -106t-2 -62.5t-7 -33.5t-13 -20q-10 -10 -32.5 -16t-72.5 -6h-471q-4 66 -4 104.5z" />
<glyph unicode="&#xae;" horiz-adv-x="1267" d="M51 1022q0 121 44 225.5t122 182t184.5 122.5t231.5 45q127 0 233.5 -45t184 -122.5t122 -182t44.5 -225.5t-44.5 -224.5t-122 -181t-185 -121.5t-232.5 -44t-231.5 44t-184.5 121.5t-122 181t-44 224.5zM246 1022q0 -82 30.5 -153.5t83 -126t123 -85t150.5 -30.5 q82 0 153.5 30.5t124 85t83 126t30.5 153.5t-30.5 154.5t-83 127t-124 86t-153.5 31.5q-80 0 -150.5 -31.5t-123 -86t-83 -127t-30.5 -154.5zM440 748q0 47 2 100q0 45 1 98.5t1 106.5v62.5t-1 72.5t-1 69.5v53.5q35 4 90.5 7t114.5 3q98 0 156.5 -43t58.5 -135 q0 -37 -10 -62.5t-26.5 -43t-36 -29t-37.5 -17.5q39 -68 62.5 -106.5t37.5 -60t21.5 -32t13.5 -18.5q-39 -20 -64.5 -27.5t-50.5 -7.5q-51 0 -72 49l-73 189h-33v-225zM594 1067h24q47 0 71 15.5t24 58.5q0 47 -23.5 59t-52.5 12q-18 0 -28.5 -1t-14.5 -1v-143z" />
<glyph unicode="&#xaf;" horiz-adv-x="516" d="M47 1235q0 39 3 61.5t8 32.5t14 19q10 10 31.5 17t72.5 7h289q2 -66 3 -105.5t-2 -62t-8 -33t-14 -18.5q-10 -10 -33.5 -16.5t-78.5 -6.5h-281q-4 66 -4 105z" />
<glyph unicode="&#xb0;" horiz-adv-x="724" d="M78 1192q0 61 22.5 110.5t61.5 84t90 54t108 19.5t109.5 -19.5t91.5 -54t61.5 -84t22.5 -110.5t-22.5 -110.5t-61.5 -84t-91 -54t-110 -19.5q-57 0 -108 19.5t-90 54t-61.5 84t-22.5 110.5zM264 1192q0 -41 27.5 -69.5t68.5 -28.5t70 28.5t29 69.5t-29 68.5t-70 27.5 t-68.5 -27.5t-27.5 -68.5z" />
<glyph unicode="&#xb1;" horiz-adv-x="1017" d="M74 102q0 39 2 61.5t8 34t14 19.5q10 10 32 16.5t71 6.5h739q4 -63 4 -101.5t-2 -62t-7 -34.5t-13 -19q-10 -10 -33 -16.5t-72 -6.5h-739q-4 63 -4 102zM74 691.5q0 39.5 2 62t7 34t13 19.5q10 10 34 18.5t71 3.5l184 -6l-6 287q70 6 113 6t68.5 -3t38.5 -9t22 -14 q14 -14 20 -36t2 -69l-6 -162l303 6q4 -66 5 -105.5t-2 -62t-8 -34t-13 -19.5q-10 -10 -33 -18t-72 -4l-180 6l6 -275q-70 -6 -113 -7t-68.5 2t-38.5 10.5t-22 15.5q-10 10 -18 31.5t-4 70.5l6 152l-307 -6q-4 66 -4 105.5z" />
<glyph unicode="&#xb2;" horiz-adv-x="878" d="M86.5 1264.5q5.5 21.5 24.5 42.5q10 8 35.5 26.5t67.5 34.5t97.5 29.5t122.5 13.5q145 0 224 -60.5t79 -189.5q0 -82 -59.5 -156.5t-149.5 -144.5l-116 -94h150.5t97 1t63.5 4t47 7q16 -106 13 -146t-17 -54q-16 -16 -35.5 -21.5t-58.5 -5.5h-541q-37 59 -37 125 q0 53 37 103t131 116q92 68 140.5 112t48.5 91q0 88 -91 88q-27 0 -55.5 -6t-55 -14.5t-48 -14.5t-31.5 -6q-16 0 -28.5 8t-35.5 49q-25 41 -19.5 62.5z" />
<glyph unicode="&#xb3;" horiz-adv-x="798" d="M72 666.5q-2 19.5 3 51.5t23 79q23 -8 78 -24.5t127 -16.5q55 0 89 22.5t34 65.5q0 18 -7 35.5t-27.5 29t-55.5 15.5t-92 -2l-19 114q100 23 139 49.5t39 63.5q0 33 -19 50.5t-50 17.5q-25 0 -50.5 -6.5t-49 -13.5t-44 -13t-32.5 -6q-27 0 -56 53q-20 33 -18 54.5 t18 37.5q8 8 33 23.5t64 30t89 24.5t109 10q123 0 199 -46t76 -159q0 -82 -51.5 -132t-120.5 -64q94 -4 152.5 -57.5t58.5 -137.5q0 -74 -28 -125t-75 -81.5t-111.5 -45t-140.5 -14.5q-111 0 -177 25.5t-87 46.5q-6 6 -12 16t-8 29.5z" />
<glyph unicode="&#xb4;" horiz-adv-x="544" d="M45 1159q53 100 87 159.5t58.5 90.5t44 39t44.5 8q33 0 78.5 -15.5t142.5 -68.5q-74 -94 -120 -149.5t-77 -83t-51.5 -35.5t-40.5 -8q-16 0 -32.5 2t-35 9t-42 19.5t-56.5 32.5z" />
<glyph unicode="&#xb5;" horiz-adv-x="1163" d="M94 -453q0 33 1 101.5t2 152.5t1 175.5v170v135v72.5v549q0 53 46 79t173 26q57 0 77 -29t20 -51v-98.5t-1 -140.5t-1 -161v-161q0 -74 29.5 -106t95.5 -32q63 0 111 39t89 84q2 246 1 377t-1 174q0 53 48.5 79t172.5 26q57 0 78 -20.5t21 -57.5v-83.5t-1 -134t-1 -162.5 v-169v-126t1 -95t4 -80t9 -80q-10 -2 -33.5 -4t-51.5 -3t-57.5 -2t-49.5 -1q-70 0 -106 35.5t-30 95.5l15 43l-6 4q-51 -92 -118 -133t-143 -41q-37 0 -64.5 8t-41.5 18l-4 -8l14 -18l4 -438z" />
<glyph unicode="&#xb6;" horiz-adv-x="1114" d="M31 944q0 217 129 332t415 115q96 0 172 -3.5t137.5 -6.5t110.5 -4t90 3q6 -63 6.5 -104t-3 -65.5t-10.5 -37t-13 -18.5q-25 -23 -84 -22q-23 0 -44.5 3t-29.5 5v-983q0 -90 -7 -151.5t-20.5 -105.5t-33 -74t-41.5 -52q-53 -53 -121 -72.5t-145 -19.5q-61 0 -97 9t-51 23 q-10 8 -16 19.5t-9.5 33t-3.5 57.5t7 97q96 0 149 9.5t78 33.5q23 23 31 55.5t8 77.5v129t-1 158t-1 173v173v412l-146 -4v-623q-102 -6 -186 15.5t-144.5 73.5t-93 136t-32.5 203z" />
<glyph unicode="&#xb7;" horiz-adv-x="520" d="M90 717q0 68 49 101.5t178 33.5q49 0 81 -19.5t32 -80.5q0 -86 -7 -138.5t-28.5 -80t-58.5 -36t-96 -8.5q-47 0 -76 9.5t-45.5 35t-22.5 69.5t-6 114z" />
<glyph unicode="&#xb8;" horiz-adv-x="395" d="M48 -329.5q-5 22.5 5 89.5q23 -2 46.5 1t35.5 18q14 16 14.5 42.5t-10.5 88.5h180q10 -23 20.5 -60.5t10.5 -82.5q0 -84 -52 -123t-124 -39q-53 0 -77.5 12t-33.5 23q-10 8 -15 30.5z" />
<glyph unicode="&#xb9;" horiz-adv-x="671" d="M48 1253.5q-3 26.5 13 40.5q23 23 181 74q72 23 109.5 33t72.5 10q59 0 85 -23.5t26 -76.5v-758l-287 -8l2 626l-170 -22q-29 78 -32 104.5z" />
<glyph unicode="&#xba;" horiz-adv-x="727" d="M49 1051q0 92 24.5 156.5t66.5 105.5t99.5 59.5t125.5 18.5t125 -18.5t99 -59.5t65.5 -105.5t23.5 -156.5t-23.5 -157t-65.5 -105.5t-99.5 -60t-124.5 -19.5q-68 0 -125.5 19.5t-99.5 60t-66.5 105t-24.5 157.5zM262 1051q0 -98 24.5 -142.5t78.5 -44.5q53 0 76.5 44.5 t23.5 142.5q0 100 -23.5 143t-76.5 43t-78 -43t-25 -143z" />
<glyph unicode="&#xbb;" horiz-adv-x="1083" d="M85 270.5q-7 20.5 7 42.5l154 228l-154 227q-14 23 -7 43t52 66q51 51 79 56t46 -13l285 -285q8 -51 12 -83t2 -53.5t-11 -37t-26 -33.5l-262 -268q-18 -18 -45 -13t-80 58q-45 45 -52 65.5zM542 811q7 20 52 66q51 51 78.5 56t46.5 -13l285 -285q8 -51 13 -83t3 -53.5 t-11.5 -37t-25.5 -33.5l-262 -268q-20 -18 -47 -13t-80 58q-43 45 -51 65.5t6 42.5l156 228l-156 227q-14 23 -7 43z" />
<glyph unicode="&#xbc;" horiz-adv-x="1822" d="M54 1253.5q-3 26.5 14 40.5q23 23 180 74q72 23 109.5 33t72.5 10q59 0 86 -23.5t27 -76.5l-2 -758l-287 -8l2 626l-170 -22q-29 78 -32 104.5zM315 -121l772 1561q23 41 57 58.5t81 17.5q63 0 122.5 -6.5t88.5 -12.5l-772 -1560q-23 -43 -57 -59.5t-81 -16.5 q-63 0 -122.5 6t-88.5 12zM1008 250q0 25 9 54.5t38.5 89t86 166t152.5 284.5q12 25 46 29t110 -23q39 -14 60.5 -27.5t31.5 -28t9 -27.5t-9 -26l-252 -411l107 2q4 16 8 28.5t10 28.5q8 18 18.5 33.5t27 26t43 15.5t67.5 5q47 0 64.5 -15.5t17.5 -43.5l-2 -74h38.5t69.5 4 q8 -49 11.5 -81t2.5 -51.5t-6.5 -30.5t-11.5 -17q-27 -20 -104 -19q2 -29 0 -71.5t8 -108.5q-10 -2 -31.5 -3t-48.5 -2t-52.5 -2t-43.5 -1q-53 0 -82 25.5t-27 64.5l2 98l-323 -2q-16 14 -30.5 41t-14.5 70z" />
<glyph unicode="&#xbd;" horiz-adv-x="1914" d="M54 1253.5q-3 26.5 14 40.5q23 23 180 74q72 23 109.5 33t72.5 10q59 0 86 -23.5t27 -76.5l-2 -758l-287 -8l2 626l-170 -22q-29 78 -32 104.5zM322 -121l774 1561q23 41 55.5 58.5t79.5 17.5q63 0 123.5 -6.5t89.5 -12.5l-774 -1560q-20 -43 -54 -59.5t-81 -16.5 q-63 0 -124 6t-89 12zM1163 714.5q4 22.5 25 41.5q10 10 35.5 27.5t67.5 35t97.5 29.5t122.5 12q143 0 223.5 -60.5t80.5 -187.5q0 -84 -59.5 -157.5t-151.5 -145.5l-115 -92h149.5t98.5 1t63.5 3t46.5 8q8 -53 11.5 -89t2.5 -59.5t-6.5 -35.5t-11.5 -18 q-16 -16 -36.5 -21.5t-57.5 -5.5h-543q-16 29 -25.5 59.5t-9.5 65.5q0 53 37 104.5t131 116.5q92 66 140.5 110t48.5 91q0 41 -22.5 65.5t-69.5 24.5q-25 0 -54.5 -7t-55.5 -14.5t-47.5 -14.5t-31.5 -7q-16 0 -28.5 8t-34.5 49q-25 41 -21 63.5z" />
<glyph unicode="&#xbe;" horiz-adv-x="1886" d="M70 666.5q-2 19.5 3 51.5t23 79q23 -8 78 -24.5t127 -16.5q57 0 90 22.5t33 65.5q0 18 -7 35.5t-27.5 29t-55.5 15.5t-92 -2l-17 114q98 23 137 49.5t39 63.5q0 33 -19.5 50.5t-49.5 17.5q-25 0 -50.5 -6.5t-49 -13.5t-44 -13t-32.5 -6q-27 0 -56 53q-18 33 -17 54.5 t17 37.5q8 8 34 23.5t64 30t88 24.5t109 10q123 0 199 -46t76 -159q0 -82 -51.5 -132t-118.5 -64q92 -4 150.5 -57.5t58.5 -137.5q0 -74 -28 -125t-75 -81.5t-111.5 -45t-140.5 -14.5q-111 0 -176 26.5t-88 45.5q-6 6 -12 16t-8 29.5zM399 -121l772 1561q23 41 57 58.5 t81 17.5q63 0 122.5 -6.5t88.5 -12.5l-772 -1560q-23 -43 -57 -59.5t-81 -16.5q-63 0 -122.5 6t-88.5 12zM1071 250q0 25 9.5 54.5t39 89t86 166t152.5 284.5q12 25 46 29t109 -23q39 -14 60.5 -27.5t32 -28t9.5 -27.5t-9 -26l-252 -411l106 2q4 16 8.5 28.5t10.5 28.5 q8 18 18 33.5t26.5 26t43 15.5t67.5 5q47 0 64.5 -15.5t17.5 -43.5l-2 -74h39t70 4q8 -49 11 -81t2 -51.5t-6 -30.5t-11 -17q-27 -20 -105 -19q2 -29 0 -71.5t8 -108.5q-10 -2 -31.5 -3t-48 -2t-52 -2t-44.5 -1q-53 0 -81.5 25.5t-26.5 64.5l2 98l-324 -2q-16 14 -30.5 41 t-14.5 70z" />
<glyph unicode="&#xbf;" horiz-adv-x="737" d="M10 -141q0 80 30 138t72 107.5t87 94.5t73 94q16 29 23.5 66.5t7.5 76.5t-4 76t-8 63l258 11q8 -37 15 -83t8 -94.5t-6 -97.5t-29 -92q-25 -43 -55.5 -83t-59.5 -76.5t-48.5 -74.5t-19.5 -79q0 -70 41 -98.5t97 -28.5q59 0 96 17.5t59 17.5q14 0 27.5 -11.5t38.5 -68.5 q27 -59 22.5 -80t-18.5 -33q-10 -10 -35 -24.5t-64.5 -27.5t-94 -23.5t-124.5 -10.5q-176 0 -282.5 80t-106.5 244zM256 762q0 78 7 125t25.5 71.5t52.5 32.5t89 8q41 0 66.5 -8t41 -30.5t21.5 -62.5t6 -103q0 -61 -45 -92t-162 -31q-45 0 -73.5 16.5t-28.5 73.5z" />
<glyph unicode="&#xc0;" horiz-adv-x="616" d="M25 997q0 188 73.5 275.5t208.5 87.5q139 0 212 -87t73 -276q0 -190 -74 -275t-213 -85q-133 0 -206.5 85t-73.5 275zM207 997q0 -123 25.5 -169t72.5 -46q53 0 81 46t28 169t-27 170t-80 47q-47 0 -73.5 -47t-26.5 -170z" />
<glyph unicode="&#xc1;" horiz-adv-x="387" d="M4 1243q0 16 8 23q4 4 34 18t69 29.5t76.5 27t60.5 11.5q78 0 78 -72l-4 -537v-49t4 -49q-16 -4 -48 -5t-57 -1q-41 0 -57 23.5t-16 58.5v444l-129 -20q-18 76 -19 98z" />
<glyph unicode="&#xc2;" horiz-adv-x="501" d="M4 719q0 14 4 26.5t21.5 36t49.5 61.5t87 103q31 37 52.5 61.5t34.5 43t19.5 37t6.5 42.5q0 74 -78 74q-25 0 -53.5 -10t-57.5 -23q-23 -10 -36 7.5t-23 40.5q-10 20 -11.5 40.5t9.5 32.5q6 6 24.5 17.5t45 22.5t61.5 19.5t73 8.5q228 0 228 -201q0 -55 -25.5 -109.5 t-85.5 -119.5l-135 -142h111t70.5 1.5t46 3.5t34.5 6q2 -23 4 -57.5t-2 -53.5q-6 -43 -63 -43h-398q-14 27 -14 74z" />
<glyph unicode="&#xc3;" horiz-adv-x="522" d="M4 717q0 33 19 94q29 -10 80 -20.5t83 -10.5q61 0 96 19.5t35 66.5q0 35 -31.5 58.5t-97.5 23.5q-6 0 -26.5 -1t-42.5 -3l-27 109q104 18 147.5 40.5t43.5 63.5q0 35 -20.5 47.5t-55.5 12.5t-70 -16.5t-69 -16.5q-20 0 -32.5 21.5t-12.5 41.5v10q-6 12 -7 21 q0 6 16.5 20.5t47.5 27.5t73 23.5t95 10.5q45 0 84 -9.5t67.5 -28.5t46 -51t17.5 -77q0 -49 -25.5 -91t-81.5 -69q72 -18 104 -64t32 -112q0 -109 -80 -165t-201 -56q-117 0 -162 24.5t-45 55.5z" />
<glyph unicode="&#xc4;" horiz-adv-x="559" d="M12 868q0 33 15.5 77t54.5 128l123 262q10 23 47 23q27 0 46 -8.5t32.5 -19.5t19.5 -22.5t6 -15.5q0 -8 -8 -24l-174 -353q31 0 60.5 1.5t58.5 1.5q2 25 3 52t3 54q2 12 4 23.5t10.5 19.5t25.5 12t50 4q31 0 46.5 -13t15.5 -32q0 -29 -1 -58.5t-1 -59.5q25 2 46 1t52 3 q2 -20 3 -36t1 -28q0 -27 -5 -41t-17.5 -20t-32 -7t-47.5 -1v-67t4 -67q-18 -6 -44 -9t-49 -3q-41 0 -57 19.5t-16 52.5q0 18 1 36.5t1 37.5h-248q-16 12 -22.5 36.5t-6.5 40.5z" />
<glyph unicode="&#xc5;" horiz-adv-x="475" d="M5 731q5 35 15 76q18 -6 62.5 -17.5t87.5 -11.5q49 0 81 20t32 79q0 55 -26 76.5t-85 21.5q-20 0 -54 -4t-75 -13q0 25 -1 74t-2 100.5t-1 93.5v54q0 14 3 27.5t13 23.5q14 16 54 17h311q2 -16 4 -34t2 -32q0 -39 -18.5 -54.5t-57.5 -15.5q-29 0 -67.5 -1t-85.5 3 q-2 -35 -2 -59.5v-62.5q57 6 105 -2.5t83 -32t55.5 -65.5t20.5 -103q0 -127 -77 -189.5t-187 -62.5q-72 0 -119 15.5t-62 27.5q-14 16 -9 51z" />
<glyph unicode="&#xc6;" horiz-adv-x="532" d="M20 926q0 86 16.5 164.5t53.5 139t98.5 95.5t151.5 35q66 0 101.5 -11.5t45.5 -19.5q12 -10 15.5 -23.5t-0.5 -41.5q-8 -31 -18.5 -43.5t-26.5 -12.5q-33 0 -56.5 7.5t-58.5 7.5q-61 0 -100 -39t-56 -97l-14 -32l4 -2q25 29 60.5 43t64.5 14q45 0 84 -11.5t68.5 -38 t46 -68.5t16.5 -105q0 -131 -67.5 -190.5t-180.5 -59.5q-109 0 -178.5 68.5t-69.5 220.5zM195 877q0 -66 19 -89.5t54 -23.5q39 0 59.5 22.5t20.5 85.5q0 113 -78 113q-76 0 -75 -108z" />
<glyph unicode="&#xc7;" horiz-adv-x="471" d="M14 1268q0 35 10.5 57.5t38.5 22.5h379q12 -12 20.5 -33t8.5 -41q0 -10 -4 -28.5t-15.5 -52.5t-34 -87t-59.5 -135q-16 -35 -53 -118t-102 -220q-70 4 -109 21.5t-39 47.5q0 10 4 24.5t25.5 62t67 140.5t129.5 259l-218 -6q-25 0 -37 24.5t-12 61.5z" />
<glyph unicode="&#xc8;" horiz-adv-x="534" d="M12 819q0 63 34 108.5t93 76.5q-43 23 -75.5 63.5t-32.5 103.5q0 86 60 137.5t171 51.5q117 0 177.5 -50t60.5 -139q0 -53 -32 -92t-69 -57q59 -35 91 -82t32 -104q0 -104 -65.5 -151.5t-194.5 -47.5q-250 0 -250 182zM182 838q0 -78 80 -78q86 0 86 80q0 35 -25.5 62.5 t-66.5 45.5q-37 -20 -55.5 -50t-18.5 -60zM197 1157q0 -59 77 -90q25 14 44.5 37.5t19.5 58.5q0 41 -23.5 59.5t-52.5 18.5q-66 0 -65 -84z" />
<glyph unicode="&#xc9;" horiz-adv-x="532" d="M12 1108q0 133 69 192.5t179 59.5q113 0 179.5 -68.5t66.5 -222.5q0 -86 -14.5 -164t-48 -138t-92 -95t-146.5 -35q-66 0 -104 11t-48 20q-10 6 -12 21.5t-1 33.5t5 36.5t8 33.5q29 -8 56.5 -13.5t78.5 -5.5q63 0 100.5 38t57.5 97l12 33l-2 2q-27 -31 -64.5 -44 t-66.5 -13q-43 0 -82 11t-67.5 37t-46 67.5t-17.5 105.5zM182 1122q0 -113 78 -112q35 0 56.5 27.5t21.5 80.5q0 66 -22.5 89.5t-55.5 23.5q-37 0 -57.5 -21.5t-20.5 -87.5z" />
<glyph unicode="&#xca;" horiz-adv-x="544" d="M34 741q1 29 13 62q14 -6 36.5 -13.5t49.5 -13.5t55.5 -10t55.5 -4q119 0 118 80q0 47 -41.5 73.5t-101.5 49.5q-33 12 -64.5 27.5t-57 38t-42 53t-16.5 73.5t15.5 77t40 57.5t56 36.5t62.5 18l-2 81q0 23 10 33t62 10q31 0 28 -30l-4 -92q55 -2 103.5 -19.5t60.5 -28.5 q25 -20 -8 -96q-43 14 -86 26.5t-86 12.5q-119 0 -119 -78q0 -41 37 -62.5t94 -43.5q37 -14 72 -30.5t63.5 -40t46 -56.5t17.5 -78q0 -92 -51.5 -141t-143.5 -60v-127l-98 -4l4 127q-53 4 -103.5 20.5t-66.5 32.5q-10 10 -9 39z" />
<glyph unicode="&#xcb;" horiz-adv-x="468" d="M43 1069q0 74 17.5 124t45 82t59.5 48t60 23v84q0 16 13.5 25t60.5 9q27 0 27 -22v-94q35 -4 64.5 -15.5t39.5 -21.5q14 -10 15 -22.5t-17 -49.5q-16 4 -42 10t-62 6q-72 0 -111 -43t-39 -139t39 -137t111 -41q39 0 68.5 7t45.5 11q8 -23 9.5 -43t-7.5 -28 q-14 -12 -46 -22.5t-72 -14.5v-117l-103 -6l2 123q-29 6 -59.5 21.5t-57 46t-44 78.5t-17.5 118z" />
<glyph unicode="&#xcc;" horiz-adv-x="253" d="M41 784q0 35 24.5 52.5t90.5 17.5q25 0 41 -9t16 -42q0 -43 -4 -69.5t-14.5 -40t-29 -17.5t-48.5 -4q-47 0 -61.5 21t-14.5 91z" />
<glyph unicode="&#xcd;" horiz-adv-x="1345" d="M2 501.5q-2 10.5 4 28.5l150 459q4 12 8 20.5t14 13.5t30.5 7t57.5 2q25 0 36 -9t20 -30l149 -463q6 -18 3 -29.5t-9 -17.5l-6 -6t-10.5 -3t-23.5 -1t-44 2l-43 143h-207l-43 -143q-45 -4 -57.5 -1t-20.5 9q-6 8 -8 18.5zM152 698h167l-67 209l-16 60l-19 -60zM528 475 q2 72 2 132.5v107.5q0 27 -1 56.5t-1 66.5q0 23 9.5 33t56.5 10q27 0 27 -27q0 -8 -1.5 -19.5t-1.5 -21.5l3 -4q29 29 66.5 50.5t82.5 21.5q57 0 84 -36t27 -114q0 -72 -1 -115t-1 -69.5t1 -40.5t3 -27q-10 -2 -29 -3t-37 -1q-23 0 -29 14.5t-6 36.5v197q0 41 -14 56.5 t-41 15.5t-56.5 -16.5t-45.5 -33.5v-266q-6 0 -19.5 -1t-29 -1t-28.5 -1t-20 -1zM922 332.5q-2 9.5 8 44.5q12 0 24.5 -1t32.5 -1q29 0 48.5 20.5t37.5 75.5l-151 371q-10 23 5 31t60 8q27 0 33 -25l74 -217l22 -66l19 66l63 203q6 23 17.5 31t52.5 8q39 0 28 -39l-125 -357 q-18 -55 -36.5 -92t-39 -57.5t-42 -28.5t-47.5 -8q-57 0 -76 18q-6 6 -8 15.5z" />
<glyph unicode="&#xce;" horiz-adv-x="1333" d="M162 849q0 11 6 19q4 6 25.5 8.5t48.5 0.5v47q0 70 26.5 108.5t96.5 38.5q27 0 51 -6t35 -16q14 -12 0 -58q-14 2 -29.5 3t-28.5 1q-29 0 -43 -14t-14 -49v-58l108 3q4 -41 2 -52.5t-6 -17.5q-6 -6 -34.5 -7t-69.5 1v-189q0 -63 2 -133l-96 -4v326l-76 -2q-4 39 -4 50z M479 680q0 55 15.5 93t40 62.5t57.5 35t67 10.5q37 0 70 -10.5t57.5 -34t40 -62.5t15.5 -94q0 -111 -53.5 -158t-129.5 -47q-37 0 -69.5 10.5t-57 35t-39 63.5t-14.5 96zM575 678q0 -66 23 -95.5t61 -29.5q41 0 63.5 29.5t22.5 95.5q0 125 -83 125q-39 0 -63 -31t-24 -94z M926 475q2 86 2 146.5v103.5q0 27 -1 58.5t-1 54.5t9 33t54 10q29 0 29 -27q0 -10 -1 -20.5t-3 -20.5l4 -4q20 23 51 47.5t66 24.5q25 0 32 -27q4 -8 5 -19t-3 -44q-47 8 -82.5 -5.5t-64.5 -40.5v-266z" />
<glyph unicode="&#xcf;" horiz-adv-x="1001" d="M127 0q2 41 3 97.5t1 115.5q0 66 -1 153t-1 189q0 23 9 32t52 9q20 0 26.5 -7t6.5 -24q0 -20 -1 -96t-3 -203l-8 -18q2 0 2 -1t2 -1l154 143q6 6 12 11.5t16 5.5q12 0 33 -15.5t21 -25.5q0 -8 -13 -21l-12 -12q-20 -20 -40.5 -39t-43.5 -39q61 -98 92 -147.5t49 -77.5 q-23 -18 -36 -24.5t-29 -6.5q-25 0 -45 35l-11 18q-23 37 -44 74t-44 76l-53 -49q0 -47 -1 -96.5t-1 -53.5q-23 -2 -45 -2h-47zM516 197q0 104 49 155t117 51q31 0 54.5 -8t39.5 -18q10 27 68 26q20 0 25 -8t5 -22q0 -41 -1 -67.5t-1 -67.5q0 -51 1 -103.5t1 -122.5 q0 -104 -36.5 -145t-130.5 -41q-100 0 -133 15.5t-33 37.5q0 14 8 39q16 -4 53 -10t84 -6q39 0 64.5 16t25.5 59v13v59l8 19l-4 4q-18 -29 -52 -47.5t-79 -18.5q-27 0 -50.5 9.5t-41.5 31t-29.5 58t-11.5 92.5zM610 199q0 -35 7.5 -57.5t18.5 -35t24.5 -17.5t27.5 -5 q31 0 55.5 17.5t34.5 33.5v125q0 31 2 57q-12 4 -34.5 7.5t-38.5 3.5q-43 0 -70 -30t-27 -99z" />
<glyph unicode="&#xd0;" horiz-adv-x="1019" d="M127 190q0 98 45 155.5t137 57.5q70 0 113 -42t43 -142q0 -45 -41 -45h-203v-10q0 -41 27.5 -65.5t83.5 -24.5q37 0 65.5 6t44.5 10q6 -16 9.5 -25.5t3.5 -15.5q0 -14 -32 -31.5t-116 -17.5q-74 0 -127 44t-53 146zM223 233q39 0 77 1.5t77 1.5q0 94 -70 94 q-41 0 -60.5 -28t-23.5 -69zM532 193q0 55 14.5 95t38 65.5t53.5 37.5t62 12q31 0 56.5 -10t36.5 -16q4 16 19 21t46 5q18 0 24.5 -8t6.5 -22q0 -35 -1 -82t-1 -88v-83t1 -53.5t2 -35t3 -25.5q-16 -2 -30.5 -3t-33.5 -1q-23 0 -30.5 13.5t-7.5 35.5l8 17l-4 4 q-20 -29 -53 -50.5t-76 -21.5q-55 0 -94.5 46t-39.5 147zM629 199q0 -117 76 -117q23 0 48 17.5t40 39.5v76v64.5t2 37.5q-12 4 -32 7.5t-38 3.5q-41 0 -68.5 -29t-27.5 -100z" />
<glyph unicode="&#xd1;" horiz-adv-x="1396" d="M127 14q4 41 4 84v90q0 33 -1 83.5t-1 103.5v180q0 23 10.5 31t57.5 8q33 0 32.5 -34t-0.5 -128q0 -33 -2 -52.5t-8 -41.5q2 0 2 -1t2 -1q18 29 48 48t75 19q61 0 96 -51t35 -143q0 -111 -56 -161t-134 -50q-37 0 -78 4t-82 12zM223 80q16 -4 34 -5t32 -1q41 0 66.5 29.5 t25.5 101.5q0 59 -19.5 86.5t-54.5 27.5q-23 0 -44 -14t-36 -31q0 -37 -1 -71.5t-1 -63.5q-2 -33 -2 -59zM553 195q0 59 15.5 99t39 63.5t53 33.5t58.5 10q68 0 93.5 -18t25.5 -29q0 -14 -15 -43q-10 4 -29.5 9.5t-41.5 5.5q-101 0 -101 -129q0 -121 101 -121q27 0 46 5 t31 9q4 -16 7.5 -26.5t3.5 -16.5q0 -16 -27 -32.5t-98 -16.5q-72 0 -117 50t-45 147zM915 0q2 72 2.5 131.5t0.5 106.5v64.5t-1.5 84.5t-1.5 90v78q0 20 10.5 30.5t57.5 10.5q29 0 29 -29v-33.5t-1 -61.5t-1 -67.5v-52.5l-6 -16l4 -4q27 29 65.5 50t83.5 21q57 0 84 -35.5 t27 -113.5q0 -82 -1 -127t-1 -72q0 -18 1 -30.5t3 -22.5q-10 -2 -27.5 -2h-36.5q-23 0 -30 13.5t-7 35.5v197q0 72 -55 71q-27 0 -56.5 -16t-45.5 -33v-266q-27 -2 -49.5 -2h-47.5z" />
<glyph unicode="&#xd2;" horiz-adv-x="1443" d="M127 14q4 41 4 84v90q0 33 -1 83.5t-1 103.5v180q0 23 10.5 31t57.5 8q33 0 32.5 -34t-0.5 -128q0 -33 -2 -52.5t-8 -41.5q2 0 2 -1t2 -1q18 29 48 48t75 19q61 0 96 -51t35 -143q0 -111 -56 -161t-134 -50q-37 0 -78 4t-82 12zM223 80q16 -4 34 -5t32 -1q41 0 66.5 29.5 t25.5 101.5q0 59 -19.5 86.5t-54.5 27.5q-23 0 -44 -14t-36 -31q0 -37 -1 -71.5t-1 -63.5q-2 -33 -2 -59zM553 203q0 55 15.5 93t41 62.5t58 34.5t67.5 10q37 0 70 -10t57.5 -33.5t40 -62.5t15.5 -94q0 -111 -53.5 -158t-129.5 -47q-37 0 -69.5 10t-58 35t-40 63.5 t-14.5 96.5zM651 201q0 -66 22.5 -95.5t59.5 -29.5q41 0 63.5 29.5t22.5 95.5q0 125 -84 125q-37 0 -60.5 -31t-23.5 -94zM958 41q0 2 5 10l116 152q-41 53 -66.5 86.5t-54.5 66.5q16 20 32 30.5t34 10.5q14 0 29.5 -14t30 -34.5t28.5 -44t27 -42.5q10 16 24.5 39t28.5 44.5 t26.5 35.5t20.5 14q23 0 43.5 -16.5t20.5 -26.5q0 -6 -7 -14l-108 -131q37 -47 58.5 -76t35.5 -46t20.5 -26.5t12.5 -15.5q-14 -18 -28.5 -30.5t-37.5 -12.5q-18 0 -30.5 11.5t-20.5 27.5l-68 106l-88 -133q-10 -12 -20 -12q-12 0 -38 14.5t-26 26.5z" />
<glyph unicode="&#xd3;" horiz-adv-x="1306" d="M127 195q0 59 15.5 99t39 63.5t53 33.5t60.5 10q47 0 73.5 -10t37.5 -20q6 -6 7 -17.5t-14 -42.5q-10 4 -30.5 9.5t-42.5 5.5q-99 0 -99 -129q0 -121 101 -121q25 0 44 5t34 9q10 -35 10 -44t-10 -19q-12 -10 -40 -19.5t-75 -9.5q-74 0 -119 50t-45 147zM463 375 q2 10 8 16q4 6 24.5 8t47.5 0l8 76q4 20 21.5 28.5t31.5 8.5q35 0 35 -25v-92q6 0 21.5 1t34 1t33.5 1t22 1q4 -41 3 -51t-8 -18q-6 -6 -34.5 -7t-71.5 1l-2 -189q0 -35 16.5 -48t55.5 -13q8 0 20 1t23 3q6 -33 3 -43t-10 -19q-23 -18 -90 -18q-45 0 -78.5 24.5t-33.5 90.5 l2 211q-10 0 -39 -1t-39 -1q-6 43 -4 53zM823 -2q2 72 2 132v108q0 27 -1 56.5t-1 65.5q0 23 10.5 33t57.5 10q25 0 24 -26q0 -8 -1 -19.5t-1 -21.5l5 -4q27 29 65.5 50t81.5 21q59 0 85 -35.5t26 -113.5v-115v-69.5v-41t2 -26.5q-10 -2 -29 -3t-37 -1q-23 0 -28 14.5 t-5 36.5v197q0 41 -14 56t-43 15q-25 0 -54.5 -16t-47.5 -33v-266q-6 0 -19.5 -1t-29 -1t-29 -1t-19.5 -1z" />
<glyph unicode="&#xd4;" horiz-adv-x="1476" d="M127 14q4 41 4 84v90q0 33 -1 83.5t-1 103.5v180q0 23 10.5 31t57.5 8q33 0 32.5 -34t-0.5 -128q0 -33 -2 -52.5t-8 -41.5q2 0 2 -1t2 -1q18 29 48 48t75 19q61 0 96 -51t35 -143q0 -111 -56 -161t-134 -50q-37 0 -78 4t-82 12zM223 80q16 -4 34 -5t32 -1q41 0 66.5 29.5 t25.5 101.5q0 59 -19.5 86.5t-54.5 27.5q-23 0 -44 -14t-36 -31q0 -37 -1 -71.5t-1 -63.5q-2 -33 -2 -59zM553 193q0 55 14.5 95t38 65.5t53 37.5t62.5 12q31 0 56.5 -10t35.5 -16q4 16 19.5 21t46.5 5q18 0 24 -8t6 -22q0 -35 -1 -82t-1 -88v-83t1 -53.5t2 -35t3 -25.5 q-16 -2 -30.5 -3t-32.5 -1q-23 0 -31 13.5t-8 35.5l8 17l-4 4q-20 -29 -53 -50.5t-76 -21.5q-55 0 -94 46t-39 147zM649 199q0 -117 76 -117q23 0 48.5 17.5t39.5 39.5v76v64.5t2 37.5q-12 4 -32 7.5t-38 3.5q-41 0 -68.5 -29t-27.5 -100zM991 197q0 104 49.5 155t116.5 51 q31 0 54.5 -8t39.5 -18q10 27 68 26q20 0 25.5 -8t5.5 -22q0 -41 -1 -67.5t-1 -67.5q0 -51 1 -103.5t1 -122.5q0 -104 -37 -145t-131 -41q-100 0 -133 15.5t-33 37.5q0 14 8 39q16 -4 53 -10t84 -6q39 0 64.5 16t25.5 59v13v59l9 19l-5 4q-18 -29 -52 -47.5t-79 -18.5 q-27 0 -50 9.5t-41.5 31t-30 58t-11.5 92.5zM1085 199q0 -35 7.5 -57.5t18.5 -35t24.5 -17.5t27.5 -5q31 0 55.5 17.5t34.5 33.5v125q0 31 2 57q-12 4 -34.5 7.5t-38.5 3.5q-43 0 -70 -30t-27 -99z" />
<glyph unicode="&#xd5;" horiz-adv-x="1699" d="M129 348v19q0 20 10.5 26t44.5 6h25l8 76q4 20 21.5 28.5t31.5 8.5q35 0 35 -25v-92l111 4q2 -16 3 -26.5t1 -18.5q0 -20 -9.5 -26t-54.5 -6q-10 0 -23.5 1t-27.5 1q0 -47 -1 -94.5t-1 -94.5q0 -35 16.5 -48t55.5 -13q8 0 20.5 1t22.5 3q2 -10 3 -18.5t1 -14.5 q0 -27 -21.5 -37t-78.5 -10q-45 0 -79 24.5t-34 90.5q0 53 1 105t1 106q-18 0 -38.5 -1t-39.5 -1q-4 16 -4 26zM492 -2q2 86 2 146.5v103.5q0 27 -1 58.5t-1 53.5q0 23 9 33t54 10q29 0 29 -26q0 -10 -1 -20.5t-3 -20.5l4 -4q20 23 51 47t65 24q39 0 39 -49q0 -8 -1 -17.5 t-3 -23.5q-10 2 -17 2h-16q-35 0 -62.5 -12t-51.5 -35v-266zM770 193q0 113 51 161.5t115 48.5q33 0 58.5 -10t35.5 -16q4 16 19.5 21t46.5 5q18 0 23 -8t5 -22q0 -35 -1 -82t-1 -88v-83t1 -53.5t2 -35t3 -25.5q-14 -2 -28.5 -3t-34.5 -1q-23 0 -30 13.5t-7 35.5l8 17l-4 4 q-20 -29 -53 -50.5t-76 -21.5q-57 0 -95 46t-38 147zM866 199q0 -59 19.5 -88t54.5 -29q25 0 50.5 17.5t39.5 39.5v76v64.5t2 37.5q-30 11 -71 11q-39 0 -67 -29t-28 -100zM1190 381q0 23 67 22q16 0 23.5 -7t11.5 -17l94 -283l82 269q6 23 18.5 30.5t53.5 7.5q31 0 31 -22 q0 -4 -4 -16q-31 -90 -62.5 -178.5t-62.5 -178.5q-20 -55 -39 -92t-38 -57.5t-40.5 -28.5t-48.5 -8q-37 0 -60.5 9t-23.5 30q0 16 8 41q14 -2 25.5 -3t31.5 -1q29 0 49.5 21.5t36.5 76.5l-149 369q-4 6 -4 16z" />
<glyph unicode="&#xd6;" horiz-adv-x="1187" />
<glyph unicode="&#xd7;" horiz-adv-x="1169" d="M61 47v662q0 18 14.5 32.5t33.5 14.5h88v194q0 82 30.5 154t84 125t124 83.5t150.5 30.5t149.5 -30.5t121.5 -83.5t83 -125t31 -154v-194h86q20 0 35.5 -14.5t15.5 -32.5v-662q0 -18 -15.5 -32.5t-35.5 -14.5h-948q-18 0 -33 14.5t-15 32.5zM365 752h444v194 q0 47 -17.5 88t-47 72t-70.5 48t-88 17q-45 0 -85 -17t-71 -48t-48 -72t-17 -88v-194z" />
<glyph unicode="&#xd8;" horiz-adv-x="1357" d="M74 690q0 190 41 325.5t118.5 220.5t190.5 124t254 39q156 0 270 -45l101 159q8 12 16 19.5t22.5 7.5t35 -8t53.5 -27q51 -31 59 -53t-8 -47l-105 -168q78 -86 120 -220t42 -327q0 -190 -41 -324.5t-118.5 -219.5t-190.5 -123.5t-256 -38.5q-154 0 -268 45l-95 -158 q-8 -12 -17 -19.5t-22.5 -7.5t-35 8.5t-54.5 28.5q-49 29 -57 51.5t8 49.5l96 163q-78 86 -118.5 219.5t-40.5 325.5zM408 690q0 -59 7 -121.5t23 -99.5l371 647q-27 16 -61.5 25.5t-69.5 9.5q-61 0 -111.5 -24.5t-85.5 -80t-54 -143.5t-19 -213zM549 266q53 -35 129 -35 q127 0 199.5 105.5t72.5 353.5q0 59 -8 123t-24 100z" />
<glyph unicode="&#xd9;" horiz-adv-x="1388" d="M125 1282q0 31 8 51.5t32.5 33.5t71 18.5t123.5 5.5q53 0 79 -15.5t26 -66.5v-84.5t-1 -133t-2 -160.5t-2 -164t-1 -146.5v-106.5q0 -150 56 -215.5t177 -65.5q119 0 177.5 65.5t58.5 215.5v108.5t-1 146.5t-1 161t-1 153.5t-1 125v73.5q0 31 7 51.5t31.5 33.5t70.5 18.5 t124 5.5q53 0 80 -15.5t27 -66.5q0 -39 -1 -101.5t-2 -161t-2.5 -238.5t-1.5 -335q0 -125 -41.5 -216t-116.5 -150.5t-178.5 -88t-228.5 -28.5t-228.5 28.5t-178 89t-116.5 151.5t-42 214q0 346 -1 547t-1 262zM401 1604q39 57 68.5 92t52 54t41 25.5t35.5 6.5q23 0 45 -7.5 t54 -26.5t81 -56t123 -97q-53 -86 -90 -111.5t-78 -25.5q-16 0 -34.5 4t-54.5 18.5t-93.5 44t-149.5 79.5z" />
<glyph unicode="&#xda;" horiz-adv-x="1388" d="M125 1282q0 31 8 51.5t32.5 33.5t71 18.5t123.5 5.5q53 0 79 -15.5t26 -66.5v-84.5t-1 -133t-2 -160.5t-2 -164t-1 -146.5v-106.5q0 -150 56 -215.5t177 -65.5q119 0 177.5 65.5t58.5 215.5v108.5t-1 146.5t-1 161t-1 153.5t-1 125v73.5q0 31 7 51.5t31.5 33.5t70.5 18.5 t124 5.5q53 0 80 -15.5t27 -66.5q0 -39 -1 -101.5t-2 -161t-2.5 -238.5t-1.5 -335q0 -125 -41.5 -216t-116.5 -150.5t-178.5 -88t-228.5 -28.5t-228.5 28.5t-178 89t-116.5 151.5t-42 214q0 346 -1 547t-1 262zM565 1595q76 59 124 96.5t81 56.5t54.5 26.5t43.5 7.5 q35 0 83 -42t114 -136q-92 -49 -149.5 -79t-93.5 -44.5t-56.5 -18.5t-38.5 -4q-16 0 -32.5 5t-36 20.5t-42 42t-51.5 69.5z" />
<glyph unicode="&#xdb;" horiz-adv-x="1388" d="M125 1282q0 31 8 51.5t32.5 33.5t71 18.5t123.5 5.5q53 0 79 -15.5t26 -66.5v-84.5t-1 -133t-2 -160.5t-2 -164t-1 -146.5v-106.5q0 -150 56 -215.5t177 -65.5q119 0 177.5 65.5t58.5 215.5v108.5t-1 146.5t-1 161t-1 153.5t-1 125v73.5q0 31 7 51.5t31.5 33.5t70.5 18.5 t124 5.5q53 0 80 -15.5t27 -66.5q0 -39 -1 -101.5t-2 -161t-2.5 -238.5t-1.5 -335q0 -125 -41.5 -216t-116.5 -150.5t-178.5 -88t-228.5 -28.5t-228.5 28.5t-178 89t-116.5 151.5t-42 214q0 346 -1 547t-1 262zM471 1550q0 23 10.5 40.5t28.5 37.5q70 78 117 115t106 37 q31 0 55.5 -9.5t50 -28t54.5 -47t63 -67.5q18 -20 27.5 -37.5t9.5 -40.5q0 -31 -22.5 -58.5t-67.5 -33.5l-170 82l-172 -82q-43 6 -66.5 34t-23.5 58z" />
<glyph unicode="&#xdc;" horiz-adv-x="1388" d="M125 1282q0 31 8 51.5t32.5 33.5t71 18.5t123.5 5.5q53 0 79 -15.5t26 -66.5v-84.5t-1 -133t-2 -160.5t-2 -164t-1 -146.5v-106.5q0 -150 56 -215.5t177 -65.5q119 0 177.5 65.5t58.5 215.5v108.5t-1 146.5t-1 161t-1 153.5t-1 125v73.5q0 31 7 51.5t31.5 33.5t70.5 18.5 t124 5.5q53 0 80 -15.5t27 -66.5q0 -39 -1 -101.5t-2 -161t-2.5 -238.5t-1.5 -335q0 -125 -41.5 -216t-116.5 -150.5t-178.5 -88t-228.5 -28.5t-228.5 28.5t-178 89t-116.5 151.5t-42 214q0 346 -1 547t-1 262zM375 1661q0 61 43 91t160 30q53 0 77.5 -16.5t24.5 -75.5 q0 -76 -7 -121t-27.5 -69.5t-54.5 -33t-87 -8.5q-37 0 -61.5 8.5t-40 30t-21.5 61.5t-6 103zM772 1661q0 61 43 91t160 30q51 0 77 -16.5t26 -75.5q0 -76 -8.5 -121t-28 -69.5t-54 -33t-86.5 -8.5q-37 0 -61.5 8.5t-39.5 30t-21.5 61.5t-6.5 103z" />
<glyph unicode="&#xdd;" horiz-adv-x="1144" d="M20.5 1308.5q-2.5 30.5 20 49t74 26t137.5 7.5q39 0 61.5 -4.5t37 -16.5t22.5 -33.5t18 -54.5l203 -592l225 604q12 33 25.5 52.5t40 28.5t69.5 12.5t113 3.5q41 0 63.5 -28t-2.5 -83l-385 -848q-2 -84 -2 -161.5t-2 -137.5q-2 -70 -2 -133l-336 -10q0 41 2 104 q2 53 2.5 137t2.5 201l-365 801q-20 45 -22.5 75.5zM403 1595q76 59 124 96.5t81 56.5t54.5 26.5t43.5 7.5q35 0 83 -42t114 -136q-92 -49 -149.5 -79t-93.5 -44.5t-56.5 -18.5t-38.5 -4q-16 0 -32.5 5t-36 20.5t-42 42t-51.5 69.5z" />
<glyph unicode="&#xde;" horiz-adv-x="1171" d="M125 -10q0 152 2 295q0 123 1 250t1 213q0 115 -1 197.5t-1 143t-1 106.5t-1 87q0 31 8 51.5t32.5 33.5t72 18.5t124.5 5.5q53 0 80 -16.5t25 -65.5l-2 -150q27 4 58.5 6t66.5 2q117 0 213 -27.5t165.5 -85t108.5 -146.5t39 -212t-38 -209t-103.5 -141t-157.5 -80.5 t-199 -25.5q-33 0 -77.5 5t-79.5 11v-256zM461 487q23 -4 47 -6t57 -2q41 0 78 10.5t65.5 37t46 69.5t17.5 111q0 63 -17.5 105t-46 66.5t-66.5 34t-79 9.5q-82 0 -102 -7v-428z" />
<glyph unicode="&#xdf;" horiz-adv-x="1169" d="M96 -10q0 59 1 188t1 369v105.5t-1 103.5t-1 90v63q0 129 27 236.5t87 183.5t156.5 118t235.5 42q145 0 239.5 -48t140.5 -132t45 -196t-44 -236q-74 -41 -105.5 -79t-31.5 -89q0 -35 20.5 -60.5t52 -49.5t67.5 -50.5t67.5 -62t52 -83t20.5 -114.5q0 -76 -25.5 -133.5 t-71.5 -95t-108.5 -57t-136.5 -19.5q-86 0 -154.5 20.5t-101.5 48.5q-10 8 -16 20.5t-7 33t5 51t18 78.5q27 -4 82.5 -15.5t100.5 -11.5q100 0 100 82q0 51 -44 89t-97.5 81t-97.5 99t-44 147q0 90 45 155.5t150 124.5q23 45 28 93t-8.5 88t-46 67t-84.5 27 q-201 0 -200 -336v-926z" />
<glyph unicode="&#xe0;" d="M57 473q0 141 38 241.5t100.5 166t145.5 96.5t173 31q78 0 138.5 -22.5t82.5 -39.5q16 35 68.5 48.5t136.5 13.5q57 0 77.5 -20.5t20.5 -59.5q0 -18 -1 -65.5t-2 -108t-2 -128t-1 -126.5v-212t2 -136.5t5 -86t10 -65.5q-18 -4 -47 -6t-60 -3t-61.5 -2t-55.5 -1 q-57 0 -84.5 33.5t-23.5 89.5l18 45l-6 6q-49 -72 -127 -125t-188 -53q-170 0 -263.5 117.5t-93.5 371.5zM356 1372q94 53 140 68.5t81 15.5q23 0 42.5 -8t44 -39t59 -90t88.5 -160q-66 -41 -99.5 -52t-66.5 -11q-20 0 -41 8t-51.5 35.5t-76.5 83t-120 149.5zM385 487 q0 -145 42 -203.5t108 -58.5q27 0 53 12.5t51 31t44 39t32 36.5q-2 66 -1 133.5t2 126t3 103.5t4 63q-59 18 -141 18q-47 0 -83 -14t-61.5 -48t-39 -92.5t-13.5 -146.5z" />
<glyph unicode="&#xe1;" d="M57 473q0 141 38 241.5t100.5 166t145.5 96.5t173 31q78 0 138.5 -22.5t82.5 -39.5q16 35 68.5 48.5t136.5 13.5q57 0 77.5 -20.5t20.5 -59.5q0 -18 -1 -65.5t-2 -108t-2 -128t-1 -126.5v-212t2 -136.5t5 -86t10 -65.5q-18 -4 -47 -6t-60 -3t-61.5 -2t-55.5 -1 q-57 0 -84.5 33.5t-23.5 89.5l18 45l-6 6q-49 -72 -127 -125t-188 -53q-170 0 -263.5 117.5t-93.5 371.5zM385 487q0 -145 42 -203.5t108 -58.5q27 0 53 12.5t51 31t44 39t32 36.5q-2 66 -1 133.5t2 126t3 103.5t4 63q-59 18 -141 18q-47 0 -83 -14t-61.5 -48t-39 -92.5 t-13.5 -146.5zM422 1159q53 100 87 159.5t58.5 90.5t44 39t44.5 8q33 0 78.5 -15.5t142.5 -68.5q-74 -94 -120 -149.5t-77 -83t-51.5 -35.5t-40.5 -8q-16 0 -32.5 2t-35 9t-42 19.5t-56.5 32.5z" />
<glyph unicode="&#xe2;" d="M57 473q0 141 38 241.5t100.5 166t145.5 96.5t173 31q78 0 138.5 -22.5t82.5 -39.5q16 35 68.5 48.5t136.5 13.5q57 0 77.5 -20.5t20.5 -59.5q0 -18 -1 -65.5t-2 -108t-2 -128t-1 -126.5v-212t2 -136.5t5 -86t10 -65.5q-18 -4 -47 -6t-60 -3t-61.5 -2t-55.5 -1 q-57 0 -84.5 33.5t-23.5 89.5l18 45l-6 6q-49 -72 -127 -125t-188 -53q-170 0 -263.5 117.5t-93.5 371.5zM352 1167q0 31 29 74q23 33 46 67.5t51 64.5t60.5 48.5t75.5 18.5q41 0 74 -18.5t60.5 -48.5t51 -65.5t48.5 -68.5q16 -23 21 -39t5 -33q0 -29 -18.5 -49t-67.5 -31 l-174 144l-174 -144q-51 10 -69.5 31t-18.5 49zM385 487q0 -145 42 -203.5t108 -58.5q27 0 53 12.5t51 31t44 39t32 36.5q-2 66 -1 133.5t2 126t3 103.5t4 63q-59 18 -141 18q-47 0 -83 -14t-61.5 -48t-39 -92.5t-13.5 -146.5z" />
<glyph unicode="&#xe3;" d="M57 473q0 141 38 241.5t100.5 166t145.5 96.5t173 31q78 0 138.5 -22.5t82.5 -39.5q16 35 68.5 48.5t136.5 13.5q57 0 77.5 -20.5t20.5 -59.5q0 -18 -1 -65.5t-2 -108t-2 -128t-1 -126.5v-212t2 -136.5t5 -86t10 -65.5q-18 -4 -47 -6t-60 -3t-61.5 -2t-55.5 -1 q-57 0 -84.5 33.5t-23.5 89.5l18 45l-6 6q-49 -72 -127 -125t-188 -53q-170 0 -263.5 117.5t-93.5 371.5zM260 1255q0 94 41 128t96 34q43 0 82 -11t73 -24.5t63.5 -24.5t52.5 -11q31 0 40 20t5 59q113 23 162 -14t49 -141q0 -47 -11.5 -79t-30 -50.5t-43 -25.5t-51.5 -7 q-43 0 -82.5 11t-74.5 24.5t-65 25t-50 11.5q-31 0 -40 -20.5t-5 -59.5q-111 -23 -161 14t-50 141zM385 487q0 -145 42 -203.5t108 -58.5q27 0 53 12.5t51 31t44 39t32 36.5q-2 66 -1 133.5t2 126t3 103.5t4 63q-59 18 -141 18q-47 0 -83 -14t-61.5 -48t-39 -92.5 t-13.5 -146.5z" />
<glyph unicode="&#xe4;" d="M57 473q0 141 38 241.5t100.5 166t145.5 96.5t173 31q78 0 138.5 -22.5t82.5 -39.5q16 35 68.5 48.5t136.5 13.5q57 0 77.5 -20.5t20.5 -59.5q0 -18 -1 -65.5t-2 -108t-2 -128t-1 -126.5v-212t2 -136.5t5 -86t10 -65.5q-18 -4 -47 -6t-60 -3t-61.5 -2t-55.5 -1 q-57 0 -84.5 33.5t-23.5 89.5l18 45l-6 6q-49 -72 -127 -125t-188 -53q-170 0 -263.5 117.5t-93.5 371.5zM246 1311q0 59 43 90t160 31q53 0 77.5 -17.5t24.5 -77.5q0 -76 -7 -121t-27.5 -69.5t-54.5 -31.5t-87 -7q-37 0 -61.5 7t-40 29.5t-21.5 61.5t-6 105zM385 487 q0 -145 42 -203.5t108 -58.5q27 0 53 12.5t51 31t44 39t32 36.5q-2 66 -1 133.5t2 126t3 103.5t4 63q-59 18 -141 18q-47 0 -83 -14t-61.5 -48t-39 -92.5t-13.5 -146.5zM643 1311q0 59 43 90t160 31q51 0 77 -17.5t26 -77.5q0 -76 -8.5 -121t-28 -69.5t-54 -31.5t-86.5 -7 q-37 0 -61.5 7t-39.5 29.5t-21.5 61.5t-6.5 105z" />
<glyph unicode="&#xe5;" d="M57 473q0 141 38 241.5t100.5 166t145.5 96.5t173 31q78 0 138.5 -22.5t82.5 -39.5q16 35 68.5 48.5t136.5 13.5q57 0 77.5 -20.5t20.5 -59.5q0 -18 -1 -65.5t-2 -108t-2 -128t-1 -126.5v-212t2 -136.5t5 -86t10 -65.5q-18 -4 -47 -6t-60 -3t-61.5 -2t-55.5 -1 q-57 0 -84.5 33.5t-23.5 89.5l18 45l-6 6q-49 -72 -127 -125t-188 -53q-170 0 -263.5 117.5t-93.5 371.5zM330 1303q0 66 21.5 110.5t57.5 72t84 40t103 12.5q57 0 106.5 -12.5t84.5 -40t55.5 -72t20.5 -110.5q0 -68 -19.5 -113t-55.5 -72.5t-85 -39t-107 -11.5 q-55 0 -103 11.5t-84 39t-57.5 72.5t-21.5 113zM385 487q0 -145 42 -203.5t108 -58.5q27 0 53 12.5t51 31t44 39t32 36.5q-2 66 -1 133.5t2 126t3 103.5t4 63q-59 18 -141 18q-47 0 -83 -14t-61.5 -48t-39 -92.5t-13.5 -146.5zM516 1303q0 -49 24 -70t56 -21q35 0 57.5 21 t22.5 70q0 53 -22.5 71.5t-57.5 18.5q-33 0 -56.5 -18.5t-23.5 -71.5z" />
<glyph unicode="&#xe6;" horiz-adv-x="1730" d="M57 473q0 141 38 241.5t100.5 166t145.5 96.5t173 31q78 0 138.5 -22.5t82.5 -39.5q16 35 68.5 48.5t136.5 13.5q53 0 73.5 -17.5t24.5 -52.5q49 33 106 51.5t116 18.5q96 0 172.5 -26t131 -82t83 -144t28.5 -211q0 -57 -27.5 -83t-91.5 -26h-524q-8 -119 51.5 -170 t194.5 -51q111 0 200 17.5t128 25.5q14 -49 21 -80t6 -49t-7 -29.5t-16 -21.5q-33 -31 -134.5 -59.5t-254.5 -28.5q-154 0 -262.5 48t-170.5 159q-72 -104 -158.5 -158.5t-205.5 -54.5q-178 0 -272.5 117.5t-94.5 371.5zM385 487q0 -145 42 -203.5t108 -58.5q27 0 53 12.5 t51 31t44 39t32 36.5q-2 66 -1 133.5t2 126t3 103.5t4 63q-59 18 -141 18q-47 0 -83 -14t-61.5 -48t-39 -92.5t-13.5 -146.5zM1036 590l332 2q4 104 -37 150t-106 46q-84 0 -133.5 -56t-55.5 -142z" />
<glyph unicode="&#xe7;" horiz-adv-x="837" d="M55 483q0 147 37 247.5t98.5 162t141.5 88.5t168 27q106 0 174.5 -28t97.5 -52q8 -10 14.5 -20.5t5.5 -28t-8.5 -46t-25.5 -75.5q-23 4 -64 13t-94 9q-104 0 -160.5 -67.5t-54.5 -223.5q0 -154 53.5 -217t151.5 -63q68 0 113 9t71 18q14 -47 20.5 -76t5.5 -47.5 t-7.5 -28.5t-18.5 -23q-29 -29 -98.5 -53t-194.5 -24q-90 0 -167.5 28.5t-135 89t-90.5 154.5t-33 227zM331 -329.5q-5 22.5 5 89.5q23 -2 46.5 1t35.5 18q14 16 14.5 42.5t-10.5 88.5h180q10 -23 20.5 -60.5t10.5 -82.5q0 -84 -52 -123t-124 -39q-53 0 -77.5 12t-33.5 23 q-10 8 -15 30.5z" />
<glyph unicode="&#xe8;" horiz-adv-x="1089" d="M55 471q0 133 37 233.5t105.5 168t165 101.5t217.5 34q221 0 337.5 -107.5t116.5 -355.5q0 -57 -27.5 -83t-91.5 -26h-532q-8 -119 54.5 -170t197.5 -51q111 0 201 17.5t129 25.5q14 -49 21 -80t6 -49t-7 -29.5t-16 -21.5q-33 -31 -135.5 -59.5t-255.5 -28.5 q-111 0 -207.5 26.5t-166 84t-109.5 149.5t-40 221zM338 1372q94 53 140 68.5t81 15.5q23 0 42.5 -8t44 -39t59 -90t88.5 -160q-66 -41 -99.5 -52t-66.5 -11q-20 0 -41 8t-51.5 35.5t-76.5 83t-120 149.5zM387 590l340 2q4 104 -39 150t-108 46q-84 0 -135.5 -56t-57.5 -142 z" />
<glyph unicode="&#xe9;" horiz-adv-x="1089" d="M55 471q0 133 37 233.5t105.5 168t165 101.5t217.5 34q221 0 337.5 -107.5t116.5 -355.5q0 -57 -27.5 -83t-91.5 -26h-532q-8 -119 54.5 -170t197.5 -51q111 0 201 17.5t129 25.5q14 -49 21 -80t6 -49t-7 -29.5t-16 -21.5q-33 -31 -135.5 -59.5t-255.5 -28.5 q-111 0 -207.5 26.5t-166 84t-109.5 149.5t-40 221zM387 590l340 2q4 104 -39 150t-108 46q-84 0 -135.5 -56t-57.5 -142zM481 1159q53 100 87 159.5t58.5 90.5t44 39t44.5 8q33 0 78.5 -15.5t142.5 -68.5q-74 -94 -120 -149.5t-77 -83t-51.5 -35.5t-40.5 -8q-16 0 -32.5 2 t-35 9t-42 19.5t-56.5 32.5z" />
<glyph unicode="&#xea;" horiz-adv-x="1089" d="M55 471q0 133 37 233.5t105.5 168t165 101.5t217.5 34q221 0 337.5 -107.5t116.5 -355.5q0 -57 -27.5 -83t-91.5 -26h-532q-8 -119 54.5 -170t197.5 -51q111 0 201 17.5t129 25.5q14 -49 21 -80t6 -49t-7 -29.5t-16 -21.5q-33 -31 -135.5 -59.5t-255.5 -28.5 q-111 0 -207.5 26.5t-166 84t-109.5 149.5t-40 221zM352 1167q0 31 29 74q23 33 46 67.5t51 64.5t60.5 48.5t75.5 18.5q41 0 74 -18.5t60.5 -48.5t51 -65.5t48.5 -68.5q16 -23 21 -39t5 -33q0 -29 -18.5 -49t-67.5 -31l-174 144l-174 -144q-51 10 -69.5 31t-18.5 49z M387 590l340 2q4 104 -39 150t-108 46q-84 0 -135.5 -56t-57.5 -142z" />
<glyph unicode="&#xeb;" horiz-adv-x="1089" d="M55 471q0 133 37 233.5t105.5 168t165 101.5t217.5 34q221 0 337.5 -107.5t116.5 -355.5q0 -57 -27.5 -83t-91.5 -26h-532q-8 -119 54.5 -170t197.5 -51q111 0 201 17.5t129 25.5q14 -49 21 -80t6 -49t-7 -29.5t-16 -21.5q-33 -31 -135.5 -59.5t-255.5 -28.5 q-111 0 -207.5 26.5t-166 84t-109.5 149.5t-40 221zM270 1311q0 59 43 90t160 31q53 0 77.5 -17.5t24.5 -77.5q0 -76 -7 -121t-27.5 -69.5t-54.5 -31.5t-87 -7q-37 0 -61.5 7t-40 29.5t-21.5 61.5t-6 105zM387 590l340 2q4 104 -39 150t-108 46q-84 0 -135.5 -56t-57.5 -142 zM667 1311q0 59 43 90t160 31q51 0 77 -17.5t26 -77.5q0 -76 -8.5 -121t-28 -69.5t-54 -31.5t-86.5 -7q-37 0 -61.5 7t-39.5 29.5t-21.5 61.5t-6.5 105z" />
<glyph unicode="&#xec;" horiz-adv-x="1101" d="M129 0q2 78 2 136.5v103.5q0 29 -1 57.5t-1 64.5q0 20 9 30.5t57 10.5q14 0 20 -7t6 -17v-19.5t-4 -23.5l4 -4q27 29 61.5 50t75.5 21q78 0 97 -77q29 35 65.5 56t77.5 21q109 0 109 -145q0 -84 -1 -129t-1 -72q0 -20 1 -32.5t3 -22.5q-10 -2 -23.5 -2h-30.5 q-29 0 -38 11.5t-9 37.5v197q0 39 -14 54t-39 15q-20 0 -47 -12t-45 -35v-266q-25 -2 -46.5 -2h-45.5v252q0 41 -16.5 53t-39.5 12q-20 0 -46.5 -15t-43.5 -34v-266q-27 -2 -49 -2h-47zM811 100v15v442q0 20 10 29.5t51 9.5q23 0 29 -7t6 -22q2 -39 0 -107.5t-2 -162.5v-195 q0 -20 9.5 -25t27.5 -5q17 0 25 2q6 -25 6 -37q0 -25 -18.5 -32t-59.5 -7q-47 0 -65.5 25.5t-18.5 76.5z" />
<glyph unicode="&#xed;" horiz-adv-x="614" d="M127 197q0 104 49 155t119 51q29 0 53.5 -8t40.5 -18q10 27 68 26q20 0 24 -8t4 -22q0 -41 -1 -67.5t-1 -67.5q0 -51 1 -103.5t1 -122.5q0 -104 -35.5 -146t-130.5 -42q-72 0 -109.5 10t-49.5 23q-4 6 -6 17t6 42q16 -4 54 -10t83 -6q41 0 68.5 19.5t23.5 70.5v59l8 19 l-4 4q-20 -29 -54 -47.5t-79 -18.5q-25 0 -49.5 9.5t-42.5 31t-29.5 58t-11.5 92.5zM221 199q0 -35 7.5 -57.5t18.5 -35t24.5 -17.5t27.5 -5q33 0 56.5 17.5t35.5 33.5v125q0 31 2 57q-12 4 -36 7.5t-38 3.5q-45 0 -71.5 -30t-26.5 -99z" />
<glyph unicode="&#xee;" horiz-adv-x="419" d="M129 100v15v442q0 20 10.5 29.5t50.5 9.5q23 0 29 -7t6 -22q2 -39 0 -107.5t-2 -162.5v-195q0 -20 9.5 -25t27.5 -5q17 0 25 2q6 -25 6 -37q0 -25 -18.5 -32t-59.5 -7q-47 0 -65.5 25.5t-18.5 76.5z" />
<glyph unicode="&#xef;" horiz-adv-x="835" d="M129 -2q2 78 2 137.5v104.5q0 29 -1 57.5t-1 64.5q0 20 9 30.5t57 10.5q14 0 20 -7t6 -17v-19.5t-4 -23.5l4 -4q27 29 61.5 50t75.5 21q78 0 97 -77q29 35 65.5 56t77.5 21q109 0 109 -145q0 -72 -1 -116t-1 -70.5t1 -42t3 -27.5q-10 -2 -23.5 -3t-30.5 -1 q-29 0 -38 12.5t-9 38.5v197q0 41 -14 56t-43 15q-20 0 -46 -13t-42 -36v-266q-6 0 -18.5 -1t-28 -1t-27.5 -1t-18 -1v254q0 41 -16.5 53t-39.5 12q-20 0 -46.5 -15t-43.5 -34v-266q-6 0 -19 -1t-28.5 -1t-29 -1t-19.5 -1z" />
<glyph unicode="&#xf0;" horiz-adv-x="1103" d="M55 465q0 143 42 236.5t107.5 147.5t145.5 74.5t154 20.5q53 0 112 -12.5t84 -26.5q-6 31 -16 68t-27.5 72.5t-41 67.5t-56.5 52l-100 -133q-92 27 -125 44.5t-33 45.5q0 16 8 30.5t19 31.5l43 41q-20 10 -61.5 17t-69.5 11q-29 4 -42.5 24.5t-13.5 51.5q0 90 19.5 129 t52.5 39q23 0 54.5 -2t65.5 -7t67.5 -13.5t62.5 -18.5l102 135q102 -12 134 -32.5t32 -47.5q0 -10 -5 -22t-21 -33l-52 -61q102 -55 167 -140.5t101.5 -188.5t51 -218t14.5 -230q0 -180 -37 -301.5t-102.5 -195.5t-156.5 -105.5t-199 -31.5q-233 0 -356.5 114.5 t-123.5 366.5zM371 467q0 -127 46 -192.5t134 -65.5t131 69.5t43 217.5q0 51 -3 99t-11 95q-25 14 -69 26.5t-87 12.5q-45 0 -79 -11t-57.5 -41t-35.5 -81t-12 -129z" />
<glyph unicode="&#xf1;" horiz-adv-x="1161" d="M94 -10q4 182 4 334.5v269.5q0 84 -2 170t-2 139t53.5 79t180.5 26q43 0 60.5 -18.5t17.5 -47.5q0 -27 -2.5 -53.5t-6.5 -50.5l6 -7q27 31 64 63t82 56.5t97 41t114 16.5q150 0 224.5 -88.5t74.5 -280.5q0 -170 -1 -275.5t-1 -172t2 -107.5t8 -84q-10 -2 -33.5 -4 t-52.5 -3t-58.5 -2t-52.5 -1q-66 0 -98.5 36.5t-32.5 90.5v475q0 96 -26.5 134t-83.5 38q-59 0 -116.5 -39t-98.5 -80v-645zM266 1255q0 94 41 128t96 34q43 0 82 -11t73 -24.5t63.5 -24.5t52.5 -11q31 0 40 20t5 59q113 23 162 -14t49 -141q0 -47 -11.5 -79t-30 -50.5 t-43 -25.5t-51.5 -7q-43 0 -82.5 11t-74.5 24.5t-65 25t-50 11.5q-31 0 -40 -20.5t-5 -59.5q-111 -23 -161 14t-50 141z" />
<glyph unicode="&#xf2;" horiz-adv-x="1103" d="M55 500q0 141 43 238.5t114 157.5t159 86t180 26t181 -26t160 -86t114 -157.5t43 -238.5t-42 -239.5t-112 -160t-160 -89t-184 -27.5t-183 27.5t-159 89t-112 159.5t-42 240zM297 1372q94 53 140 68.5t81 15.5q23 0 42.5 -8t44 -39t59 -90t88.5 -160q-66 -41 -99.5 -52 t-66.5 -11q-20 0 -41 8t-51.5 35.5t-76.5 83t-120 149.5zM371 498q0 -291 180 -291t180 291q0 287 -180 286q-180 0 -180 -286z" />
<glyph unicode="&#xf3;" horiz-adv-x="1103" d="M55 500q0 141 43 238.5t114 157.5t159 86t180 26t181 -26t160 -86t114 -157.5t43 -238.5t-42 -239.5t-112 -160t-160 -89t-184 -27.5t-183 27.5t-159 89t-112 159.5t-42 240zM371 498q0 -291 180 -291t180 291q0 287 -180 286q-180 0 -180 -286zM442 1159 q53 100 87 159.5t58.5 90.5t44 39t44.5 8q33 0 78.5 -15.5t142.5 -68.5q-74 -94 -120 -149.5t-77 -83t-51.5 -35.5t-40.5 -8q-16 0 -32.5 2t-35 9t-42 19.5t-56.5 32.5z" />
<glyph unicode="&#xf4;" horiz-adv-x="1103" d="M55 500q0 141 43 238.5t114 157.5t159 86t180 26t181 -26t160 -86t114 -157.5t43 -238.5t-42 -239.5t-112 -160t-160 -89t-184 -27.5t-183 27.5t-159 89t-112 159.5t-42 240zM309 1167q0 31 29 74q23 33 46 67.5t51 64.5t60.5 48.5t75.5 18.5q41 0 74 -18.5t60.5 -48.5 t51 -65.5t48.5 -68.5q16 -23 21 -39t5 -33q0 -29 -18.5 -49t-67.5 -31l-174 144l-174 -144q-51 10 -69.5 31t-18.5 49zM371 498q0 -291 180 -291t180 291q0 287 -180 286q-180 0 -180 -286z" />
<glyph unicode="&#xf5;" horiz-adv-x="1103" d="M55 500q0 141 43 238.5t114 157.5t159 86t180 26t181 -26t160 -86t114 -157.5t43 -238.5t-42 -239.5t-112 -160t-160 -89t-184 -27.5t-183 27.5t-159 89t-112 159.5t-42 240zM256 1255q0 94 41 128t96 34q43 0 82 -11t73 -24.5t63.5 -24.5t52.5 -11q31 0 40 20t5 59 q113 23 162 -14t49 -141q0 -47 -11.5 -79t-30 -50.5t-43 -25.5t-51.5 -7q-43 0 -82.5 11t-74.5 24.5t-65 25t-50 11.5q-31 0 -40 -20.5t-5 -59.5q-111 -23 -161 14t-50 141zM371 498q0 -291 180 -291t180 291q0 287 -180 286q-180 0 -180 -286z" />
<glyph unicode="&#xf6;" horiz-adv-x="1103" d="M55 500q0 141 43 238.5t114 157.5t159 86t180 26t181 -26t160 -86t114 -157.5t43 -238.5t-42 -239.5t-112 -160t-160 -89t-184 -27.5t-183 27.5t-159 89t-112 159.5t-42 240zM250 1311q0 59 43 90t160 31q53 0 77.5 -17.5t24.5 -77.5q0 -76 -7 -121t-27.5 -69.5 t-54.5 -31.5t-87 -7q-37 0 -61.5 7t-40 29.5t-21.5 61.5t-6 105zM371 498q0 -291 180 -291t180 291q0 287 -180 286q-180 0 -180 -286zM647 1311q0 59 43 90t160 31q51 0 77 -17.5t26 -77.5q0 -76 -8.5 -121t-28 -69.5t-54 -31.5t-86.5 -7q-37 0 -61.5 7t-39.5 29.5 t-21.5 61.5t-6.5 105z" />
<glyph unicode="&#xf7;" horiz-adv-x="1017" d="M66 535.5q0 39.5 2 62.5t8 33t14 18q10 10 31.5 17.5t71.5 7.5h755q4 -66 4 -106t-2 -62.5t-7 -33.5t-13 -19q-10 -10 -33 -16.5t-72 -6.5h-755q-4 66 -4 105.5zM360 219q0 66 46.5 95.5t168.5 29.5q47 0 78 -16.5t31 -75.5q0 -84 -7 -133t-26.5 -75t-55.5 -34t-93 -8 q-43 0 -71 9t-43 34t-21.5 66.5t-6.5 107.5zM360 969q0 66 47.5 96.5t167.5 30.5q47 0 78 -17.5t31 -77.5q0 -84 -7 -132t-26.5 -74.5t-55.5 -33.5t-93 -7q-43 0 -71 9t-43 32.5t-21.5 65.5t-6.5 108z" />
<glyph unicode="&#xf8;" horiz-adv-x="1101" d="M55 500q0 141 43 239.5t114 160t159 88t180 26.5q45 0 90 -6.5t86 -20.5l64 107q16 25 34.5 27.5t63.5 -21.5q47 -27 56 -45.5t-5 -42.5l-61 -103q78 -61 123 -161.5t45 -247.5q0 -141 -42 -239.5t-111 -160t-159 -89t-184 -27.5q-47 0 -94 6t-92 22l-58 -100 q-14 -27 -35.5 -29t-68.5 27q-41 23 -50.5 40t7.5 42l55 100q-74 61 -117 160.5t-43 247.5zM356 500q0 -35 4.5 -77t12.5 -65l233 420q-27 10 -55 10q-90 0 -142.5 -70.5t-52.5 -217.5zM485 221q31 -12 66 -12q92 0 144.5 72t52.5 219q0 39 -5.5 84t-13.5 69z" />
<glyph unicode="&#xf9;" horiz-adv-x="1161" d="M94 903q0 53 47 79t174 26q55 0 75 -21.5t20 -58.5v-97.5t-1 -136t-1 -150.5v-141q0 -102 28.5 -138t89.5 -36q57 0 112.5 39t96.5 84v551q0 53 46 79t173 26q57 0 78 -20.5t21 -57.5v-549v-126t1 -95t4 -80t9 -80q-12 -2 -35.5 -4t-52.5 -3t-57.5 -2t-51.5 -1 q-68 0 -102.5 35.5t-30.5 95.5l15 41l-7 6q-55 -88 -146 -133t-210 -45q-147 0 -220 86t-73 278q0 252 -1 384t-1 165zM319 1372q94 53 140 68.5t81 15.5q23 0 42.5 -8t44 -39t59 -90t88.5 -160q-66 -41 -99.5 -52t-66.5 -11q-20 0 -41 8t-51.5 35.5t-76.5 83t-120 149.5z " />
<glyph unicode="&#xfa;" horiz-adv-x="1161" d="M94 903q0 53 47 79t174 26q55 0 75 -21.5t20 -58.5v-97.5t-1 -136t-1 -150.5v-141q0 -102 28.5 -138t89.5 -36q57 0 112.5 39t96.5 84v551q0 53 46 79t173 26q57 0 78 -20.5t21 -57.5v-549v-126t1 -95t4 -80t9 -80q-12 -2 -35.5 -4t-52.5 -3t-57.5 -2t-51.5 -1 q-68 0 -102.5 35.5t-30.5 95.5l15 41l-7 6q-55 -88 -146 -133t-210 -45q-147 0 -220 86t-73 278q0 252 -1 384t-1 165zM451 1159q53 100 87 159.5t58.5 90.5t44 39t44.5 8q33 0 78.5 -15.5t142.5 -68.5q-74 -94 -120 -149.5t-77 -83t-51.5 -35.5t-40.5 -8q-16 0 -32.5 2 t-35 9t-42 19.5t-56.5 32.5z" />
<glyph unicode="&#xfb;" horiz-adv-x="1161" d="M94 903q0 53 47 79t174 26q55 0 75 -21.5t20 -58.5v-97.5t-1 -136t-1 -150.5v-141q0 -102 28.5 -138t89.5 -36q57 0 112.5 39t96.5 84v551q0 53 46 79t173 26q57 0 78 -20.5t21 -57.5v-549v-126t1 -95t4 -80t9 -80q-12 -2 -35.5 -4t-52.5 -3t-57.5 -2t-51.5 -1 q-68 0 -102.5 35.5t-30.5 95.5l15 41l-7 6q-55 -88 -146 -133t-210 -45q-147 0 -220 86t-73 278q0 252 -1 384t-1 165zM350 1167q0 31 29 74q23 33 46 67.5t51 64.5t60.5 48.5t75.5 18.5q41 0 74 -18.5t60.5 -48.5t51 -65.5t48.5 -68.5q16 -23 21 -39t5 -33q0 -29 -18.5 -49 t-67.5 -31l-174 144l-174 -144q-51 10 -69.5 31t-18.5 49z" />
<glyph unicode="&#xfc;" horiz-adv-x="1161" d="M94 903q0 53 47 79t174 26q55 0 75 -21.5t20 -58.5v-97.5t-1 -136t-1 -150.5v-141q0 -102 28.5 -138t89.5 -36q57 0 112.5 39t96.5 84v551q0 53 46 79t173 26q57 0 78 -20.5t21 -57.5v-549v-126t1 -95t4 -80t9 -80q-12 -2 -35.5 -4t-52.5 -3t-57.5 -2t-51.5 -1 q-68 0 -102.5 35.5t-30.5 95.5l15 41l-7 6q-55 -88 -146 -133t-210 -45q-147 0 -220 86t-73 278q0 252 -1 384t-1 165zM264 1311q0 59 43 90t160 31q53 0 77.5 -17.5t24.5 -77.5q0 -76 -7 -121t-27.5 -69.5t-54.5 -31.5t-87 -7q-37 0 -61.5 7t-40 29.5t-21.5 61.5t-6 105z M661 1311q0 59 43 90t160 31q51 0 77 -17.5t26 -77.5q0 -76 -8.5 -121t-28 -69.5t-54 -31.5t-86.5 -7q-37 0 -61.5 7t-39.5 29.5t-21.5 61.5t-6.5 105z" />
<glyph unicode="&#xfd;" horiz-adv-x="1021" d="M10 901q-29 63 29.5 85t198.5 22q47 0 66.5 -13.5t29.5 -48.5l213 -649l174 610q8 29 19.5 48.5t34 30.5t61 16.5t104.5 5.5q53 0 72.5 -23.5t-0.5 -83.5l-301 -893q-49 -143 -95.5 -232t-96.5 -139.5t-106.5 -69t-123.5 -18.5q-70 0 -120 15.5t-71 36.5q-8 8 -14 21 t-7 33.5t3 52.5t16 81q16 -2 61.5 -8t90.5 -6q53 0 97 37.5t75 142.5zM403 1159q53 100 87 159.5t58.5 90.5t44 39t44.5 8q33 0 78.5 -15.5t142.5 -68.5q-74 -94 -120 -149.5t-77 -83t-51.5 -35.5t-40.5 -8q-16 0 -32.5 2t-35 9t-42 19.5t-56.5 32.5z" />
<glyph unicode="&#xfe;" horiz-adv-x="1122" d="M94 -326q2 162 3 283t3 217t3 175t1 157q0 106 -1 230t-1 242t-1 217t-1 159q0 53 47.5 78.5t171.5 25.5q55 0 77 -20.5t22 -57.5q0 -47 -1 -111.5t-3 -135t-4 -138t-4 -116.5l-19 -41l4 -7q47 70 126 123.5t190 53.5q172 0 265 -118t93 -374q0 -143 -36 -244.5 t-96.5 -165t-140 -93t-167.5 -29.5q-78 0 -130.5 11t-80.5 23v-185.5t1 -117.5t5 -81.5t10 -77.5q-6 0 -33.5 -1t-62.5 -2.5t-71 -2.5t-58 -1q-66 0 -88.5 36t-22.5 89zM401 215q33 -6 68 -10t70 -4q47 0 83.5 14t62.5 48t39 92.5t13 146.5q0 147 -43 204.5t-108 57.5 q-25 0 -49.5 -11.5t-48 -28.5t-43 -36.5t-33.5 -38.5q0 -92 -1 -170t-3 -137q-2 -68 -7 -127z" />
<glyph unicode="&#xff;" horiz-adv-x="1021" d="M10 901q-29 63 29.5 85t198.5 22q47 0 66.5 -13.5t29.5 -48.5l213 -649l174 610q8 29 19.5 48.5t34 30.5t61 16.5t104.5 5.5q53 0 72.5 -23.5t-0.5 -83.5l-301 -893q-49 -143 -95.5 -232t-96.5 -139.5t-106.5 -69t-123.5 -18.5q-70 0 -120 15.5t-71 36.5q-8 8 -14 21 t-7 33.5t3 52.5t16 81q16 -2 61.5 -8t90.5 -6q53 0 97 37.5t75 142.5zM205 1311q0 59 43 90t160 31q53 0 77.5 -17.5t24.5 -77.5q0 -76 -7 -121t-27.5 -69.5t-54.5 -31.5t-87 -7q-37 0 -61.5 7t-40 29.5t-21.5 61.5t-6 105zM602 1311q0 59 43 90t160 31q51 0 77 -17.5 t26 -77.5q0 -76 -8.5 -121t-28 -69.5t-54 -31.5t-86.5 -7q-37 0 -61.5 7t-39.5 29.5t-21.5 61.5t-6.5 105z" />
<glyph unicode="&#x152;" horiz-adv-x="1773" d="M74 690q0 190 41 325.5t117.5 220.5t189.5 124t254 39q49 0 97 -13.5t71 -29.5v28q23 2 91.5 3.5t157.5 2.5t187 0t185 -1h148.5h78.5q2 -70 4 -110t0 -62.5t-6 -32.5t-11 -17q-8 -10 -24.5 -15t-67.5 -6t-147.5 -1t-263.5 4v-320h458v-233h-458v-352h231t142.5 1t85 4 t59.5 9q6 -23 12 -63.5t6 -83.5q0 -53 -33.5 -82t-105.5 -29h-63.5h-118t-147.5 -1t-151.5 0t-130 2t-83.5 3l2 27q-29 -18 -86.5 -32.5t-126.5 -14.5q-139 0 -249 38.5t-186.5 123.5t-117.5 219.5t-41 324.5zM416 690q0 -248 68.5 -353.5t191.5 -105.5q111 0 166 70l4 469 v167t-2 136q-23 33 -67 55.5t-101 22.5q-123 0 -191.5 -105.5t-68.5 -355.5z" />
<glyph unicode="&#x153;" horiz-adv-x="1744" d="M55 500q0 141 44 239.5t115 160t159 88t176 26.5q135 0 223 -48t129 -120q45 72 137.5 120t221.5 48q98 0 179 -26.5t137 -85t86 -149.5t26 -221q-4 -96 -99 -96h-553q-8 -117 50.5 -169t197.5 -52q117 0 208 18.5t128 26.5q14 -49 20.5 -79.5t5.5 -50t-7.5 -31 t-14.5 -21.5q-16 -16 -53 -31.5t-86 -28t-109.5 -20.5t-122.5 -8q-121 0 -221 40t-141 122q-35 -72 -125 -120t-217 -48q-94 0 -183.5 27.5t-158 89t-110.5 159.5t-42 240zM371 500q0 -291 176 -291q178 0 178 291q0 289 -176 288q-178 0 -178 -288zM1040 590h84h91.5 t89.5 1t77 3q2 104 -40 150.5t-111 46.5q-86 0 -135.5 -57.5t-55.5 -143.5z" />
<glyph unicode="&#x178;" horiz-adv-x="1144" d="M20.5 1308.5q-2.5 30.5 20 49t74 26t137.5 7.5q39 0 61.5 -4.5t37 -16.5t22.5 -33.5t18 -54.5l203 -592l225 604q12 33 25.5 52.5t40 28.5t69.5 12.5t113 3.5q41 0 63.5 -28t-2.5 -83l-385 -848q-2 -84 -2 -161.5t-2 -137.5q-2 -70 -2 -133l-336 -10q0 41 2 104 q2 53 2.5 137t2.5 201l-365 801q-20 45 -22.5 75.5zM266 1661q0 61 43 91t160 30q53 0 77.5 -16.5t24.5 -75.5q0 -76 -7 -121t-27.5 -69.5t-54.5 -33t-87 -8.5q-37 0 -61.5 8.5t-40 30t-21.5 61.5t-6 103zM663 1661q0 61 43 91t160 30q51 0 77 -16.5t26 -75.5 q0 -76 -8.5 -121t-28 -69.5t-54 -33t-86.5 -8.5q-37 0 -61.5 8.5t-39.5 30t-21.5 61.5t-6.5 103z" />
<glyph unicode="&#x2c6;" horiz-adv-x="612" d="M45 1167q0 31 29 74q23 33 46 67.5t51 64.5t60.5 48.5t75.5 18.5q41 0 74 -18.5t60.5 -48.5t51 -65.5t48.5 -68.5q16 -23 21 -39t5 -33q0 -29 -18.5 -49t-67.5 -31l-174 144l-174 -144q-51 10 -69.5 31t-18.5 49z" />
<glyph unicode="&#x2dc;" horiz-adv-x="753" d="M45 1255q0 94 41 128t96 34q43 0 82 -11t73 -24.5t63.5 -24.5t52.5 -11q31 0 40 20t5 59q113 23 162 -14t49 -141q0 -47 -11.5 -79t-30 -50.5t-43 -25.5t-51.5 -7q-43 0 -82.5 11t-74.5 24.5t-65 25t-50 11.5q-31 0 -40 -20.5t-5 -59.5q-111 -23 -161 14t-50 141z" />
<glyph unicode="&#x2000;" horiz-adv-x="891" />
<glyph unicode="&#x2001;" horiz-adv-x="1782" />
<glyph unicode="&#x2002;" horiz-adv-x="891" />
<glyph unicode="&#x2003;" horiz-adv-x="1782" />
<glyph unicode="&#x2004;" horiz-adv-x="594" />
<glyph unicode="&#x2005;" horiz-adv-x="445" />
<glyph unicode="&#x2006;" horiz-adv-x="297" />
<glyph unicode="&#x2007;" horiz-adv-x="297" />
<glyph unicode="&#x2008;" horiz-adv-x="222" />
<glyph unicode="&#x2009;" horiz-adv-x="356" />
<glyph unicode="&#x200a;" horiz-adv-x="99" />
<glyph unicode="&#x2010;" horiz-adv-x="712" d="M55 612.5q0 38.5 2 62t8.5 34t14.5 18.5q10 10 31.5 17.5t72.5 7.5h469q4 -66 4 -106t-2 -62.5t-7 -33.5t-13 -20q-10 -10 -32.5 -16t-72.5 -6h-471q-4 66 -4 104.5z" />
<glyph unicode="&#x2011;" horiz-adv-x="712" d="M55 612.5q0 38.5 2 62t8.5 34t14.5 18.5q10 10 31.5 17.5t72.5 7.5h469q4 -66 4 -106t-2 -62.5t-7 -33.5t-13 -20q-10 -10 -32.5 -16t-72.5 -6h-471q-4 66 -4 104.5z" />
<glyph unicode="&#x2012;" horiz-adv-x="712" d="M55 612.5q0 38.5 2 62t8.5 34t14.5 18.5q10 10 31.5 17.5t72.5 7.5h469q4 -66 4 -106t-2 -62.5t-7 -33.5t-13 -20q-10 -10 -32.5 -16t-72.5 -6h-471q-4 66 -4 104.5z" />
<glyph unicode="&#x2013;" horiz-adv-x="1024" d="M2 650.5q0 39.5 2 62t8 33t15 18.5q10 10 31.5 17t70.5 7h889q4 -68 4 -107.5t-2 -62t-8 -34t-15 -19.5q-10 -10 -31.5 -16t-70.5 -6h-889q-4 68 -4 107.5z" />
<glyph unicode="&#x2014;" horiz-adv-x="2048" d="M2 650.5q0 39.5 2 62t8 33t15 18.5q10 10 31.5 17t70.5 7h1913q4 -68 4 -107.5t-2 -62t-8 -34t-15 -19.5q-10 -10 -33.5 -16t-78.5 -6h-1903q-4 68 -4 107.5z" />
<glyph unicode="&#x2018;" horiz-adv-x="481" d="M72 1040q0 127 14 216.5t33.5 146.5t40 89t33.5 44q33 29 95 30t152 -38q-23 -41 -41 -87t-18 -112q0 -45 7 -103.5t7 -150.5q0 -72 -51 -103.5t-168 -31.5q-49 0 -76.5 19.5t-27.5 80.5z" />
<glyph unicode="&#x2019;" horiz-adv-x="481" d="M45 977q23 41 41 87t18 111q0 45 -7 103.5t-7 150.5q0 72 51.5 103.5t167.5 31.5q49 0 77 -19.5t28 -80.5q0 -127 -14.5 -216t-34 -146.5t-40 -89t-32.5 -44.5q-33 -29 -95.5 -29.5t-152.5 38.5z" />
<glyph unicode="&#x201a;" horiz-adv-x="483" d="M45 -233q23 41 41 87t18 111q0 45 -7 103.5t-7 150.5q0 72 51.5 103.5t167.5 31.5q49 0 77 -19.5t28 -80.5q0 -127 -14.5 -216t-34 -146.5t-40 -89t-32.5 -44.5q-33 -29 -95.5 -29.5t-152.5 38.5z" />
<glyph unicode="&#x201c;" horiz-adv-x="923" d="M72 1038q0 127 14 216t33.5 146.5t40 89.5t33.5 44q33 29 95 30t152 -38q-23 -41 -41 -87t-18 -112q0 -45 7 -103.5t7 -150.5q0 -72 -51 -103.5t-168 -31.5q-49 0 -76.5 19.5t-27.5 80.5zM514 1038q0 127 14.5 216t34 146.5t40 89.5t32.5 44q33 29 95.5 30t152.5 -38 q-23 -41 -41.5 -87t-18.5 -112q0 -45 7.5 -103.5t7.5 -150.5q0 -72 -51.5 -103.5t-168.5 -31.5q-49 0 -76.5 19.5t-27.5 80.5z" />
<glyph unicode="&#x201d;" horiz-adv-x="921" d="M45 977q23 41 41 87t18 111q0 45 -7 103.5t-7 150.5q0 72 51.5 103.5t167.5 31.5q49 0 77 -19.5t28 -80.5q0 -127 -14.5 -216t-34 -146.5t-40 -89t-32.5 -44.5q-33 -29 -95.5 -29.5t-152.5 38.5zM483 977q23 41 41 87t18 111q0 45 -7 103.5t-7 150.5q0 72 51.5 103.5 t167.5 31.5q49 0 77 -19.5t28 -80.5q0 -127 -14.5 -216t-34 -146.5t-40 -89t-32.5 -44.5q-33 -29 -95.5 -29.5t-152.5 38.5z" />
<glyph unicode="&#x201e;" horiz-adv-x="921" d="M45 -233q23 41 41 87t18 111q0 45 -7 103.5t-7 150.5q0 72 51.5 103.5t167.5 31.5q49 0 77 -19.5t28 -80.5q0 -127 -14.5 -216t-34 -146.5t-40 -89t-32.5 -44.5q-33 -29 -95.5 -29.5t-152.5 38.5zM481 -233q23 41 41 87t18 111q0 45 -7 103.5t-7 150.5q0 72 51.5 103.5 t167.5 31.5q49 0 77 -19.5t28 -80.5q0 -127 -14.5 -216t-34 -146.5t-40 -89t-32.5 -44.5q-33 -29 -95.5 -29.5t-152.5 38.5z" />
<glyph unicode="&#x2022;" horiz-adv-x="751" d="M86 770q0 59 20.5 102t66.5 72t119 43t179 14q45 0 81 -7t62.5 -26.5t41 -54t14.5 -88.5q0 -145 -13.5 -233t-48.5 -135t-97 -61.5t-163 -14.5q-80 0 -131 15.5t-79.5 58.5t-40 118.5t-11.5 196.5z" />
<glyph unicode="&#x2026;" horiz-adv-x="1527" d="M90 219q0 68 49 101.5t178 33.5q49 0 81 -19.5t32 -80.5q0 -86 -7 -138.5t-28.5 -80t-58.5 -35.5t-96 -8q-47 0 -76 9t-45.5 34.5t-22.5 69.5t-6 114zM594 219q0 68 49 101.5t178 33.5q49 0 81 -19.5t32 -80.5q0 -86 -7 -138.5t-28.5 -80t-58.5 -35.5t-97 -8 q-47 0 -75.5 9t-45 34.5t-22.5 69.5t-6 114zM1098 219q0 68 49 101.5t178 33.5q49 0 81 -19.5t32 -80.5q0 -86 -7.5 -138.5t-29 -80t-58 -35.5t-96.5 -8q-47 0 -75.5 9t-45 34.5t-22.5 69.5t-6 114z" />
<glyph unicode="&#x202f;" horiz-adv-x="356" />
<glyph unicode="&#x2039;" horiz-adv-x="626" d="M68 582.5q2 21.5 11 37t25 33.5l263 267q18 20 44.5 15t80.5 -58q45 -45 52 -65.5t-7 -43.5l-154 -227l154 -228q14 -23 7 -43t-52 -65q-53 -53 -80 -58.5t-45 13.5l-285 286q-10 51 -13 83t-1 53.5z" />
<glyph unicode="&#x203a;" horiz-adv-x="626" d="M93 270.5q-7 20.5 7 42.5l154 228l-154 227q-14 23 -7 43t52 66q53 53 80 58t45 -13l285 -287q8 -51 12 -83t2 -53.5t-11 -37t-26 -33.5l-262 -266q-18 -20 -44.5 -15t-80.5 58q-45 45 -52 65.5z" />
<glyph unicode="&#x205f;" horiz-adv-x="445" />
<glyph unicode="&#x20ac;" horiz-adv-x="1116" d="M29 507q0 30 3 48t8 28.5t11 18.5q10 10 26.5 15.5t51.5 5.5h41v104h-133q-4 49 -4 80t2 49t7 28.5t13 16.5q10 10 26.5 16.5t51.5 6.5h57q18 98 66.5 180t122.5 140.5t171 91t212 32.5q106 0 183 -21.5t106 -50.5q10 -10 17 -22t8 -33.5t-6 -56.5t-21 -86q-27 6 -78 16 t-119 10q-256 0 -309 -200h393q4 -49 4 -80t-2 -49.5t-7 -28.5t-13 -16q-10 -10 -25.5 -16.5t-50.5 -6.5h-328v-104h404q2 -47 3 -78t-2.5 -49.5t-8.5 -28.5t-11 -18q-10 -10 -26.5 -15.5t-51.5 -5.5h-280q25 -106 104.5 -153.5t214.5 -47.5q66 0 119 9.5t76 15.5 q14 -53 20 -86t5 -54.5t-7 -33.5t-16 -23q-29 -29 -109 -50t-186 -21q-129 0 -228.5 34.5t-169 94t-112.5 141.5t-57 174h-162q-4 49 -4 79z" />
<glyph unicode="&#x2122;" horiz-adv-x="1396" d="M25 1292.5q0 26.5 2 42t5 22.5t9 13q16 16 55 16h420q2 -47 2 -74.5t-2 -43t-6 -21.5t-10 -12q-8 -8 -19.5 -12t-34.5 -2l-65 2v-455l-207 -10v465l-147 -2q-2 45 -2 71.5zM520.5 799.5q-2.5 13.5 1.5 36.5l78 495q6 33 36 46.5t112 13.5q78 0 108.5 -11.5t36.5 -42.5 l49 -397l53 399q8 51 148 52q66 0 94.5 -11.5t32.5 -40.5l84 -499q8 -41 -11 -60q-10 -10 -46.5 -16t-135.5 -8l-41 415l-10 -129l-53 -274l-248 -14l-72 417l-4 -129l-28 -282q-88 -4 -124 -1t-46 15q-12 12 -14.5 25.5z" />
<glyph unicode="&#x25fc;" horiz-adv-x="1013" d="M0 0v1014h1014v-1014h-1014z" />
</font>
</defs>
</svg>
