<?xml version="1.0" standalone="no"?>
<!DOCTYPE svg PUBLIC "-//W3C//DTD SVG 1.1//EN" "http://www.w3.org/Graphics/SVG/1.1/DTD/svg11.dtd" >
<svg xmlns="http://www.w3.org/2000/svg">
<metadata></metadata>
<defs>
<font id="coles_hpregular" horiz-adv-x="1017" >
<font-face units-per-em="2048" ascent="1638" descent="-410" />
<missing-glyph horiz-adv-x="368" />
<glyph unicode="&#xfb01;" horiz-adv-x="1005" d="M12 944q2 25 15 37q6 6 13 10t22.5 6t42 2t69.5 -2v121q0 102 20.5 173t61.5 114t104.5 62.5t153.5 19.5q123 0 190.5 -24.5t90.5 -47.5q16 -16 16 -36.5t-20 -67.5q-47 12 -100.5 25.5t-141.5 13.5q-47 0 -84 -10.5t-61.5 -36t-37 -69.5t-14.5 -114v-125l469 6 q61 0 62 -51l-4 -950l-185 -10q0 37 1 111.5t1 163.5t1 183.5t1 167.5q0 25 -1 59t-1 67.5t-1 65.5t-1 50q-55 -2 -146 -1t-196 5v-96v-125t1 -141.5t1 -145.5q0 -168 2 -354l-184 -10v208.5t1 236.5t1 231.5v193.5l-154 -4q-10 63 -8 88z" />
<glyph unicode="&#xfb02;" horiz-adv-x="1046" d="M12 944q2 25 15 37q6 6 13 10t22.5 6t40 2t65.5 -2l2 121q0 104 20.5 175t61.5 114t104.5 61.5t149.5 18.5q63 0 122.5 -8.5t108.5 -20.5t83 -27.5t46 -27.5q10 -10 14.5 -20.5t4.5 -39.5q0 -137 -3 -422.5t-5 -707.5q0 -59 20 -80q18 -16 53 -20t88 0q10 -45 8 -62.5 t-16 -30.5q-10 -12 -46 -19t-75 -7q-119 0 -166 45t-47 143q0 78 2 221.5t2 335.5q0 186 -3 339t-3 247q-37 10 -75.5 17.5t-81.5 7.5q-45 0 -79 -10.5t-58.5 -36t-37 -69.5t-14.5 -114l-2 -127l246 6q6 -59 3 -87.5t-15 -41.5q-6 -6 -16.5 -9t-35 -4t-67.5 0t-115 5v-96 v-125t1 -141.5t1 -145.5q0 -168 2 -354l-184 -10v208.5t1 236.5t1 231.5v193.5l-148 -4q-10 63 -8 88z" />
<glyph unicode="&#xfb03;" horiz-adv-x="1531" d="M12 944q2 25 15 37q6 6 13 10t22.5 6t40 2t65.5 -2v115q0 104 20.5 173t60.5 110t99.5 57t138.5 16q84 0 165 -21.5t134 -37.5q33 35 90.5 56.5t163.5 21.5q123 0 189.5 -24.5t89.5 -47.5q16 -16 16 -36.5t-20 -67.5q-25 6 -47.5 12t-50 12t-61.5 10.5t-81 4.5t-84 -10.5 t-61.5 -36t-37.5 -69.5t-13 -114v-127l471 8q59 0 59 -51l-2 -950l-184 -10q0 143 2 305t2 321q0 25 -1 59t-2 67.5t-1 65.5v50h-63t-87 1t-98 2t-96 1v-98v-126t1 -142.5t1 -143.5q0 -166 2 -352l-185 -10v208.5t1 236.5t1 231.5v195.5q-59 -4 -156.5 -4t-197.5 4v-98v-126 t1 -142.5t1 -143.5q0 -166 2 -352l-184 -10v208.5t1 236.5t1 231.5v193.5l-148 -4q-10 63 -8 88zM346 993l354 6v119q0 78 10.5 123t18.5 66q-53 10 -100.5 17t-100.5 7q-45 0 -78.5 -9t-57 -33.5t-35 -66.5t-11.5 -108v-121z" />
<glyph unicode="&#xfb04;" horiz-adv-x="1579" d="M12 944q2 25 15 37q6 6 13 10t22.5 6t40 2t65.5 -2v115q0 104 20.5 173t60.5 110t99.5 57t138.5 16q82 0 162 -21.5t133 -37.5q41 41 104.5 59.5t149.5 18.5q63 0 124 -8.5t110 -20.5t82.5 -27.5t46.5 -27.5q10 -10 14 -20.5t4 -39.5q0 -137 -3 -422.5t-5 -707.5 q0 -59 21 -80q18 -16 52 -20t89 0q10 -45 8 -62.5t-16 -30.5q-10 -12 -46 -19t-75 -7q-119 0 -166 45t-47 143q0 78 2 221.5t2 335.5q0 186 -3 339t-3 247q-37 10 -75 17.5t-83 7.5t-79 -10.5t-58.5 -36t-36.5 -69.5t-14 -114l-2 -127l245 6q4 -59 2 -87.5t-14 -41.5 q-6 -6 -16.5 -9t-35 -4t-67.5 0t-114 5l4 -862l-185 -10l2 870q-29 -2 -69.5 -2h-87.5t-97.5 1t-99.5 3v-98v-126t1 -142.5t1 -143.5q0 -166 2 -352l-184 -10l2 870l-148 -4q-10 63 -8 88zM346 993l354 6v125q0 45 5.5 95.5t21.5 87.5q-53 10 -99 17t-100 7q-45 0 -78.5 -9 t-57 -33.5t-35 -66.5t-11.5 -108v-121z" />
<glyph unicode="&#xd;" horiz-adv-x="368" />
<glyph horiz-adv-x="0" />
<glyph horiz-adv-x="0" />
<glyph unicode=" "  horiz-adv-x="368" />
<glyph unicode="&#x09;" horiz-adv-x="368" />
<glyph unicode="&#xa0;" horiz-adv-x="368" />
<glyph unicode="!" horiz-adv-x="483" d="M143 113q0 86 131 86q29 0 47.5 -11.5t18.5 -46.5q0 -49 -5 -78.5t-17.5 -45t-35 -20.5t-57.5 -5q-47 0 -64.5 23.5t-17.5 97.5zM147 1376q0 39 27.5 58.5t101.5 19.5q33 0 45.5 -12t12.5 -41q0 -55 -1 -130t-3 -162t-3 -179t-3 -180q-6 -207 -11 -435l-145 -10 q-6 229 -10 436q-2 88 -4 179.5t-3 176.5t-2.5 157.5t-1.5 121.5z" />
<glyph unicode="&#x22;" horiz-adv-x="686" d="M86 1440q-6 92 127 92q31 0 50.5 -11.5t17.5 -50.5l-13 -389l-172 -10zM408 1440q-6 92 127 92q31 0 50.5 -11.5t17.5 -50.5l-13 -389l-172 -10z" />
<glyph unicode="#" horiz-adv-x="1198" d="M45 438q-4 59 0 83t16 36q20 20 68 21h156l28 260h-229q-4 59 1 83.5t17 34.5q20 20 68 21h160l45 346q4 35 22.5 49t51.5 14q27 0 55 -4t45 -8q-4 -10 -7 -25.5t-9.5 -55.5t-15.5 -113.5t-25 -202.5h264l45 346q6 35 23.5 49t52.5 14q25 0 53 -4t47 -8q-4 -10 -7 -25.5 t-9.5 -55.5t-15.5 -113.5t-25 -202.5h231q2 -63 -2 -86t-16 -33q-10 -10 -31 -15t-64 -5h-135l-31 -260h238q2 -63 -2 -86t-16 -35q-10 -10 -31 -14.5t-64 -4.5h-139l-41 -387q-4 -35 -22.5 -48t-51.5 -13q-25 0 -50 4t-46 8q2 8 5 24.5t7.5 60.5t13.5 127t25 224h-266 l-41 -387q-4 -35 -22.5 -48t-53.5 -13q-25 0 -50 4t-44 8q2 8 5 24.5t8.5 61.5t13.5 127t22 223h-225zM446 578h267l28 260h-264z" />
<glyph unicode="$" horiz-adv-x="970" d="M81 125q1 29 23 78q78 -23 158 -43.5t189 -20.5q117 0 180 52.5t63 146.5q0 88 -45 137t-112.5 82t-146.5 58.5t-146.5 66.5t-112.5 105.5t-45 177.5q0 137 84 227t233 106l-2 152q0 41 24 60.5t95 19.5q20 0 31.5 -10.5t9.5 -38.5l-4 -181q47 -4 90 -15t79 -24.5 t60.5 -26.5t34.5 -22q16 -16 11 -40.5t-31 -71.5q-18 4 -50 13t-71 18.5t-83 16.5t-89 7q-117 0 -171 -45t-54 -131q0 -74 45 -116t112.5 -71.5t145.5 -57t145.5 -72t112.5 -115t45 -185.5q0 -166 -87 -258t-247 -108l2 -229l-158 -11l2 236q-113 8 -197.5 36.5t-109.5 53.5 q-14 14 -13 43z" />
<glyph unicode="%" horiz-adv-x="1730" d="M72 997q0 104 24.5 181t67.5 127.5t103.5 74t131.5 23.5q72 0 132.5 -23.5t103.5 -74t67.5 -127.5t24.5 -181t-24.5 -181t-67.5 -126t-103.5 -72.5t-132.5 -23.5t-132 23.5t-103 72.5t-67.5 126t-24.5 181zM236 997q0 -123 38.5 -197.5t124.5 -74.5t124 74.5t38 197.5 q0 125 -38 200t-124 75t-124.5 -75t-38.5 -200zM377 -125l764 1577q16 35 40.5 49.5t59.5 14.5q29 0 58.5 -5.5t46.5 -9.5l-764 -1577q-16 -35 -41 -49t-60 -14q-29 0 -58.5 5t-45.5 9zM1004 393q0 104 24.5 181t67.5 126.5t103.5 73t131.5 23.5q72 0 132.5 -23.5t103.5 -73 t67.5 -126.5t24.5 -181t-24.5 -181t-67.5 -127t-103.5 -73.5t-132.5 -23.5t-132 23.5t-103 73.5t-67.5 127t-24.5 181zM1167 393q0 -125 39 -199.5t125 -74.5t124 74.5t38 199.5q0 123 -38 198t-124 75t-125 -75t-39 -198z" />
<glyph unicode="&#x26;" horiz-adv-x="1349" d="M82 395q0 90 25.5 156.5t67.5 116t92 83t100 56.5q-41 49 -73 92t-53.5 85t-33.5 87t-12 98q0 61 21.5 116.5t63.5 96.5t104 64.5t146 23.5q104 0 170 -27.5t84 -45.5q12 -12 12 -24.5t-10 -41.5q-10 -25 -16 -31t-14 -6q-29 0 -74 13.5t-111 13.5q-106 0 -147 -43 t-41 -119q0 -49 18.5 -96t52 -97.5t81 -106.5t102.5 -124q84 -98 148.5 -172t111.5 -127q31 98 44 235.5t9 327.5q98 12 134 -3t36 -56q0 -98 -4 -180t-15 -157t-29.5 -146.5t-47.5 -151.5q41 -47 66.5 -74.5t42.5 -40.5q76 -72 233 -36q14 -68 12 -91.5t-12 -33.5 q-14 -14 -48 -26.5t-87 -12.5q-39 0 -79 8t-83 35q-23 14 -51.5 39.5t-81.5 87.5q-68 -84 -163 -127t-238 -43q-100 0 -183.5 26.5t-144 77.5t-93 127t-32.5 174zM270 401q0 -135 81 -198.5t210 -63.5q74 0 142.5 29t119.5 108l-362 420q-100 -49 -145.5 -122.5 t-45.5 -172.5z" />
<glyph unicode="'" horiz-adv-x="364" d="M86 1440q-6 92 127 92q31 0 50.5 -11.5t17.5 -50.5l-13 -389l-172 -10z" />
<glyph unicode="(" horiz-adv-x="505" d="M76 645q0 221 37 399.5t84 307.5t91 204t60 91t45 17t101 -17q-66 -127 -117 -285q-45 -135 -81 -317.5t-36 -399.5q0 -219 36 -401.5t81 -317.5q51 -158 117 -284q-72 -16 -100.5 -16.5t-45.5 16.5q-16 16 -60 92t-91 204t-84 307t-37 400z" />
<glyph unicode=")" horiz-adv-x="505" d="M12 -358q63 127 117 284q43 135 80 317.5t37 401.5q0 217 -37 399.5t-80 317.5q-53 158 -117 285q72 18 101 17t45 -17t60 -91t91 -204t84 -307.5t37 -399.5t-37 -400t-84 -307t-91 -204t-60 -92t-45 -16.5t-101 16.5z" />
<glyph unicode="*" horiz-adv-x="669" d="M20 1313q18 53 37 72.5t37 19.5q12 0 21.5 -4t21.5 -12l146 -99l-13 238q53 6 77 3t38 -15q14 -18 12 -52l-14 -174l205 129q35 -43 41 -60.5t6 -29.5q0 -16 -11.5 -27.5t-21.5 -15.5l-170 -80l217 -112q-18 -51 -35.5 -70.5t-38.5 -19.5q-23 0 -43 14l-147 98l14 -242 q-53 -6 -77.5 -1.5t-34.5 14.5q-14 12 -13 53l11 174l-203 -129q-33 41 -39 58.5t-6 31.5q0 16 8 24.5t23 16.5l165 86z" />
<glyph unicode="+" horiz-adv-x="942" d="M39 575.5q4 24.5 16 36.5q18 18 76 19l262 -2l-4 372q72 8 101.5 3t41.5 -17q10 -10 15.5 -27.5t5.5 -48.5l-4 -282l350 2q6 -70 3 -94.5t-15 -36.5q-20 -20 -78 -21l-260 4l4 -370q-72 -8 -101.5 -3t-41.5 17q-10 10 -15.5 27.5t-5.5 48.5l4 280l-350 -4q-8 72 -4 96.5z " />
<glyph unicode="," horiz-adv-x="368" d="M49 -258q18 43 32.5 92t14.5 109q0 35 -5 81t-5 99q0 94 131 94q31 0 49.5 -12t18.5 -51q0 -100 -10.5 -173t-24.5 -123.5t-30.5 -80t-29.5 -41.5q-47 -43 -141 6z" />
<glyph unicode="-" horiz-adv-x="655" d="M59 623.5q4 25.5 17 38.5q10 10 27.5 15t48.5 5h442q6 -63 2 -89t-16 -38q-10 -10 -26.5 -14t-47.5 -4h-445q-6 61 -2 86.5z" />
<glyph unicode="." horiz-adv-x="378" d="M84 123q0 94 141 94q31 0 50.5 -12t19.5 -51q0 -53 -5 -86t-19.5 -49.5t-38 -21.5t-60.5 -5q-51 0 -69.5 25.5t-18.5 105.5z" />
<glyph unicode="/" horiz-adv-x="745" d="M29 -160q8 14 16 34t25.5 71t49.5 146t86 260t135 414t200 607q20 59 82 60q23 0 58.5 -3.5t51.5 -7.5q-6 -12 -12 -29.5t-22.5 -66.5t-48.5 -143.5t-87 -260t-138 -416.5t-204 -614q-20 -59 -80 -59q-12 0 -29.5 1t-35 3t-30.5 3t-17 1z" />
<glyph unicode="0" horiz-adv-x="1138" d="M88 666q0 352 124 518t357 166q236 0 359 -166t123 -518q0 -356 -123 -519t-361 -163q-231 0 -355 163t-124 519zM283 666q0 -532 284 -533q150 0 219.5 131t69.5 402q0 274 -69.5 404t-217.5 130q-147 0 -216.5 -130t-69.5 -404z" />
<glyph unicode="1" horiz-adv-x="698" d="M25 1199q-2 24 10 36q10 10 40.5 24.5t104.5 36.5q76 25 136.5 41.5t89.5 16.5q43 0 64.5 -19.5t21.5 -66.5l-9 -992v-141t13 -133q-16 -4 -47 -7t-64 -3q-49 0 -69.5 27.5t-20.5 74.5l2 1075l-250 -47q-20 53 -22 77z" />
<glyph unicode="2" horiz-adv-x="923" d="M45 100q0 27 10.5 54.5t45 76t104 129t188.5 215.5q61 70 105.5 126.5t73 104.5t42 93t13.5 94q0 98 -52.5 153.5t-154.5 55.5q-49 0 -92 -11t-78 -24.5t-59.5 -25t-36.5 -11.5q-10 0 -17.5 6.5t-23.5 28.5q-18 25 -17.5 42.5t15.5 29.5q8 8 36.5 27.5t72.5 40t100.5 35 t121.5 14.5q186 0 282.5 -93.5t96.5 -259.5q0 -113 -59.5 -224t-173.5 -234l-363 -393h253t184.5 1t124 3t71.5 8q4 -47 4 -75t-10 -50q-8 -23 -29.5 -30t-62.5 -7h-684q-10 18 -20.5 45t-10.5 55z" />
<glyph unicode="3" horiz-adv-x="917" d="M30 98q-3 23 19 82q33 -10 111 -25.5t176 -15.5q145 0 225 71t80 202q0 61 -20.5 109t-65.5 79t-120 41t-181 -2l-14 121q160 39 255 108.5t95 175.5q0 80 -49 120t-129 40q-49 0 -91 -9t-76 -20.5t-58.5 -20.5t-36.5 -9t-20.5 5t-23.5 24q-20 25 -20 40t16 29 q10 12 41 30.5t76 36t102.5 31t124.5 13.5q160 0 249 -74t89 -221q0 -53 -22.5 -102.5t-63.5 -91.5t-98 -74.5t-125 -51.5q78 0 143.5 -19.5t113.5 -61.5t75 -106.5t27 -152.5q0 -102 -35 -179t-98.5 -128t-150.5 -76.5t-194 -25.5q-123 0 -206.5 25.5t-104.5 47.5 q-12 12 -15 35z" />
<glyph unicode="4" horiz-adv-x="954" d="M37 377q0 20 3 41.5t15.5 58.5t38 97.5t70.5 160t112.5 245.5t165.5 355q8 20 32 25.5t81 -17.5q53 -25 66.5 -44t1.5 -42l-428 -833l335 4l15 297q6 78 112 78q61 0 62 -53l-4 -320q43 2 96 3t111 5q6 -74 4 -103.5t-17 -41.5q-20 -20 -194 -17q-2 -72 -1 -141t13 -133 q-16 -4 -47 -7t-64 -3q-49 0 -70.5 27.5t-19.5 74.5l4 182l-458 -2q-14 20 -24.5 47t-10.5 56z" />
<glyph unicode="5" horiz-adv-x="952" d="M70 96q0 23 18 82q10 -4 38 -10t66.5 -13.5t82.5 -12.5t87 -5q137 0 226.5 76t89.5 219q0 184 -133 240.5t-404 5.5q0 53 -1 133t-2 162t-1 153.5v110.5q0 29 5 50.5t18 33.5q14 14 29.5 18t41.5 4q236 0 373 -2t191 2q6 -35 6 -73q0 -49 -26.5 -67.5t-74.5 -18.5 q-25 0 -66.5 1t-91.5 2t-105.5 3t-106.5 4l-8 -367q117 16 217 5t173.5 -55t115.5 -125t42 -203q0 -111 -33.5 -196t-97 -143.5t-151.5 -89t-197 -30.5q-121 0 -204 25.5t-101 43.5q-16 14 -16 37z" />
<glyph unicode="6" d="M80 504q0 150 24.5 301t89 273t177 199t288.5 77q92 0 151.5 -16.5t82.5 -30.5q14 -8 17 -20.5t-5 -49.5q-6 -37 -17 -44t-26 -7q-16 0 -65 10t-131 10q-96 0 -169 -36.5t-123 -99t-80 -147.5t-40 -180l-18 -59l6 -4q49 88 131 130t172 42q72 0 142.5 -21.5t125.5 -70.5 t90 -126t35 -188q0 -115 -30.5 -200.5t-88 -143t-136.5 -85t-177 -27.5q-205 0 -315.5 125t-110.5 389zM272 430q0 -86 20.5 -142.5t54.5 -90t76 -47t85 -13.5q45 0 87 12.5t76 44t54 87t20 141.5q0 141 -62 213t-163 72q-51 0 -96 -19.5t-79 -54.5t-53.5 -87t-19.5 -116z " />
<glyph unicode="7" horiz-adv-x="856" d="M53 1272q0 41 10.5 56t38.5 15h693q16 -10 27.5 -35.5t11.5 -56.5q0 -23 -7.5 -49t-31 -86.5t-70.5 -168t-127 -288.5q-86 -190 -138 -309t-83 -189.5t-45.5 -105.5t-22.5 -61q-102 2 -138 21.5t-36 58.5q0 12 3 26.5t18.5 51t47.5 107.5t89 191.5t145 303t215 446.5 l-551 -8q-29 0 -39 15.5t-10 64.5z" />
<glyph unicode="8" horiz-adv-x="997" d="M72 303q0 68 23.5 126t62.5 107.5t91 88.5t107 67q-43 20 -87 52t-78.5 74t-56 94.5t-21.5 115.5q0 70 26.5 129.5t76.5 103.5t122 68.5t162 24.5q182 0 283.5 -89t101.5 -229q0 -59 -21.5 -110.5t-56.5 -91t-77 -69.5t-83 -46q57 -31 108.5 -71t89.5 -87t59.5 -103.5 t21.5 -121.5q0 -170 -107.5 -261t-318.5 -91q-209 0 -318.5 86t-109.5 233zM264 330q0 -92 62.5 -145.5t173.5 -53.5t173 54.5t62 152.5q0 92 -65.5 160.5t-180.5 128.5q-225 -121 -225 -297zM295 1012q0 -45 16.5 -79t46 -60.5t70.5 -50t88 -46.5q82 45 135.5 103.5 t53.5 142.5q0 86 -56.5 136t-148.5 50q-94 0 -149.5 -53t-55.5 -143z" />
<glyph unicode="9" horiz-adv-x="1019" d="M80 897q0 115 30.5 201t87 142t135.5 85t177 29q203 0 316.5 -126t111.5 -388q0 -98 -10 -200.5t-35 -197t-68 -177.5t-106.5 -143.5t-152.5 -96t-208 -35.5q-39 0 -77.5 4t-71.5 12t-57.5 18.5t-34.5 20.5q-14 16 -12.5 42t18.5 75q25 -6 91.5 -15.5t135.5 -9.5 q98 0 171 37t123 99.5t78 146.5t36 178l22 61l-6 5q-39 -78 -120 -125t-171 -47q-74 0 -145.5 21.5t-128.5 70.5t-93 125.5t-36 187.5zM272 922q0 -143 62.5 -214t163.5 -71q51 0 96 19.5t78 54t52 86t19 116.5q0 86 -20.5 142.5t-54 90.5t-75.5 47t-83 13q-45 0 -88 -12 t-76 -45t-53.5 -87t-20.5 -140z" />
<glyph unicode=":" horiz-adv-x="378" d="M84 123q0 94 141 94q31 0 50.5 -12t19.5 -51q0 -53 -5 -86t-19.5 -49.5t-38 -21.5t-60.5 -5q-51 0 -69.5 25.5t-18.5 105.5zM84 719q0 94 141 94q31 0 50.5 -12t19.5 -51q0 -53 -5 -86t-19.5 -49.5t-38 -21.5t-60.5 -5q-51 0 -69.5 25.5t-18.5 105.5z" />
<glyph unicode=";" horiz-adv-x="372" d="M49 -258q18 43 32.5 92t14.5 109q0 35 -5 81t-5 99q0 94 131 94q31 0 49.5 -12t18.5 -51q0 -100 -10.5 -173t-24.5 -123.5t-30.5 -80t-29.5 -41.5q-47 -43 -141 6zM80 719q0 94 141 94q31 0 50.5 -12t19.5 -51q0 -53 -5 -86t-19.5 -49.5t-38 -21.5t-60.5 -5 q-51 0 -69.5 25.5t-18.5 105.5z" />
<glyph unicode="&#x3c;" horiz-adv-x="886" d="M67 551.5q7 32.5 39 58.5l533 441q25 18 46.5 11t53.5 -48q29 -39 33 -62.5t-18 -40.5l-525 -393l529 -397q41 -31 -15 -101q-33 -41 -55 -48t-45 12l-571 465q-12 70 -5 102.5z" />
<glyph unicode="=" horiz-adv-x="886" d="M73 380.5q5 25.5 17 37.5q10 10 26.5 14t47.5 4h647q8 -70 4 -94.5t-16 -36.5q-10 -10 -27.5 -15t-48.5 -5h-647q-8 70 -3 95.5zM73 725.5q5 24.5 17 38.5q10 10 26.5 14t47.5 4h647q8 -70 4 -94t-16 -37q-10 -10 -27.5 -15t-48.5 -5h-647q-8 70 -3 94.5z" />
<glyph unicode="&#x3e;" horiz-adv-x="886" d="M129 913q-43 29 14 101q33 41 54.5 48t44.5 -11l573 -465q12 -70 5 -102.5t-40 -59.5l-534 -438q-23 -20 -44.5 -13t-56.5 47q-55 74 -14 103l524 393z" />
<glyph unicode="?" horiz-adv-x="733" d="M50.5 1348.5q2.5 15.5 12.5 25.5q8 8 31 21.5t56.5 27t77.5 22.5t100 9q166 0 259 -80.5t93 -240.5q0 -84 -29.5 -148.5t-72.5 -122t-92.5 -114t-88.5 -123.5q-16 -29 -22 -71t-6 -86t5 -85t11 -68l-147 -10q-10 37 -18.5 85t-8.5 98.5t10 100.5t33 93q37 63 77 117.5 t74.5 105.5t57 102.5t22.5 112.5q0 102 -54 143.5t-128 41.5q-84 0 -133 -21.5t-68 -21.5q-10 0 -18 6t-18 30q-18 35 -15.5 50.5zM223 113q0 86 131 86q29 0 47.5 -11.5t18.5 -46.5q0 -49 -5 -78.5t-17.5 -45t-35 -20.5t-57.5 -5q-47 0 -64.5 23.5t-17.5 97.5z" />
<glyph unicode="@" horiz-adv-x="1908" d="M106 375q0 258 77 447.5t210 314.5t311.5 186t378.5 61q162 0 295 -39.5t227.5 -118.5t145.5 -196t51 -270q0 -338 -163.5 -519.5t-493.5 -181.5q-47 0 -64.5 13.5t-17.5 38.5q0 23 10 63.5t25 83.5q14 49 35 107l-5 4q-70 -168 -151.5 -241t-185.5 -73q-111 0 -176.5 76 t-65.5 244q0 129 30.5 236.5t89 185t142.5 121t190 43.5q37 0 72 -4.5t63.5 -10.5t49 -11t28.5 -7q6 23 36 30t83 7q45 0 45 -31q0 -10 -5 -32.5t-17.5 -78t-32.5 -155t-51 -265.5q-10 -55 -17.5 -92t-10.5 -59.5t-5 -34.5t-2 -18q86 6 158.5 41.5t126 104.5t83 171 t29.5 240q0 240 -144 360.5t-407 120.5q-162 0 -308 -52t-257.5 -158.5t-177.5 -268.5t-66 -381q0 -178 53.5 -290t139.5 -176.5t194.5 -88t217.5 -23.5q61 0 117.5 5.5t98.5 11.5t68.5 12t30.5 6q20 -59 20 -82.5t-14 -40.5q-23 -23 -117 -40t-223 -17q-135 0 -269 29.5 t-241.5 109.5t-175.5 220.5t-68 361.5zM721 383q0 -98 32.5 -141t98.5 -43q55 0 102 38.5t87 106.5t71 160t55 201l23 104q-23 4 -66 12t-94 8q-90 0 -149.5 -44t-94 -110.5t-50 -144t-15.5 -147.5z" />
<glyph unicode="A" horiz-adv-x="1163" d="M12 40q-1 6 -1 13q0 15 7 37l428 1225q6 20 17.5 35.5t32 23.5t53.5 12.5t84 4.5q37 0 56.5 -10.5t29.5 -39.5l426 -1249q8 -25 8 -42q0 -5 -1 -9q-3 -18 -15 -31q-6 -6 -14.5 -10t-26 -5t-47 -1t-78.5 2l-121 377h-545l-119 -377q-47 -2 -74.5 -2t-45 1t-25.5 5t-14 10 q-11 12 -15 30zM348 520h461l-209 629l-22 90l-25 -90z" />
<glyph unicode="B" horiz-adv-x="1099" d="M139 20q2 111 4 234q2 104 3 233t1 258q0 61 -1 148.5t-2 176.5t-1 170v132q33 4 76 8t91 7.5t98.5 5.5t97.5 2q223 0 348 -84t125 -275q0 -61 -20.5 -112.5t-53.5 -90t-71.5 -63.5t-77.5 -33q39 -6 85 -28.5t85 -62.5t65.5 -100.5t26.5 -144.5q0 -121 -41 -200.5 t-108.5 -126.5t-154.5 -65.5t-182 -18.5q-66 0 -129 3t-117.5 8t-93 10t-53.5 9zM328 154q39 -4 86 -6.5t98 -2.5q55 0 111.5 9.5t101.5 37t73.5 77.5t28.5 132q0 80 -27.5 130.5t-72.5 78t-104.5 37.5t-122.5 10q-27 0 -55.5 -1t-53.5 -1q-29 -2 -57 -2q0 -174 -1 -272 t-3 -150q-2 -59 -2 -77zM332 797q2 0 20.5 -1t44 -1t57 -1t60.5 -1q143 0 211 56t68 167q0 63 -22.5 106t-63.5 69t-98.5 37t-127.5 11q-35 0 -74.5 -1t-68.5 -5v-68q0 -45 -2 -130.5t-4 -237.5z" />
<glyph unicode="C" horiz-adv-x="1067" d="M92 664q0 379 163 557t458 178q43 0 87 -6.5t82 -16.5t64.5 -21.5t36.5 -19.5q17 -17 17 -41t-25 -84q-16 4 -80 19.5t-158 15.5q-217 0 -331.5 -141t-114.5 -440q0 -268 116.5 -395.5t346.5 -127.5q86 0 148.5 11.5t92.5 19.5q19 -55 19 -79t-17 -38q-25 -27 -107.5 -47 t-187.5 -20q-141 0 -254.5 40t-192.5 122.5t-121 209.5t-42 304z" />
<glyph unicode="D" horiz-adv-x="1255" d="M139 25q2 127 4 256q2 111 3 237.5t1 237.5q0 61 -1 146t-2 172t-1 167v131q23 4 63 8t90 7.5t107.5 5.5t112.5 2q156 0 275.5 -38t202.5 -121t126 -213t43 -314q0 -190 -43 -325.5t-125 -223.5t-203.5 -129t-277.5 -41q-31 0 -84 3t-109.5 7t-106.5 11t-75 14zM332 154 q29 -4 74 -6.5t104 -2.5q104 0 189 30t144.5 96.5t91.5 173t32 262.5q0 150 -33 252t-93.5 164.5t-144.5 89t-188 26.5h-101.5t-68.5 -2q0 -35 -1 -115t-2 -184t-1 -222t-1 -226.5t-1 -198.5v-137z" />
<glyph unicode="E" horiz-adv-x="1021" d="M139 0q0 160 2 303q0 61 1 126t2 124t1 110.5v86.5v224t-1 177t-2 136.5t-1 101.5h787q3 -49 3 -76q0 -13 -1 -21q-2 -24 -15 -37q-8 -10 -22 -13t-47 -3l-506 2l-6 -450h534v-144h-534l2 -497h252t169.5 2t107.5 6t69 12l5 -40t3 -54q0 -39 -23.5 -57.5t-78.5 -18.5 h-701z" />
<glyph unicode="F" horiz-adv-x="970" d="M139 -10q0 162 2 307q0 61 1 125.5t2 124t1 111v85.5q0 266 -2 424t-2 222h787q3 -49 3 -76q0 -13 -1 -21q-2 -24 -15 -37q-8 -10 -22 -13t-47 -3l-506 2l-6 -467h520v-145h-520l2 -629z" />
<glyph unicode="G" horiz-adv-x="1224" d="M92 664q0 379 167 557t486 178q111 0 194 -21.5t105 -44.5q18 -18 18 -42q0 -23 -18 -83q-35 10 -109.5 23.5t-166.5 13.5q-242 0 -360.5 -141t-118.5 -440q0 -272 115.5 -397.5t343.5 -125.5q55 0 104 6.5t59 8.5l2 407l-204 -2q-3 38 -3 64q0 30 4 45q7 26 25 37 q8 6 23.5 9t52.5 4h28q32 0 77 -1q69 -2 184 -4v-686q-23 -6 -66 -13.5t-97 -13.5t-115.5 -10t-119.5 -4q-289 0 -449.5 162.5t-160.5 513.5z" />
<glyph unicode="H" horiz-adv-x="1292" d="M139 -10q0 121 2 248q2 111 3 244.5t1 262.5v145.5t-1 167.5t-1 152.5v104.5q0 39 29 57.5t109 18.5q31 0 46 -11.5t13 -42.5l-6 -549h624q0 182 -2 324.5t-2 202.5q0 39 29 57.5t109 18.5q31 0 46 -11.5t15 -42.5q0 -86 -4 -246.5t-4 -357.5q0 -131 -1 -262t-1 -235 v-236l-193 -10q2 96 4 203q2 92 2 206.5t2 237.5h-624v-637z" />
<glyph unicode="I" horiz-adv-x="483" d="M141 -10q2 123 4 250q2 111 3.5 242.5t1.5 258.5q0 70 -1.5 155t-1.5 167t-1 149.5t-1 102.5q0 39 28 57.5t110 18.5q29 0 44 -11.5t15 -42.5q0 -47 -1 -129t-3 -177t-3 -192.5t-1 -170.5v-668z" />
<glyph unicode="J" horiz-adv-x="606" d="M19 66q-1 6 -1 15q0 23 7 64q16 -4 46.5 -6t59.5 -2q72 0 107.5 33t35.5 123l-6 1022q0 39 29 57.5t109 18.5q31 0 46 -11.5t15 -40.5l-14 -1052q-2 -141 -62.5 -218t-202.5 -77q-68 0 -105.5 13t-47.5 24q-12 14 -16 37z" />
<glyph unicode="K" horiz-adv-x="1146" d="M139 -10q2 123 4 250q2 111 3 242.5t1 258.5q0 70 -1 156t-1 169t-1 150.5t-1 98.5q0 39 28 57.5t110 18.5q29 0 45 -11.5t14 -42.5q0 -92 -1 -200.5t-3 -204.5q-2 -113 -4 -225l-19 -43l4 -9l584 717q14 20 43 24h8q28 0 74 -20q49 -23 53 -44t-16 -46l-426 -498 q106 -160 181 -272.5l126 -189t84 -123.5t54.5 -75t34.5 -43t26 -28q-71 -73 -135 -73h-2q-25 0 -53.5 11t-51.5 50l-385 614l-182 -210l-2 -449z" />
<glyph unicode="L" horiz-adv-x="927" d="M139 0q0 37 1 127t3 210t3 256t1 261q0 70 -1 137.5t-1 128t-1 110.5t-1 85q0 39 28 57.5t110 18.5q29 0 44 -11.5t15 -42.5l-10 -1183h236.5t163 2t106.5 6t67 10q2 -14 6 -41t4 -55q0 -76 -102 -76h-672z" />
<glyph unicode="M" horiz-adv-x="1683" d="M55 96l230 1231q8 39 44 53.5t134 14.5q47 0 67.5 -11.5t26.5 -33.5l256 -963l31 -207l37 207l243 940q4 18 12.5 31.5t28 22t51 11.5t84.5 3q49 0 71 -10.5t26 -32.5l231 -1243q4 -25 4 -45q0 -35 -14 -50q-12 -12 -46 -18q-17 -3 -49 -3t-79 3l-178 1104l-11 121 l-315 -1223l-213 -14l-287 1116l-14 121l-201 -1225q-47 -4 -75.5 -4t-45 2t-24.5 6t-14 10q-14 14 -14 49q0 17 3 37z" />
<glyph unicode="N" horiz-adv-x="1288" d="M139 -10q2 123 4 254q2 111 3 247t1 265q0 61 -1 145t-1 166t-1 149.5t-1 98.5q0 76 138 76q35 0 53 -27l649 -1085q-6 31 -14 80t-8 102v121.5t-1.5 166t-1.5 182.5t-1 172t-1 136v76q0 39 29 57.5t102 18.5q31 0 46.5 -11.5t15.5 -42.5q0 -8 -1 -47t-1 -97t-2 -129 t-2 -142.5t-1 -138t-1 -115.5v-668l-189 -10l-647 1061q4 -25 10 -58q4 -29 8.5 -65.5t4.5 -79.5v-848z" />
<glyph unicode="O" horiz-adv-x="1333" d="M92 690q0 178 41 311.5t116 221.5t180.5 132t236.5 44t236.5 -44t181 -132t116.5 -221.5t41 -311.5t-41 -310t-116.5 -220t-181 -132t-236.5 -44t-236.5 44t-180.5 132t-116 220t-41 310zM289 690q0 -276 103.5 -414.5t273.5 -138.5q174 0 275 137.5t101 415.5 q0 281 -101 418t-275 137q-172 0 -274.5 -137t-102.5 -418z" />
<glyph unicode="P" horiz-adv-x="1042" d="M139 -10l4 266q2 115 3 248t1 250q0 78 -1 167t-2 174t-2 158.5t-1 118.5q66 10 168.5 16.5t202.5 6.5q104 0 189 -23.5t145.5 -75t92.5 -133.5t32 -198q0 -123 -34 -206t-93.5 -134.5t-139 -74t-169.5 -22.5q-53 0 -105.5 8.5t-97.5 18.5v-555zM332 690q37 -6 81 -11 t91 -5q55 0 104 13t86 46t58.5 89.5t21.5 140.5q0 82 -21.5 136t-58.5 86t-86 45t-106 13q-70 0 -107 -2t-57 -6q0 -43 -1 -108.5t-2 -140.5t-2 -151.5t-1 -144.5z" />
<glyph unicode="Q" horiz-adv-x="1333" d="M92 690q0 178 41 311.5t116 221.5t180.5 132t236.5 44t236.5 -44t181 -132t116.5 -221.5t41 -311.5q0 -156 -32.5 -273.5t-86 -200.5t-124 -133t-146.5 -73q39 -57 66.5 -95t48 -63.5t37 -42t34.5 -32.5q-61 -74 -123 -74q-25 0 -45 10.5t-45.5 40t-60.5 85t-86 145.5 h-12q-131 0 -236.5 44t-180.5 132t-116 220t-41 310zM289 690q0 -276 103.5 -414.5t273.5 -138.5q174 0 275 137.5t101 415.5q0 281 -101 418t-275 137q-172 0 -274.5 -137t-102.5 -418z" />
<glyph unicode="R" horiz-adv-x="1062" d="M139 -10q2 133 4 268q2 117 3 251t1 251q0 76 -1 165t-2 173t-1 156.5v117.5q66 10 160 16.5t195 6.5q104 0 194 -19.5t155.5 -66.5t102.5 -125t37 -195q0 -94 -25.5 -162.5t-67.5 -114.5t-97.5 -71t-114.5 -31q100 -170 160.5 -272t97.5 -159.5t57.5 -84t36.5 -45.5 q-35 -35 -67.5 -48t-69.5 -13q-35 2 -62.5 20.5t-50.5 59.5l-278 514h-62h-56.5t-53.5 2v-584zM334 725q41 -2 81 -2h85q68 0 122 12.5t92 43t59.5 82.5t21.5 130q0 80 -27 129t-70 77t-98 37t-113 9q-59 0 -92 -1t-55 -3q0 -45 -1 -105.5t-2 -129t-2 -140t-1 -139.5z" />
<glyph unicode="S" horiz-adv-x="1019" d="M113 205q78 -25 161.5 -45.5t192.5 -20.5q123 0 193.5 53.5t70.5 178.5q0 84 -47 132t-117.5 83t-153.5 64.5t-154 75.5t-118 117.5t-47 190.5q0 180 115 272.5t313 92.5q66 0 123 -10.5t102.5 -25.5t76 -31.5t40.5 -26.5q16 -16 12 -41t-30 -72q-39 10 -120 33.5 t-185 23.5q-127 0 -188.5 -58t-61.5 -151q0 -82 47 -129t118.5 -80.5t153.5 -63.5t154 -75t119 -115.5t47 -187.5q0 -188 -105.5 -293.5t-332.5 -105.5q-74 0 -139.5 9t-117 23.5t-86 31t-49.5 28.5q-11 13 -11 39q0 31 24 84z" />
<glyph unicode="T" horiz-adv-x="1071" d="M15 1334q3 24 16 36q10 10 30.5 14.5t67.5 4.5h924q4 -52 4 -80q0 -13 -1 -21q-3 -24 -16 -37q-10 -10 -30.5 -14t-67.5 -4l-311 2v-294v-289.5t1 -307.5t3 -344l-199 -10q2 186 3 370.5t1 349t-1 300t-1 225.5l-422 -2q-2 45 -2 71q0 20 1 30z" />
<glyph unicode="U" horiz-adv-x="1271" d="M131 1315q0 39 28.5 57.5t108.5 18.5q31 0 46.5 -11.5t15.5 -42.5q0 -27 -1 -87t-1 -138t-2 -166t-2 -171t-1 -152.5t-1 -108.5q0 -86 15 -155.5t51 -119t95.5 -75t149.5 -25.5t150.5 25.5t97.5 75t53 119t16 155.5q0 41 -1 110.5t-1 152.5t-2 169t-2 162t-1 131t-1 76 q0 39 28.5 57.5t108.5 18.5q31 0 46.5 -11.5t15.5 -42.5q0 -39 -1 -105.5t-1 -170t-1 -247.5t-1 -339q0 -242 -128 -363.5t-376 -121.5q-246 0 -372 123t-126 364q0 375 -2 575.5t-2 262.5z" />
<glyph unicode="V" horiz-adv-x="1087" d="M23 1300q-5 17 -5 31q0 25 17 39q26 21 123 21q33 0 45 -11.5t22 -48.5l320 -1138l332 1132q4 18 12 30.5t23.5 20.5t43 11.5t72.5 3.5q37 1 44 -21q3 -9 3 -21q0 -16 -6 -38l-426 -1307q-41 -6 -80 -12q-35 -4 -73 -6h-19q-27 0 -49 4z" />
<glyph unicode="W" horiz-adv-x="1691" d="M27 1300q-4 16 -4 28q-1 27 17 42q26 21 120 21q35 0 49 -11.5t20 -48.5l248 -1138l236 1112q8 41 39.5 63.5t113.5 22.5q43 0 60.5 -9.5t23.5 -44.5l248 -1144l285 1124q4 20 11 34.5t23.5 23.5t44 12.5t72.5 3.5q36 1 44 -21q3 -9 4 -20q0 -16 -7 -37l-379 -1309 q-41 -6 -79 -12q-35 -4 -74 -6h-19q-28 0 -55 4q-66 281 -119 512q-23 98 -44 195.5t-39.5 179t-30 141t-13.5 82.5q-2 -23 -14 -81t-29.5 -140t-39 -178.5t-44.5 -192.5q-53 -229 -116 -504q-47 -6 -88 -12q-37 -4 -75 -6h-18q-27 0 -49 4z" />
<glyph unicode="X" horiz-adv-x="1054" d="M12 1331q37 35 73 50.5t67 15.5q23 0 45 -8.5t41 -36.5l292 -508l310 520q16 27 44 31q5 1 13 1q28 0 78 -14q47 -14 53 -34.5t-18 -59.5l-369 -583q78 -137 134 -235.5t96 -165t66 -108.5t43 -68t29.5 -41t26.5 -30q-69 -69 -133 -69h-2q-25 0 -49.5 9t-40.5 42 l-285 526l-309 -549q-16 -28 -47 -30h-8q-30 0 -78 16q-47 16 -53 35.5t18 58.5l367 613q-82 135 -140.5 229t-99.5 158.5t-66.5 104.5t-43 63.5t-29.5 38t-25 28.5z" />
<glyph unicode="Y" horiz-adv-x="1040" d="M26 1368q27 23 121 23q35 0 48.5 -10.5t27.5 -49.5l309 -688l304 686q6 18 15 29.5t24.5 18.5t41 10.5t64.5 3.5q35 0 44 -21q3 -8 3 -18q0 -17 -10 -39l-400 -836q-2 -84 -2 -168t-2 -153q-2 -82 -2 -156l-194 -10q0 51 2 121q2 59 3 150t1 214l-397 811q-15 30 -15 51 q0 20 14 31z" />
<glyph unicode="Z" horiz-adv-x="1009" d="M61 115q0 23 5.5 46t28 66t65.5 115t118.5 188.5t188.5 289.5t274 419l-622 -2q-29 0 -38 14.5t-9 65.5q0 47 10 59.5t39 12.5h788q10 -12 21.5 -41t11.5 -60q0 -29 -7 -57.5t-29.5 -75.5t-67.5 -119.5t-121 -189.5t-188.5 -287t-270.5 -409h303t193.5 2t114.5 6t69 12 l5 -40t3 -54q0 -39 -23.5 -57.5t-78.5 -18.5h-742q-41 41 -41 115z" />
<glyph unicode="[" horiz-adv-x="454" d="M90 -377q2 203 4 391q0 80 1 166t2 168t1 157v134v191.5t-1 209t-2 206t-2 183t-1 142v80.5h350v-144l-166 4q-2 -176 -2 -340q0 -70 -1 -143.5t-1 -144v-133v-111.5v-524q0 -168 2 -353l168 2v-141h-352z" />
<glyph unicode="\" horiz-adv-x="745" d="M12 1421q16 4 52 7.5t59 3.5q61 0 82 -60q117 -358 198.5 -607t136 -414t86 -260t49 -146t26 -70.5t16.5 -34.5q-4 0 -18.5 -1t-31 -3t-34 -3t-29.5 -1q-59 0 -80 59q-121 362 -203.5 613.5t-138 417t-87.5 260t-48 143.5t-22.5 66.5t-12.5 29.5z" />
<glyph unicode="]" horiz-adv-x="454" d="M12 -236l168 -2v353v146.5t1 144t1 130v103.5v111.5t-1 133t-1 144.5v143q-2 164 -2 340l-166 -4v144h350v-80t-1 -142.5t-2 -183t-2 -206t-1 -209v-191.5v-134t1 -157t2 -168t1 -166q2 -188 5 -391h-353v141z" />
<glyph unicode="^" horiz-adv-x="815" d="M43 772q0 14 6 33.5t14 36.5q94 188 148.5 297.5t88.5 166t56.5 72t51.5 15.5q31 0 52 -15.5t55 -72t88 -166t149 -297.5q10 -16 16 -36t6 -34q0 -27 -24.5 -43t-77.5 -12l-264 454l-263 -454q-53 -4 -77.5 12t-24.5 43z" />
<glyph unicode="_" horiz-adv-x="1024" d="M4 -276.5q4 24.5 16 36.5q10 10 28 15.5t48 5.5h922q6 -72 2 -96.5t-16 -36.5q-18 -18 -76 -19h-922q-6 70 -2 94.5z" />
<glyph unicode="`" horiz-adv-x="512" d="M80 1358q45 35 70.5 49t54.5 14q20 0 38.5 -7t42 -32.5t58.5 -73.5t90 -130q-27 -23 -44 -34t-40 -11q-18 0 -34.5 6t-44 29.5t-72.5 67.5t-119 122z" />
<glyph unicode="a" horiz-adv-x="1034" d="M80 477q0 141 31.5 240.5t89 162t133.5 92t166 29.5q76 0 136 -17t95 -36q12 29 43 41t78 12q57 0 57 -53q0 -16 -1 -50t-3 -81t-3 -105.5t-1 -119.5v-276.5t1 -166t4 -92t9 -57.5q-20 -4 -54 -6t-62 -2q-83 0 -83 91q0 21 5 48l20 45l-4 6q-25 -35 -58.5 -69.5 t-75.5 -62t-91 -45t-104 -17.5q-176 0 -252 129t-76 360zM268 483q0 -188 50.5 -268t152.5 -80q37 0 76 16.5t73.5 40t61.5 50t39 49.5q-2 90 -2 177t1 159.5t2 125t3 72.5q-39 18 -88 27.5t-102 9.5q-57 0 -105.5 -16.5t-84.5 -58.5t-56.5 -115.5t-20.5 -188.5z" />
<glyph unicode="b" horiz-adv-x="1021" d="M119 37q6 80 7 178t1 217v135t-1 170t-1 185.5t-1 185.5t-1 170v135q0 74 143 74q55 0 56 -51q0 -23 -1.5 -93.5t-4.5 -155.5t-6 -171t-5 -139l-20 -48l6 -6q25 31 57.5 63t74.5 57.5t90 41.5t103 16q174 0 250 -128t76 -359q0 -141 -34 -241.5t-92 -163t-138 -92 t-172 -29.5q-117 0 -215 15.5t-172 33.5zM297 152q47 -10 94 -17.5t98 -7.5q57 0 105.5 16.5t84.5 58.5t55.5 115.5t19.5 188.5q0 193 -54.5 270.5t-146.5 77.5q-68 0 -132.5 -44t-113.5 -95q1 -90 1 -162.5t-1 -127.5q-2 -110 -4 -171q-4 -72 -6 -102z" />
<glyph unicode="c" horiz-adv-x="800" d="M76 481q0 143 32.5 242.5t91 161t137.5 89t171 27.5q80 0 140.5 -22.5t84.5 -48.5q18 -18 18 -40t-26 -67q-29 8 -77 22.5t-111 14.5q-59 0 -109.5 -19.5t-86.5 -64.5t-56.5 -117t-20.5 -178q0 -104 21.5 -172.5t59.5 -108.5t88 -55.5t110 -15.5q72 0 118 12.5t74 24.5 q24 -45 24 -68t-18 -41t-78.5 -43.5t-170.5 -25.5q-92 0 -169 27.5t-131.5 88t-85 153.5t-30.5 224z" />
<glyph unicode="d" horiz-adv-x="1032" d="M80 477q0 141 30.5 240.5t87 163t134.5 92t174 28.5q27 0 57.5 -4t60 -9t54 -12t41.5 -13l-8 450q0 39 33.5 56.5t109.5 17.5q55 0 55 -51q0 -45 -2 -120t-3 -173.5t-3 -218t-2 -250.5v-321t1 -188.5t4 -103t9 -61.5q-20 -4 -54 -6t-62 -2q-83 0 -83 91q0 21 5 48l20 45 l-4 6q-25 -35 -57.5 -68.5t-74.5 -62t-92 -46t-105 -17.5q-174 0 -250 128t-76 361zM268 483q0 -188 50.5 -268t150.5 -80q41 0 80 16.5t71.5 41t57 52t39.5 52.5v60v100.5t1 118t2 114.5t2 92t1 49q-31 10 -88 20.5t-100 10.5q-57 0 -106.5 -16.5t-84.5 -58.5t-55.5 -115.5 t-20.5 -188.5z" />
<glyph unicode="e" horiz-adv-x="956" d="M76 455q0 137 33.5 240.5t93 171t140.5 101t177 33.5q86 0 154.5 -22.5t117 -74.5t74 -135t25.5 -202q0 -53 -24.5 -73.5t-78.5 -20.5h-113.5h-146t-146.5 1t-116 1v-18q0 -91 18 -151q20 -66 60.5 -105t98 -54.5t128.5 -15.5q88 0 162 18.5t105 28.5q18 -51 18 -69.5 t-14 -32.5q-29 -29 -104.5 -57.5t-205.5 -28.5q-102 0 -186 27.5t-144.5 85t-93 145.5t-32.5 207zM268 582l451 4q1 14 1 27q0 125 -52 187q-56 68 -148 68q-53 0 -97 -22.5t-77 -61.5t-53.5 -91t-24.5 -111z" />
<glyph unicode="f" horiz-adv-x="577" d="M12 947q2 26 15 38q6 6 13 10t22.5 5t40 1t65.5 -2l-2 213q-2 274 258 275q70 0 127 -19.5t74 -35.5q16 -16 16 -36t-20 -67q-14 4 -61.5 12.5t-102.5 8.5q-53 0 -82 -32t-29 -104v-217l244 7q4 -44 4 -72v-16q-2 -29 -16 -42q-6 -6 -16.5 -9t-35.5 -4q-12 -1 -29 -1 t-38 1q-43 1 -115 5v-97v-127t1 -142.5t1 -145.5q0 -168 2 -354l-182 -10v232.5t1 235t1 220v186.5l-148 -4q-8 51 -8 77v10z" />
<glyph unicode="g" horiz-adv-x="1024" d="M80 477q0 106 23.5 202.5t74.5 167.5t129 112.5t187 41.5q29 0 61.5 -4t65 -10t60.5 -15.5t46 -17.5q16 29 47 38t76 9q55 0 55 -51q0 -41 -1 -74.5t-2 -70.5t-2 -84t-1 -111q0 -233 3 -417.5t3 -292.5q0 -203 -92 -288t-278 -85q-74 0 -137.5 9t-111.5 21.5t-79 27 t-41 24.5q-15 13 -15 37q0 23 15 73q16 -4 50 -11t80 -16t98 -15.5t106 -6.5q221 0 221 206v7l-4 236l22 53l-6 8q-47 -80 -129 -136t-194 -56q-72 0 -132.5 21.5t-104.5 76.5t-68.5 150.5t-24.5 240.5zM268 483q0 -104 14.5 -171.5t40 -106.5t62.5 -54.5t82 -15.5 q35 0 73 16.5t72.5 41t62 54t44.5 58.5q-2 111 -2 205t2 164q2 82 4 149q-35 16 -90 27.5t-98 11.5q-127 0 -197 -85t-70 -294z" />
<glyph unicode="h" horiz-adv-x="1054" d="M119 -10q2 156 4 309q0 66 1 136.5t2 140t1 136v124.5q0 66 -1 149.5t-1 164.5t-1 151.5t-1 111.5q0 37 31.5 55.5t103.5 18.5q55 0 55 -51q0 -35 -1 -111t-3 -161t-4 -163.5t-4 -121.5l-18 -50l6 -4q78 76 165 126t197 50q141 0 211 -86t70 -251q0 -199 -1 -316 t-1 -184.5t3 -100t9 -63.5q-16 -4 -47 -5t-61 -1q-49 0 -70 27.5t-21 70.5v531q0 123 -35.5 177t-121.5 54q-74 0 -145.5 -43t-139.5 -109v-702z" />
<glyph unicode="i" horiz-adv-x="444" d="M123 1268q0 80 135 80q33 0 48.5 -11.5t15.5 -42.5q0 -49 -5.5 -77.5t-18.5 -44t-35.5 -19.5t-59.5 -4q-47 0 -63.5 22.5t-16.5 96.5zM125 926q0 35 28.5 55t100.5 20q59 0 59 -51q0 -113 -1 -240.5t-1 -253.5v-244v-212l-184 -10v121t1 185t1 204.5v179.5q0 66 -2 128 t-2 118z" />
<glyph unicode="j" horiz-adv-x="440" d="M-113 -391q18 6 43 16t51.5 24.5t51 31t43.5 34.5q16 16 27.5 35t17.5 47.5t8 70.5t2 107l-6 951q-4 75 126 75h3q59 0 59 -51l-2 -1030q0 -129 -28.5 -195.5t-69.5 -105.5q-29 -29 -65.5 -48.5t-73.5 -31.5t-70 -17t-53 -5q-23 0 -36.5 18.5t-27.5 73.5zM119 1268 q0 80 135 80q33 0 48 -11.5t15 -42.5q0 -49 -5 -77.5t-17 -44t-35.5 -19.5t-60.5 -4q-47 0 -63.5 22.5t-16.5 96.5z" />
<glyph unicode="k" horiz-adv-x="911" d="M119 -8q4 102 8 279.5t4 404.5q0 293 -4 479t-4 258q0 37 37 55.5t104 18.5q57 0 58 -51q0 -31 -1.5 -79t-3.5 -138.5t-5 -233.5t-9 -364l-18 -35l4 -6l405 417q16 18 42 15.5t65 -33.5q42 -30 42 -56q0 -15 -14 -28l-294 -285q113 -180 178 -282.5t102 -157.5 t55.5 -77.5t36.5 -41.5q-29 -31 -58.5 -49t-70.5 -18q-35 0 -61.5 18t-59.5 72l-247 432l-107 -103q0 -127 -1 -204.5t-3 -122.5q-2 -53 -4 -76z" />
<glyph unicode="l" horiz-adv-x="471" d="M119 1413q0 74 135 74q55 0 55 -51q0 -74 -1 -195t-2 -278.5t-3 -347t-2 -402.5q0 -59 21 -80q18 -16 53 -20q18 -2 40.5 -2t49.5 2q6 -36 6 -54v-9q-2 -18 -16 -30q-10 -12 -46 -19t-73 -7q-121 0 -168 45t-47 143q0 78 2 221.5t2 335.5q0 98 -1 198.5t-2 191t-2 164 t-1 120.5z" />
<glyph unicode="m" horiz-adv-x="1599" d="M119 926q0 75 137 75h4q25 0 34 -15t9 -38q0 -27 -2 -53.5t-8 -65.5l6 -4q78 76 160 126t178 50q92 0 153.5 -47t86.5 -143q74 86 154.5 138t178.5 52q129 0 197 -79.5t68 -257.5q0 -199 -1 -316v-104v-80q1 -68 4 -100.5t9 -63.5q-14 -4 -46 -5t-63 -1q-47 0 -68.5 27.5 t-21.5 70.5l2 531q0 125 -31.5 178t-111.5 53q-57 0 -125 -42t-129 -116v-696l-176 -10v633q0 125 -33 178t-111 53q-59 0 -128.5 -43t-135.5 -109v-702l-186 -10q2 154 2 295v274q0 131 -3 225.5t-3 141.5z" />
<glyph unicode="n" horiz-adv-x="1062" d="M119 926q0 75 137 75h4q25 0 34 -14t9 -39q0 -27 -3 -55.5t-7 -63.5l6 -4q31 31 70 62t84 56.5t97 41.5t109 16q141 0 211 -86t70 -251q0 -199 -1 -316t-1 -184.5t3 -100t9 -63.5q-16 -4 -46.5 -5t-61.5 -1q-49 0 -69.5 27.5t-20.5 70.5v531q0 123 -37 177t-119 54 q-70 0 -144.5 -46t-142.5 -106v-702l-186 -10q0 61 1 134t1 149.5v155.5v153q0 115 -3 206t-3 138z" />
<glyph unicode="o" d="M76 496q0 135 32.5 230t91 156.5t137.5 90t173 28.5q92 0 172 -28.5t137.5 -90t90 -156.5t32.5 -230q0 -133 -32.5 -229.5t-90 -158t-136.5 -90t-173 -28.5t-173 28.5t-137.5 90t-91 157.5t-32.5 230zM260 496q0 -186 66.5 -277.5t183.5 -91.5t182.5 91.5t65.5 277.5 t-65.5 277t-182.5 91t-183.5 -91t-66.5 -277z" />
<glyph unicode="p" horiz-adv-x="1024" d="M119 -383q2 209 4 359.5t3 263t1 198.5v166q0 41 -1 90t-2 95.5t-2 83t-1 53.5q0 75 133 75h4q25 0 35 -15t10 -40t-3 -51.5t-9 -63.5l6 -6q25 33 57.5 65t73.5 56.5t88 39.5t100 15q172 0 250 -124.5t78 -364.5q0 -141 -31.5 -240.5t-87 -163t-131.5 -92t-164 -28.5 q-72 0 -128 11t-99 24q0 -129 1 -211t3 -136.5t5 -87t10 -63.5q-16 -4 -52.5 -5t-66.5 -1q-47 0 -65.5 27.5t-18.5 70.5zM297 152q47 -10 99 -17.5t93 -7.5q57 0 106.5 16.5t85.5 59.5t55.5 115.5t19.5 187.5q0 98 -14.5 164.5t-41 107.5t-64.5 58.5t-83 17.5 q-31 0 -65.5 -14.5t-68.5 -35t-63.5 -45t-50.5 -44.5q0 -172 -1 -280.5t-3 -172.5q-2 -74 -4 -110z" />
<glyph unicode="q" horiz-adv-x="1032" d="M80 477q0 141 31.5 240.5t89 162t133.5 92t166 29.5q76 0 136 -17t95 -36q12 29 43 41t78 12q57 0 57 -53q0 -16 -1 -56t-3 -94.5t-3 -122t-1 -138.5v-365v-257t1 -172t2 -109t3 -65.5t6 -43.5q-16 -4 -46.5 -5t-61.5 -1q-47 0 -68.5 27.5t-21.5 70.5v50t1 94.5t2 116 t2 114.5t1 91v44l16 41l-6 6q-25 -33 -56.5 -65.5t-72.5 -59t-90 -44t-104 -17.5q-176 0 -252 129t-76 360zM268 483q0 -188 50.5 -268t152.5 -80q37 0 76 16.5t73.5 40t61.5 50t39 49.5q-2 90 -2 177t1 159.5t2 125t3 72.5q-39 18 -88 27.5t-102 9.5q-57 0 -105.5 -16.5 t-84.5 -58.5t-56.5 -115.5t-20.5 -188.5z" />
<glyph unicode="r" horiz-adv-x="671" d="M119 926q0 75 137 75h4q25 0 34 -14t9 -39q0 -27 -2 -56.5t-8 -70.5l4 -6q63 86 137 136t139 50q61 0 80 -18q11 -11 17 -37q2 -9 2 -25q0 -28 -6 -79q-24 2 -46 2q-85 0 -150 -30q-81 -38 -161 -112v-702l-186 -10q3 174 3 312v68q-1 162 -1 292q0 27 -1 62.5t-2 72.5 t-2 70.5t-1 58.5z" />
<glyph unicode="s" horiz-adv-x="774" d="M63 101q0 23 17 69q53 -16 124.5 -29.5t153.5 -13.5q76 0 123 38t47 109q0 55 -33.5 86t-86 53.5t-111.5 42t-111.5 51.5t-86 83t-33.5 137q0 131 83.5 202.5t231.5 71.5q104 0 178 -27.5t98 -49.5q10 -10 10 -30q0 -27 -20 -73q-12 4 -37.5 11.5t-58.5 15.5t-71 13 t-77 5q-76 0 -113.5 -34.5t-37.5 -98.5q0 -51 33.5 -79.5t86 -50t112 -42t111.5 -53.5t86 -85t34 -136q0 -139 -84 -219t-256 -80q-111 0 -193 24.5t-108 53.5q-11 11 -11 35z" />
<glyph unicode="t" horiz-adv-x="624" d="M7 947q1 26 13 38q6 6 13.5 10t23 5t41 1t66.5 -2l10 144q6 47 43 66.5t70 19.5q29 0 43 -10.5t14 -38.5v-183l244 7q4 -44 4 -72v-16q-2 -29 -17 -42q-6 -6 -16 -9t-34.5 -3t-68.5 1t-114 3v-604q0 -84 28.5 -111.5t94.5 -27.5q12 0 27.5 3t32 6t30.5 6t20 5 q16 -48 16 -67q0 -20 -16 -37q-16 -16 -62 -32.5t-130 -16.5q-109 0 -167 50q-56 48 -56 165v8l2 651l-148 -4q-7 54 -7 81v6z" />
<glyph unicode="u" horiz-adv-x="1056" d="M119 326v600q0 75 139 75q29 0 39 -15t10 -42q0 -31 -1 -97.5t-2 -149.5t-2 -171t-1 -159q0 -133 41 -183.5t127 -50.5q72 0 139.5 45t134.5 121v627q0 75 134 75h4q29 0 40 -12t11 -37v-80t-1 -128.5t-1 -164v-186.5v-159.5t1 -103.5t4 -70.5t9 -59.5q-16 -4 -47 -5 t-61 -1q-47 0 -73 32q-18 23 -18 69q0 19 3 42l16 37l-6 4q-78 -92 -166 -141t-199 -49q-137 0 -205.5 86t-68.5 252z" />
<glyph unicode="v" horiz-adv-x="886" d="M18 924q-4 12 -4 22q0 55 136 55h4q25 0 37 -9t20 -38l231 -786l246 770q10 35 36 49t101 14q53 0 53 -39q0 -15 -8 -36l-348 -926q-39 -4 -73 -8q-29 -4 -60 -5h-12q-22 0 -35 3z" />
<glyph unicode="w" horiz-adv-x="1353" d="M20 920q-5 14 -5 26q0 25 23 37q34 18 116 18q25 0 37 -9t22 -38l201 -788l172 760q6 20 14 35.5t22.5 23.5t37 12t57.5 4q25 0 39 -10t22 -39l193 -786l176 772q10 35 36.5 49t104.5 14q37 0 46 -19q4 -8 4 -20q0 -15 -7 -36l-280 -926q-43 -4 -80 -8q-33 -4 -63 -5h-12 q-22 0 -36 3l-190 710l-168 -700q-45 -4 -82 -8q-34 -4 -64 -5h-11q-22 0 -32 3z" />
<glyph unicode="x" horiz-adv-x="888" d="M25 78l317 434q-90 129 -144.5 202.5t-86 115.5t-50 61t-36.5 35q18 23 55 49t82 26q29 0 51.5 -13t44.5 -50l191 -309l219 356q14 23 36 25h3q22 0 69 -21q56 -24 56 -50q0 -10 -9 -21l-291 -396q100 -141 161 -224t95.5 -129t53 -66.5t37.5 -39.5q-18 -20 -55.5 -46.5 t-82.5 -26.5q-29 0 -50 12t-46 53l-213 351l-252 -398q-14 -24 -36 -26h-5q-23 0 -67 20q-57 23 -57 52q0 11 10 24z" />
<glyph unicode="y" horiz-adv-x="888" d="M6 948q0 20 26.5 36.5t102.5 16.5q23 0 39 -4t27 -32q4 -10 23.5 -69.5t48 -144.5t60.5 -182.5t59.5 -180.5t47 -140.5t21.5 -61.5q59 207 108 373q20 70 40 138.5t36.5 122.5t26.5 89t12 41q4 10 10 19.5t20.5 16.5t38 11t64.5 4q20 0 34.5 -8t14.5 -30v-13.5t-4 -15.5 q-4 -12 -28.5 -89t-59.5 -187.5t-78 -242.5t-85 -257t-77.5 -228.5t-58.5 -158.5t-47.5 -100.5t-56 -78t-71.5 -51t-95 -18.5q-66 0 -106 11t-52 22q-16 14 -16 34q0 29 12 78q20 -2 43 -4q18 -2 39.5 -3t44.5 -1q57 0 92 29.5t68 115.5q27 74 37 101.5t14 44.5 q-23 70 -58.5 168t-77.5 205.5l-84 215t-77 194.5t-56.5 145.5t-21.5 68.5z" />
<glyph unicode="z" horiz-adv-x="821" d="M41 106q0 16 4 35t21.5 49.5t51.5 78.5t93 126t147 189.5t213 271.5q-68 -2 -136 -3t-129.5 -2t-112 -1h-78.5q-31 0 -41.5 17.5t-10.5 64.5q0 35 10.5 49t43.5 14h604q23 -14 33 -44.5t10 -57.5q0 -20 -5 -41t-23.5 -51.5t-54.5 -77.5t-97.5 -123t-150.5 -186.5 t-216 -268.5h258t161.5 1t90.5 6.5t45 13.5q4 -12 7 -32.5t3 -49.5q0 -84 -98 -84h-610q-33 47 -33 106z" />
<glyph unicode="{" horiz-adv-x="546" d="M49 596v98q98 14 137 50t35 118l-18 627q-2 86 41 126t129 40q61 0 103 -10.5t56 -24.5q10 -10 13.5 -28.5t-13.5 -65.5q-18 2 -41.5 4t-50.5 2q-35 0 -45 -18.5t-10 -49.5q0 -49 -1 -134t-1 -174t-1 -169t-1 -121q0 -92 -31 -141t-123 -78q92 -29 123 -82t31 -149 q0 -43 1 -125t1 -173t1 -175t1 -131q0 -31 10.5 -49.5t44.5 -18.5q27 0 50.5 2t41.5 4q16 -45 13.5 -64.5t-13.5 -29.5q-14 -14 -56 -24.5t-103 -10.5q-86 0 -129 39t-41 127l18 641q2 82 -37 118t-135 50z" />
<glyph unicode="|" horiz-adv-x="514" d="M166 -508q0 262 2 498q0 100 1 205.5t2 204t1 183.5v144v113.5t-1 141.5t-1 149.5t-1 140t-1 114v68.5q0 39 27.5 57.5t97.5 18.5q31 0 43 -12.5t12 -38.5v-69.5t-1 -127.5t-1 -161t-1 -172t-1 -161.5v-130.5v-655q0 -231 2 -500z" />
<glyph unicode="}" horiz-adv-x="546" d="M1 -314.5q-3 19.5 13 64.5q18 -2 42 -4t50 -2q35 0 45.5 18.5t10.5 49.5q0 47 1 131t1 175t1 173t1 125q0 96 30.5 149t122.5 82q-92 29 -122.5 78t-30.5 141q0 41 -1 121t-1 169t-1 174t-1 134q0 31 -10.5 49.5t-45.5 18.5q-27 0 -50 -2t-42 -4q-16 47 -13 65.5t13 28.5 q14 14 56.5 24.5t103.5 10.5q86 0 129 -40t41 -126l-18 -627q-4 -82 34.5 -117.5t137.5 -50.5v-98q-96 -14 -136 -50t-36 -118l18 -641q2 -88 -41 -127t-129 -39q-61 0 -103 10.5t-57 24.5q-10 10 -13 29.5z" />
<glyph unicode="~" horiz-adv-x="968" d="M53 526q0 78 45 116t127 38q47 0 105.5 -5t121 -11.5t125 -11.5t119.5 -5q53 0 70.5 25.5t11.5 91.5q78 16 107.5 -13.5t29.5 -101.5q0 -78 -44 -115.5t-126 -37.5q-51 0 -113.5 5t-126 11t-124 11t-109.5 5q-53 0 -71.5 -25.5t-10.5 -90.5q-78 -16 -107.5 13.5 t-29.5 100.5z" />
<glyph unicode="&#xa1;" horiz-adv-x="481" d="M143 850q0 49 5.5 78.5t17.5 45t34.5 20.5t57.5 5q47 0 63.5 -23t16.5 -97q0 -43 -25.5 -64.5t-103.5 -21.5q-29 0 -47.5 11t-18.5 46zM147 -410q0 55 1.5 130t2.5 162t3 179.5t4 180.5q6 207 12 434l145 10q4 -231 11 -436q2 -88 3 -180.5t3 -176t3 -156.5t1 -122 q0 -39 -27.5 -58.5t-101.5 -19.5q-59 0 -60 53z" />
<glyph unicode="&#xa2;" horiz-adv-x="827" d="M76 649q0 129 27.5 220.5t73.5 151.5t106.5 92t128.5 44v168q0 35 23.5 51.5t88.5 16.5q23 0 33 -9.5t10 -35.5l-4 -187q59 -6 107.5 -27.5t68.5 -41.5q16 -16 17.5 -38t-27.5 -71q-29 12 -74 23.5t-114 11.5q-59 0 -109.5 -19.5t-86.5 -62.5t-56.5 -111.5t-20.5 -169.5 q0 -104 21.5 -172.5t59.5 -109.5t89 -57.5t111 -16.5q66 0 115 11.5t77 23.5q25 -49 24 -71.5t-17 -39.5q-18 -18 -67.5 -38.5t-123.5 -28.5v-226l-154 -10l3 240q-63 10 -123 40.5t-106 87t-73.5 145.5t-27.5 216z" />
<glyph unicode="&#xa3;" horiz-adv-x="997" d="M47 -4q-4 59 0 90t16 43q18 20 66 21h59q20 33 49 79.5t31 128.5q0 47 -11 102.5t-24 127.5h-111.5t-70.5 -4q-10 63 -2 86.5t19 34.5q18 18 63 18h76q-10 70 -23.5 131t-13.5 133q0 170 97.5 266.5t277.5 96.5q57 0 111.5 -8.5t96.5 -18.5t70.5 -22.5t34.5 -18.5 q12 -12 14 -25.5t-8 -44.5q-12 -31 -24.5 -38t-24.5 -7q-23 0 -85 17.5t-161 17.5q-41 0 -78.5 -13t-67.5 -41t-47.5 -71t-17.5 -100q0 -66 11.5 -124t25.5 -130q90 0 145.5 -1t91.5 -1t59.5 1t51.5 5q8 -63 3 -84.5t-17 -34.5q-10 -12 -32.5 -16t-67.5 -4h-205 q10 -66 18.5 -120t8.5 -108q0 -66 -24 -118t-48 -92q174 0 279.5 1t167 3t92 6t57.5 10q10 -35 10 -92q0 -35 -27.5 -56.5t-74.5 -21.5h-306h-212h-138.5t-85 -1t-53 -2t-41.5 -1z" />
<glyph unicode="&#xa4;" horiz-adv-x="1040" d="M27 1083q35 53 55 66.5t37 13.5q16 0 31.5 -9t37.5 -34l97 -100q47 31 105.5 49t129.5 18q78 0 138.5 -21.5t107.5 -55.5q45 43 71.5 70.5t43 44t25.5 27.5l18 22q51 -35 64 -55.5t13 -39.5q0 -16 -9 -30.5t-31 -36.5l-101 -99q35 -49 57.5 -118.5t22.5 -147.5 q0 -84 -22.5 -152.5t-63.5 -121.5q43 -45 68.5 -73t43 -43t28 -23.5t20.5 -16.5q-35 -53 -55.5 -66.5t-38.5 -13.5q-31 0 -68 43l-96 99q-43 -29 -103.5 -48.5t-132.5 -19.5q-78 0 -140.5 20.5t-109.5 55.5q-45 -43 -71.5 -68.5t-42 -42t-23.5 -27t-16 -20.5 q-53 35 -66.5 55.5t-13.5 38.5q0 27 43 68l98 92q-35 53 -56.5 118.5t-21.5 145.5q0 86 22.5 155.5t63.5 125.5q-43 45 -69.5 71.5t-43 42t-26.5 24.5t-20 17zM248 647q0 -61 17.5 -116.5t52 -95.5t85 -63.5t117.5 -23.5q68 0 119 23.5t85 63.5t51.5 95.5t17.5 116.5 q0 129 -69 216t-204 87q-68 0 -118 -23.5t-84.5 -63.5t-52 -96.5t-17.5 -119.5z" />
<glyph unicode="&#xa5;" horiz-adv-x="1038" d="M21.5 1337.5q27.5 20.5 121.5 20.5q37 0 49.5 -12.5t26.5 -49.5l316 -682l301 682q14 35 40.5 48.5t104.5 13.5q72 0 37 -78l-344 -707h272q6 -53 2 -74.5t-16 -33.5q-10 -8 -30.5 -13.5t-57.5 -5.5h-226l-2 -96h330q6 -53 2 -75.5t-16 -32.5q-10 -10 -32.5 -14.5 t-70.5 -4.5h-215q0 -61 -1 -118.5t-1 -104.5l-194 -10l6 233h-330q-6 51 -2 73.5t17 35.5q10 10 27.5 14t47.5 4h240v96h-330q-6 51 -2 75t17 34q10 10 27.5 14t51.5 4h179l-344 687q-29 57 -1.5 77.5z" />
<glyph unicode="&#xa6;" horiz-adv-x="516" d="M168 -174q0 102 1 226t1 251h176v-694l-178 -10v227zM168 1346q0 39 27.5 58t99.5 19q55 0 55 -53q-2 -115 -2 -231q-2 -100 -2 -216v-216h-174z" />
<glyph unicode="&#xa7;" horiz-adv-x="888" d="M76 627q0 72 30.5 136t73.5 105q-33 41 -51 90.5t-18 114.5q0 74 26.5 134.5t74.5 101.5t114.5 63.5t144.5 22.5q100 0 171 -26t93 -48q16 -16 13 -43t-31 -76q-29 10 -90.5 27.5t-139.5 17.5q-92 0 -142 -50t-50 -128q0 -66 39 -110t96 -80.5t126 -71.5t126 -80 t96 -106.5t39 -151.5q0 -84 -37 -146.5t-71 -97.5q80 -84 79 -219q0 -80 -26.5 -140.5t-74.5 -102.5t-114.5 -62t-144.5 -20q-55 0 -105.5 8t-88 20t-64.5 24.5t-35 22.5q-16 16 -15 41t30 80q41 -12 112.5 -29.5t145.5 -17.5q94 0 146 47t52 133q0 66 -39 112t-98 85 t-128 75.5t-128 84t-98 109t-39 151.5zM238 643q0 -61 29.5 -102t78.5 -75t114.5 -70t137.5 -85q18 23 36.5 59t18.5 83q0 61 -35.5 105t-91 80t-120 68.5t-121.5 71.5q-18 -23 -32.5 -63.5t-14.5 -71.5z" />
<glyph unicode="&#xa8;" horiz-adv-x="706" d="M80 1303q0 86 129 86q29 0 46 -11.5t17 -46.5q0 -49 -5 -77.5t-17 -45t-34.5 -21.5t-57.5 -5q-43 0 -60.5 23.5t-17.5 97.5zM434 1303q0 86 129 86q29 0 46.5 -11.5t17.5 -46.5q0 -49 -5.5 -77.5t-17.5 -45t-34.5 -21.5t-57.5 -5q-43 0 -60.5 23.5t-17.5 97.5z" />
<glyph unicode="&#xa9;" horiz-adv-x="1515" d="M78 719q0 150 47 278.5t136 225t214 152t283 55.5t283.5 -55.5t213.5 -152t135.5 -225.5t47.5 -278q0 -150 -47.5 -278t-135.5 -223t-214 -149.5t-283 -54.5q-158 0 -283 54.5t-214 149.5t-136 223t-47 278zM215 719q0 -123 36 -229.5t104.5 -184.5t170 -123t232.5 -45 t232.5 45t171 123t104 184.5t34.5 229.5q0 125 -34.5 232.5t-104 186.5t-171 124t-232.5 45t-232.5 -45t-170 -124t-104.5 -186.5t-36 -232.5zM422 707q0 123 27.5 207.5t76.5 137t115 75t139 22.5q72 0 122 -18.5t73 -38.5q10 -16 10 -39t-18 -70q-27 12 -65 24.5t-93 12.5 q-49 0 -90 -16.5t-71 -52.5t-46 -95t-16 -145q0 -88 17.5 -144.5t48 -88.5t71.5 -44t88 -12q51 0 96 7t76 17q18 -43 17 -64.5t-15 -35.5q-16 -18 -69.5 -35.5t-124.5 -17.5q-174 0 -271.5 99.5t-97.5 314.5z" />
<glyph unicode="&#xaa;" horiz-adv-x="688" d="M61 907q0 63 29 104.5t80 64t120.5 28.5t149.5 -2v59q0 68 -29.5 93.5t-88.5 25.5q-55 0 -107.5 -11.5t-81.5 -17.5q-20 35 -20 55.5t12 32.5t71.5 32t137.5 20q117 0 178 -47.5t61 -163.5v-219v-128.5t1 -67t6 -36.5q-14 -2 -37 -3t-41 -1q-29 0 -49.5 17.5t-14.5 66.5 l15 27l-2 4q-35 -43 -80 -79t-117 -36q-35 0 -68.5 10t-61.5 31.5t-45.5 56.5t-17.5 84zM195 907q0 -35 22.5 -57.5t58.5 -22.5q51 0 94.5 34t67.5 63v88q-121 10 -182 -12.5t-61 -92.5z" />
<glyph unicode="&#xab;" horiz-adv-x="929" d="M58.5 532.5q-1.5 20.5 3 36t12.5 27.5t22 25l285 270q25 23 70 -23q18 -23 23 -36t-5 -27l-225 -264l227 -267q16 -25 -20 -63q-43 -43 -68 -23l-317 291q-6 33 -7.5 53.5zM429 532.5q-1 20.5 2 36t11.5 27.5t22.5 25l287 270q23 23 67 -23q18 -23 23.5 -36t-4.5 -27 l-226 -264l228 -267q10 -14 5 -27.5t-24 -35.5q-43 -43 -69 -23l-316 291q-6 33 -7 53.5z" />
<glyph unicode="&#xac;" horiz-adv-x="950" d="M39 574.5q4 25.5 16 37.5q18 18 76 19h750v-328q-66 -10 -95.5 -5t-42.5 17q-10 10 -16 32t-4 67l2 65h-684q-6 70 -2 95.5z" />
<glyph unicode="&#xad;" horiz-adv-x="655" d="M59 623.5q4 25.5 17 38.5q10 10 27.5 15t48.5 5h442q6 -63 2 -89t-16 -38q-10 -10 -26.5 -14t-47.5 -4h-445q-6 61 -2 86.5z" />
<glyph unicode="&#xae;" horiz-adv-x="1183" d="M61 1040q0 109 41 205t113 168t168 114t207 42t208 -42t169.5 -114t113.5 -168t41 -205t-41 -205t-113.5 -167.5t-170 -112.5t-207.5 -41q-111 0 -207 41t-168 112.5t-113 167.5t-41 205zM188 1040q0 -84 32 -157.5t87 -129t128 -88t157 -32.5t157.5 32.5t128 88t86 129 t31.5 157.5t-31.5 159t-86 130t-128 88t-157.5 33t-157 -33t-128 -88t-87 -130t-32 -159zM418 760q0 51 2 104q0 47 1 101.5t1 107.5v62.5t-1 72.5t-1 70v53q29 4 82 7t96 3q94 0 146.5 -40.5t52.5 -129.5q0 -72 -37 -108.5t-84 -48.5q43 -70 67.5 -111t40 -64.5t22.5 -33.5 t15 -19q-45 -31 -84 -30q-18 0 -33.5 9t-25.5 34l-90 202h-58v-237zM530 1077h43q61 0 88 22.5t27 69.5q0 57 -32.5 72.5t-71.5 15.5q-23 0 -35 -1t-19 -1v-178z" />
<glyph unicode="&#xaf;" horiz-adv-x="577" d="M82 1174q-4 63 1 85.5t17 34.5q10 10 26.5 15.5t47.5 5.5h322q4 -63 -1.5 -86t-17.5 -35q-10 -10 -31.5 -15t-70.5 -5h-293z" />
<glyph unicode="&#xb0;" horiz-adv-x="593" d="M61 1180q0 49 18.5 91t50.5 73.5t75 49t92 17.5t91 -17.5t75 -49t51 -73.5t18 -91t-18 -92.5t-51 -74t-75 -48t-91 -17.5t-92 17.5t-75 48t-50.5 74t-18.5 92.5zM184 1180q0 -47 33 -80t80 -33t80 33t33 80t-33 79.5t-80 32.5t-80 -32.5t-33 -79.5z" />
<glyph unicode="&#xb1;" horiz-adv-x="935" d="M39 659.5q4 24.5 16 36.5q20 20 76 21l260 -4l-4 331q72 8 101.5 3t41.5 -17t16.5 -29.5t4.5 -46.5l-4 -241l348 4q6 -70 3 -94.5t-15 -36.5q-10 -10 -28.5 -16.5t-49.5 -4.5l-258 4l4 -327q-72 -8 -101.5 -3t-41.5 17q-10 10 -16.5 27.5t-4.5 46.5l4 239l-348 -4 q-8 70 -4 94.5zM40 87q5 26 17 38q10 10 26.5 14t47.5 4h764q6 -63 2 -86.5t-16 -36.5q-18 -20 -76 -20h-762q-8 61 -3 87z" />
<glyph unicode="&#xb2;" horiz-adv-x="690" d="M57 672q0 51 49.5 107.5t126.5 125.5q98 88 139.5 145.5t41.5 106.5q0 57 -32 85t-87 28q-25 0 -50.5 -5t-47 -11.5t-38 -11.5t-24.5 -5q-10 0 -17 5t-22 28q-14 23 -12 36t16 25q18 18 79 45t149 27q129 0 188 -56t59 -167q0 -72 -46 -147t-138 -161l-172 -159h184.5 t111.5 1t65.5 4t48.5 7q6 -66 4 -90.5t-15 -36.5q-12 -12 -30.5 -15t-55.5 -3h-446q-10 16 -19.5 37.5t-9.5 54.5z" />
<glyph unicode="&#xb3;" horiz-adv-x="643" d="M49 665.5q-6 22.5 12 75.5q16 -6 70.5 -17t124.5 -11t116 32.5t46 98.5q0 25 -9.5 48t-33 40.5t-64.5 25t-102 0.5l-12 86q100 23 141 57t41 83q0 41 -24.5 67.5t-73.5 26.5q-47 0 -92.5 -15.5t-65.5 -15.5q-18 0 -35 33q-10 20 -8 32.5t14 24.5q16 16 71.5 41t139.5 25 q100 0 163.5 -44t63.5 -149q0 -76 -50 -125t-111 -59q100 -4 154.5 -56t54.5 -134q0 -68 -25 -116t-68 -79t-98 -45t-117 -14q-74 0 -131 18t-78 35q-8 8 -14 30.5z" />
<glyph unicode="&#xb4;" horiz-adv-x="512" d="M80 1178q55 82 90 130t58.5 73.5t40 32.5t38.5 7q29 0 55.5 -14t71.5 -49q-74 -78 -120 -122t-73.5 -67.5t-44 -29.5t-34.5 -6q-23 0 -40.5 11t-41.5 34z" />
<glyph unicode="&#xb5;" horiz-adv-x="1062" d="M119 -487v1413q0 75 137 75q29 0 40 -17t11 -40q0 -31 -1 -97.5t-2 -150.5t-2 -174t-1 -166q0 -127 49 -175t135 -48q74 0 132.5 45t125.5 121q4 262 2 418.5t-2 208.5q0 76 138 75q29 0 40 -12t11 -37v-81t-1 -128.5t-1 -164v-185.5v-159.5t1 -103.5t4 -70.5t9 -59.5 q-16 -4 -47 -5t-59 -1q-49 0 -75 32.5t-15 110.5l16 37l-6 4q-78 -92 -150.5 -140t-171.5 -48q-41 0 -81 8t-70 31l-6 -4l18 -31v-471z" />
<glyph unicode="&#xb6;" horiz-adv-x="956" d="M33 1004q0 197 111.5 292t320.5 95q147 0 265 -7.5t190 -3.5q6 -66 0.5 -92t-19.5 -41q-12 -12 -31.5 -15t-46.5 -3q-23 0 -50.5 3t-33.5 3v-1147q0 -127 -20.5 -193.5t-61.5 -107.5q-47 -47 -104 -63.5t-135 -16.5t-103 25q-14 14 -19 35.5t3 89.5q96 0 149.5 9t77.5 34 q23 23 31 55.5t8 77.5v136t-1 176t-1 198.5v201.5v492l-133 -2v-604q-88 -4 -161.5 14.5t-126 63.5t-81 118t-28.5 177z" />
<glyph unicode="&#xb7;" horiz-adv-x="378" d="M84 621q0 94 141 94q31 0 50.5 -12.5t19.5 -51.5q0 -53 -5 -86t-19.5 -49t-38 -21.5t-60.5 -5.5q-51 0 -69.5 26t-18.5 106z" />
<glyph unicode="&#xb8;" horiz-adv-x="393" d="M82 -246q66 4 90 33q12 16 14 41t-8 82h121q4 -14 9 -40t5 -56q0 -84 -48 -123t-109 -39q-45 0 -64 18q-6 6 -10 22.5t0 61.5z" />
<glyph unicode="&#xb9;" horiz-adv-x="520" d="M36 1282q-3 18 9 29q12 14 121 55q63 23 92 31t57 8q41 0 57.5 -17.5t16.5 -58.5v-747l-164 -9v678l-170 -30q-16 43 -19 61z" />
<glyph unicode="&#xba;" horiz-adv-x="686" d="M61 1057q0 174 78 254t207 80q127 0 203 -80t76 -254q0 -176 -77 -256t-202 -80q-129 0 -207 80t-78 256zM197 1057q0 -117 38.5 -172.5t110.5 -55.5q143 1 143 228q0 117 -36.5 170t-106.5 53q-72 0 -110.5 -53t-38.5 -170z" />
<glyph unicode="&#xbb;" horiz-adv-x="927" d="M85.5 247q-5.5 13 4.5 27l225 265l-227 266q-16 25 21 63q43 43 67 23l318 -291q6 -33 7 -53.5t-3 -35.5t-12.5 -27.5t-22.5 -24.5l-285 -271q-25 -23 -69 23q-18 23 -23.5 36zM459 274l225 265l-225 266q-18 25 18 63q45 45 68 23l317 -291q6 -33 7 -53.5t-3 -35.5 t-12 -27.5t-23 -24.5l-284 -271q-25 -20 -68 23q-37 39 -20 63z" />
<glyph unicode="&#xbc;" horiz-adv-x="1574" d="M64.5 1282q-3.5 18 9.5 29q12 14 121 55q63 23 93.5 31t59.5 8q74 0 74 -76l-4 -747l-164 -9v678l-170 -30q-16 43 -19.5 61zM272 -125l764 1577q18 35 42 49.5t59 14.5q29 0 57.5 -5.5t44.5 -9.5l-762 -1577q-16 -35 -40.5 -49t-59.5 -14q-29 0 -58.5 5t-46.5 9z M932 225q0 25 7 54.5t31.5 90t70.5 164t124 275.5q10 20 32 22.5t65 -18.5q41 -18 50 -36.5t-1 -39.5l-240 -477l174 2l12 117q12 68 105 67q35 0 35 -38v-142l129 4q10 -66 7 -86t-13 -30t-34 -13.5t-89 -3.5q2 -41 0 -82t10 -100q-14 -4 -46 -5t-56 -1q-70 0 -70 67l4 119 h-272q-35 35 -35 90z" />
<glyph unicode="&#xbd;" horiz-adv-x="1652" d="M64.5 1282q-3.5 18 9.5 29q12 14 121 55q63 23 93.5 31t59.5 8q74 0 74 -76l-4 -747l-164 -9v678l-170 -30q-16 43 -19.5 61zM276 -125l766 1577q18 35 41 49.5t58 14.5q31 0 59.5 -5.5t44.5 -9.5l-764 -1577q-16 -35 -39.5 -49t-58.5 -14q-31 0 -60.5 5t-46.5 9z M1028 92q0 51 49 107.5t127 126.5q98 88 139 145t41 104q0 57 -31.5 86t-86.5 29q-25 0 -50.5 -5t-47 -11t-38 -11.5t-24.5 -5.5q-10 0 -17.5 5.5t-21.5 27.5q-14 23 -12 35t16 27q18 18 78.5 44.5t148.5 26.5q129 0 188.5 -56t59.5 -167q0 -139 -184 -307l-172 -160h184.5 t111.5 1t65.5 3t47.5 8q6 -66 4.5 -91t-14.5 -36q-12 -12 -30.5 -15t-55.5 -3h-446q-10 16 -19.5 37.5t-9.5 54.5z" />
<glyph unicode="&#xbe;" horiz-adv-x="1665" d="M72 665.5q-6 22.5 12 75.5q16 -6 71.5 -17t123.5 -11q70 0 116.5 32.5t46.5 98.5q0 25 -9 48t-33.5 40.5t-65.5 25t-103 0.5l-12 86q102 23 142 57t40 83q0 41 -23.5 67.5t-74.5 26.5q-47 0 -92 -15.5t-64 -15.5q-18 0 -36 33q-10 20 -8.5 32.5t14.5 24.5q16 16 71.5 41 t139.5 25q102 0 164.5 -44t62.5 -149q0 -76 -50 -125t-112 -59q100 -4 155.5 -56t55.5 -134q0 -68 -25.5 -116t-67.5 -79t-98.5 -45t-117.5 -14q-74 0 -130 18t-77 35q-10 8 -16 30.5zM367 -125l766 1577q18 35 40.5 49.5t57.5 14.5q31 0 59.5 -5.5t44.5 -9.5l-764 -1577 q-16 -35 -39.5 -49t-58.5 -14q-31 0 -60.5 5t-45.5 9zM1022 225q0 25 7 54.5t31.5 90t72 164t124.5 275.5q10 20 32 22.5t65 -18.5q41 -18 50 -36.5t-1 -39.5q-4 -8 -25.5 -50t-54.5 -106.5t-75 -147.5t-87 -173l176 2q2 31 4 58.5t9 58.5q8 33 26.5 50t59.5 17q27 0 39 -9 t12 -36v-135l131 4q6 -68 4 -87t-12 -31q-12 -12 -41 -13.5t-82 -1.5q2 -41 0 -82t12 -100q-16 -4 -48 -5t-56 -1q-33 0 -51.5 16.5t-16.5 50.5l2 119h-272q-16 16 -25.5 39t-9.5 51z" />
<glyph unicode="&#xbf;" horiz-adv-x="649" d="M0 -141q0 84 29.5 148.5t72.5 121.5t92.5 113.5t88.5 124.5q16 29 22 70.5t6 85.5t-5 85t-11 68l147 10q10 -37 17.5 -85t7.5 -98t-9 -100.5t-32 -93.5q-37 -66 -77 -119t-74.5 -104t-57 -102.5t-22.5 -112.5q0 -102 54 -143t128 -41q84 0 133 21.5t68 21.5q10 0 18 -6.5 t18 -30.5q18 -35 15.5 -50.5t-13.5 -25.5q-10 -8 -31.5 -21.5t-55 -26.5t-77.5 -22.5t-100 -9.5q-166 0 -259 81t-93 241zM260 850q0 49 5 78.5t17.5 45t35 20.5t57.5 5q47 0 64.5 -23t17.5 -97q0 -86 -131 -86q-29 0 -47.5 11t-18.5 46z" />
<glyph unicode="&#xc0;" horiz-adv-x="600" d="M29 997q0 186 69.5 274.5t200.5 88.5q135 0 203.5 -88t68.5 -275q0 -360 -274 -360q-129 0 -198.5 89t-69.5 271zM164 997q0 -135 34.5 -192t98.5 -57q68 0 104.5 57t36.5 192q0 137 -36.5 196.5t-102.5 59.5t-100.5 -59.5t-34.5 -196.5z" />
<glyph unicode="&#xc1;" horiz-adv-x="352" d="M4 1266q0 14 6 20q2 2 31 14.5t63.5 25.5t70.5 23.5t54 10.5q55 0 56 -55l-4 -502q0 -41 1 -78t5 -70q-12 -4 -34 -5t-44 -1q-29 0 -44 18.5t-15 47.5v92v209t2 205l-132 -27q-16 45 -16 72z" />
<glyph unicode="&#xc2;" horiz-adv-x="491" d="M4 717q0 14 5 26.5t22.5 36t51.5 61.5t93 103q35 37 59.5 64.5t40 50t22.5 45t7 47.5q0 94 -102 94q-35 0 -64.5 -8t-58.5 -23q-18 -10 -26.5 -0.5t-18.5 27.5q-20 35 -2 53q12 12 66.5 39t136.5 27q98 0 157.5 -48.5t59.5 -146.5q0 -57 -33 -110.5t-94 -116.5l-168 -172 h135t90 1t56.5 2t33.5 5q2 -18 3 -40.5t-3 -45.5q-6 -37 -53 -37h-402q-14 25 -14 66z" />
<glyph unicode="&#xc3;" horiz-adv-x="505" d="M16 680q-16 16 7 94q27 -8 68.5 -18.5t82.5 -10.5q166 0 166 119q0 47 -37 76t-127 29q-10 0 -25.5 -1t-29.5 -3l-17 79q111 27 157 59t46 73q0 43 -23.5 60t-84.5 17q-29 0 -54.5 -8t-48.5 -16l-20 -8t-21 -4q-6 0 -26 30q-12 18 -12.5 28.5t10.5 20.5q6 6 25.5 16.5 t47 22t63.5 18.5t77 7q39 0 76.5 -9.5t65.5 -28.5t45 -51t17 -75q0 -47 -39.5 -92t-111.5 -68v-4q84 -8 132 -56t48 -124q0 -104 -78 -159.5t-196 -55.5q-70 0 -119 14.5t-64 28.5z" />
<glyph unicode="&#xc4;" horiz-adv-x="548" d="M12 868q0 27 10.5 57.5t34 81t62.5 131.5t98 208q4 10 22.5 13t47.5 -9q37 -14 43 -29.5t-4 -32.5l-191 -387l162 2l10 125q2 23 12.5 35t59.5 12q41 0 41 -33l-2 -137q31 2 51 1t49 3q4 -45 4 -64.5t-10 -29.5t-32.5 -11t-61.5 -1q0 -41 1 -78t5 -70q-12 -4 -33.5 -5 t-42.5 -1q-31 0 -43 18.5t-12 47.5l2 88h-258q-10 10 -17.5 29.5t-7.5 35.5z" />
<glyph unicode="&#xc5;" horiz-adv-x="475" d="M8 709.5q2 23.5 12 54.5q16 -4 58.5 -13.5t83.5 -9.5q72 0 112.5 29.5t40.5 95.5t-35.5 93.5t-113.5 27.5q-23 0 -52.5 -3t-62.5 -9v75t-1 97t-1 90v53q0 33 10 43q12 12 37 13h318q2 -10 3 -24.5t1 -29.5q0 -31 -15.5 -40t-44.5 -9h-81t-105 4l-4 -172q61 6 112.5 0 t90.5 -29.5t60.5 -63.5t21.5 -101q0 -121 -77 -182.5t-188 -61.5q-68 0 -113.5 14.5t-60.5 26.5q-8 8 -6 31.5z" />
<glyph unicode="&#xc6;" horiz-adv-x="530" d="M25 924q0 88 16 166.5t54 138t100.5 95.5t152.5 36q66 0 102.5 -10.5t47.5 -18.5q8 -6 11 -15t-3 -32q-6 -27 -12.5 -34t-14.5 -7q-20 0 -46.5 7t-80.5 7q-45 0 -79.5 -17t-60.5 -45t-41 -62.5t-21 -69.5l-11 -31l4 -2q29 33 67 51.5t85 18.5q41 0 80 -10.5t69.5 -36 t50 -66.5t19.5 -102q0 -129 -67.5 -188.5t-180.5 -59.5q-111 0 -176 67.5t-65 219.5zM158 872q0 -74 29.5 -104.5t78.5 -30.5q53 0 85 28.5t32 102.5q0 133 -113 133q-53 0 -82.5 -33.5t-29.5 -95.5z" />
<glyph unicode="&#xc7;" horiz-adv-x="468" d="M14 1288q0 59 29 60h393q19 -23 19 -62q0 -10 -4.5 -28.5t-16.5 -51t-35.5 -86t-62.5 -135.5l-162 -338q-113 6 -113 55q0 8 5.5 25.5t31 70t78.5 154t150 281.5l-283 -6q-29 0 -29 61z" />
<glyph unicode="&#xc8;" horiz-adv-x="542" d="M20 813q0 70 40 116t104 75q-18 8 -40 24t-40 37.5t-29.5 50.5t-11.5 64q0 80 61.5 130t163.5 50q106 0 169 -48t63 -132q0 -31 -11.5 -56.5t-29 -45t-38 -34t-40.5 -22.5q68 -35 104.5 -84t36.5 -109q0 -100 -65.5 -146t-188.5 -46q-117 0 -182.5 44t-65.5 132zM150 831 q0 -47 32.5 -71.5t85.5 -24.5t86 25.5t33 73.5q0 43 -35 74.5t-92 54.5q-55 -23 -82.5 -58t-27.5 -74zM166 1167q0 -41 30.5 -68.5t84.5 -45.5q35 16 64.5 46.5t29.5 74.5q0 47 -33 70.5t-74 23.5q-45 0 -73.5 -25.5t-28.5 -75.5z" />
<glyph unicode="&#xc9;" horiz-adv-x="530" d="M16 1112q0 133 67 190.5t175 57.5q115 0 181.5 -66.5t66.5 -220.5q0 -88 -15.5 -167t-51.5 -139t-97.5 -95t-153.5 -35q-53 0 -92 11t-49 22q-10 8 -8 32.5t12 55.5q16 -4 54 -9.5t79 -5.5q45 0 79 16.5t58.5 43t40 61.5t21.5 70l10 31l-4 2q-31 -33 -70.5 -51.5 t-87.5 -18.5q-39 0 -77.5 10.5t-69.5 36t-49.5 66.5t-18.5 102zM147 1128q0 -66 25 -99.5t82 -33.5q55 0 86 34t31 95q0 78 -31 108t-82 30t-81 -28t-30 -106z" />
<glyph unicode="&#xca;" horiz-adv-x="544" d="M34 782q1 29 13 62q14 -6 36.5 -13.5t49.5 -13.5t55.5 -10t55.5 -4q119 0 118 80q0 47 -41.5 73.5t-101.5 49.5q-33 12 -64.5 27.5t-57 38t-42 53t-16.5 73.5t15.5 77t40 57.5t56 36.5t62.5 17l-2 82q0 23 10 33t62 10q31 0 28 -30l-4 -92q55 -2 103.5 -19.5t60.5 -28.5 q25 -20 -8 -96q-43 14 -86 26.5t-86 12.5q-119 0 -119 -78q0 -41 37 -62.5t94 -43.5q37 -14 72 -30.5t63.5 -40t46 -56.5t17.5 -78q0 -92 -51.5 -141t-143.5 -60v-127l-98 -4l4 127q-53 4 -103.5 20.5t-66.5 32.5q-10 10 -9 39z" />
<glyph unicode="&#xcb;" horiz-adv-x="468" d="M43 1110q0 74 17.5 124t45 82t59.5 48t60 22v84q0 16 13.5 25.5t60.5 9.5q27 0 27 -22v-94q35 -4 64.5 -15.5t39.5 -21.5q14 -10 15 -22.5t-17 -49.5q-16 4 -42 10t-62 6q-72 0 -111 -43t-39 -139t39 -137t111 -41q39 0 68.5 7t45.5 11q8 -23 9.5 -43t-7.5 -28 q-14 -12 -46 -22.5t-72 -14.5v-117l-103 -6l2 123q-29 6 -59.5 21.5t-57 46t-44 78.5t-17.5 118z" />
<glyph unicode="&#xcc;" horiz-adv-x="253" d="M41 784q0 35 24.5 52.5t90.5 17.5q25 0 41 -9t16 -42q0 -43 -4 -69.5t-14.5 -40t-29 -17.5t-48.5 -4q-47 0 -61.5 21t-14.5 91z" />
<glyph unicode="&#xcd;" horiz-adv-x="1345" d="M2 501.5q-2 10.5 4 28.5l150 459q4 12 8 20.5t14 13.5t30.5 7t57.5 2q25 0 36 -9t20 -30l149 -463q6 -18 3 -29.5t-9 -17.5l-6 -6t-10.5 -3t-23.5 -1t-44 2l-43 143h-207l-43 -143q-45 -4 -57.5 -1t-20.5 9q-6 8 -8 18.5zM152 698h167l-67 209l-16 60l-19 -60zM528 475 q2 72 2 132.5v107.5q0 27 -1 56.5t-1 66.5q0 23 9.5 33t56.5 10q27 0 27 -27q0 -8 -1.5 -19.5t-1.5 -21.5l3 -4q29 29 66.5 50.5t82.5 21.5q57 0 84 -36t27 -114q0 -72 -1 -115t-1 -69.5t1 -40.5t3 -27q-10 -2 -29 -3t-37 -1q-23 0 -29 14.5t-6 36.5v197q0 41 -14 56.5 t-41 15.5t-56.5 -16.5t-45.5 -33.5v-266q-6 0 -19.5 -1t-29 -1t-28.5 -1t-20 -1zM922 332.5q-2 9.5 8 44.5q12 0 24.5 -1t32.5 -1q29 0 48.5 20.5t37.5 75.5l-151 371q-10 23 5 31t60 8q27 0 33 -25l74 -217l22 -66l19 66l63 203q6 23 17.5 31t52.5 8q39 0 28 -39l-125 -357 q-18 -55 -36.5 -92t-39 -57.5t-42 -28.5t-47.5 -8q-57 0 -76 18q-6 6 -8 15.5z" />
<glyph unicode="&#xce;" horiz-adv-x="1333" d="M162 849q0 11 6 19q4 6 25.5 8.5t48.5 0.5v47q0 70 26.5 108.5t96.5 38.5q27 0 51 -6t35 -16q14 -12 0 -58q-14 2 -29.5 3t-28.5 1q-29 0 -43 -14t-14 -49v-58l108 3q4 -41 2 -52.5t-6 -17.5q-6 -6 -34.5 -7t-69.5 1v-189q0 -63 2 -133l-96 -4v326l-76 -2q-4 39 -4 50z M479 680q0 55 15.5 93t40 62.5t57.5 35t67 10.5q37 0 70 -10.5t57.5 -34t40 -62.5t15.5 -94q0 -111 -53.5 -158t-129.5 -47q-37 0 -69.5 10.5t-57 35t-39 63.5t-14.5 96zM575 678q0 -66 23 -95.5t61 -29.5q41 0 63.5 29.5t22.5 95.5q0 125 -83 125q-39 0 -63 -31t-24 -94z M926 475q2 86 2 146.5v103.5q0 27 -1 58.5t-1 54.5t9 33t54 10q29 0 29 -27q0 -10 -1 -20.5t-3 -20.5l4 -4q20 23 51 47.5t66 24.5q25 0 32 -27q4 -8 5 -19t-3 -44q-47 8 -82.5 -5.5t-64.5 -40.5v-266z" />
<glyph unicode="&#xcf;" horiz-adv-x="1001" d="M127 0q2 41 3 97.5t1 115.5q0 66 -1 153t-1 189q0 23 9 32t52 9q20 0 26.5 -7t6.5 -24q0 -20 -1 -96t-3 -203l-8 -18q2 0 2 -1t2 -1l154 143q6 6 12 11.5t16 5.5q12 0 33 -15.5t21 -25.5q0 -8 -13 -21l-12 -12q-20 -20 -40.5 -39t-43.5 -39q61 -98 92 -147.5t49 -77.5 q-23 -18 -36 -24.5t-29 -6.5q-25 0 -45 35l-11 18q-23 37 -44 74t-44 76l-53 -49q0 -47 -1 -96.5t-1 -53.5q-23 -2 -45 -2h-47zM516 197q0 104 49 155t117 51q31 0 54.5 -8t39.5 -18q10 27 68 26q20 0 25 -8t5 -22q0 -41 -1 -67.5t-1 -67.5q0 -51 1 -103.5t1 -122.5 q0 -104 -36.5 -145t-130.5 -41q-100 0 -133 15.5t-33 37.5q0 14 8 39q16 -4 53 -10t84 -6q39 0 64.5 16t25.5 59v13v59l8 19l-4 4q-18 -29 -52 -47.5t-79 -18.5q-27 0 -50.5 9.5t-41.5 31t-29.5 58t-11.5 92.5zM610 199q0 -35 7.5 -57.5t18.5 -35t24.5 -17.5t27.5 -5 q31 0 55.5 17.5t34.5 33.5v125q0 31 2 57q-12 4 -34.5 7.5t-38.5 3.5q-43 0 -70 -30t-27 -99z" />
<glyph unicode="&#xd0;" horiz-adv-x="1019" d="M127 190q0 98 45 155.5t137 57.5q70 0 113 -42t43 -142q0 -45 -41 -45h-203v-10q0 -41 27.5 -65.5t83.5 -24.5q37 0 65.5 6t44.5 10q6 -16 9.5 -25.5t3.5 -15.5q0 -14 -32 -31.5t-116 -17.5q-74 0 -127 44t-53 146zM223 233q39 0 77 1.5t77 1.5q0 94 -70 94 q-41 0 -60.5 -28t-23.5 -69zM532 193q0 55 14.5 95t38 65.5t53.5 37.5t62 12q31 0 56.5 -10t36.5 -16q4 16 19 21t46 5q18 0 24.5 -8t6.5 -22q0 -35 -1 -82t-1 -88v-83t1 -53.5t2 -35t3 -25.5q-16 -2 -30.5 -3t-33.5 -1q-23 0 -30.5 13.5t-7.5 35.5l8 17l-4 4 q-20 -29 -53 -50.5t-76 -21.5q-55 0 -94.5 46t-39.5 147zM629 199q0 -117 76 -117q23 0 48 17.5t40 39.5v76v64.5t2 37.5q-12 4 -32 7.5t-38 3.5q-41 0 -68.5 -29t-27.5 -100z" />
<glyph unicode="&#xd1;" horiz-adv-x="1396" d="M127 14q4 41 4 84v90q0 33 -1 83.5t-1 103.5v180q0 23 10.5 31t57.5 8q33 0 32.5 -34t-0.5 -128q0 -33 -2 -52.5t-8 -41.5q2 0 2 -1t2 -1q18 29 48 48t75 19q61 0 96 -51t35 -143q0 -111 -56 -161t-134 -50q-37 0 -78 4t-82 12zM223 80q16 -4 34 -5t32 -1q41 0 66.5 29.5 t25.5 101.5q0 59 -19.5 86.5t-54.5 27.5q-23 0 -44 -14t-36 -31q0 -37 -1 -71.5t-1 -63.5q-2 -33 -2 -59zM553 195q0 59 15.5 99t39 63.5t53 33.5t58.5 10q68 0 93.5 -18t25.5 -29q0 -14 -15 -43q-10 4 -29.5 9.5t-41.5 5.5q-101 0 -101 -129q0 -121 101 -121q27 0 46 5 t31 9q4 -16 7.5 -26.5t3.5 -16.5q0 -16 -27 -32.5t-98 -16.5q-72 0 -117 50t-45 147zM915 0q2 72 2.5 131.5t0.5 106.5v64.5t-1.5 84.5t-1.5 90v78q0 20 10.5 30.5t57.5 10.5q29 0 29 -29v-33.5t-1 -61.5t-1 -67.5v-52.5l-6 -16l4 -4q27 29 65.5 50t83.5 21q57 0 84 -35.5 t27 -113.5q0 -82 -1 -127t-1 -72q0 -18 1 -30.5t3 -22.5q-10 -2 -27.5 -2h-36.5q-23 0 -30 13.5t-7 35.5v197q0 72 -55 71q-27 0 -56.5 -16t-45.5 -33v-266q-27 -2 -49.5 -2h-47.5z" />
<glyph unicode="&#xd2;" horiz-adv-x="1443" d="M127 14q4 41 4 84v90q0 33 -1 83.5t-1 103.5v180q0 23 10.5 31t57.5 8q33 0 32.5 -34t-0.5 -128q0 -33 -2 -52.5t-8 -41.5q2 0 2 -1t2 -1q18 29 48 48t75 19q61 0 96 -51t35 -143q0 -111 -56 -161t-134 -50q-37 0 -78 4t-82 12zM223 80q16 -4 34 -5t32 -1q41 0 66.5 29.5 t25.5 101.5q0 59 -19.5 86.5t-54.5 27.5q-23 0 -44 -14t-36 -31q0 -37 -1 -71.5t-1 -63.5q-2 -33 -2 -59zM553 203q0 55 15.5 93t41 62.5t58 34.5t67.5 10q37 0 70 -10t57.5 -33.5t40 -62.5t15.5 -94q0 -111 -53.5 -158t-129.5 -47q-37 0 -69.5 10t-58 35t-40 63.5 t-14.5 96.5zM651 201q0 -66 22.5 -95.5t59.5 -29.5q41 0 63.5 29.5t22.5 95.5q0 125 -84 125q-37 0 -60.5 -31t-23.5 -94zM958 41q0 2 5 10l116 152q-41 53 -66.5 86.5t-54.5 66.5q16 20 32 30.5t34 10.5q14 0 29.5 -14t30 -34.5t28.5 -44t27 -42.5q10 16 24.5 39t28.5 44.5 t26.5 35.5t20.5 14q23 0 43.5 -16.5t20.5 -26.5q0 -6 -7 -14l-108 -131q37 -47 58.5 -76t35.5 -46t20.5 -26.5t12.5 -15.5q-14 -18 -28.5 -30.5t-37.5 -12.5q-18 0 -30.5 11.5t-20.5 27.5l-68 106l-88 -133q-10 -12 -20 -12q-12 0 -38 14.5t-26 26.5z" />
<glyph unicode="&#xd3;" horiz-adv-x="1306" d="M127 195q0 59 15.5 99t39 63.5t53 33.5t60.5 10q47 0 73.5 -10t37.5 -20q6 -6 7 -17.5t-14 -42.5q-10 4 -30.5 9.5t-42.5 5.5q-99 0 -99 -129q0 -121 101 -121q25 0 44 5t34 9q10 -35 10 -44t-10 -19q-12 -10 -40 -19.5t-75 -9.5q-74 0 -119 50t-45 147zM463 375 q2 10 8 16q4 6 24.5 8t47.5 0l8 76q4 20 21.5 28.5t31.5 8.5q35 0 35 -25v-92q6 0 21.5 1t34 1t33.5 1t22 1q4 -41 3 -51t-8 -18q-6 -6 -34.5 -7t-71.5 1l-2 -189q0 -35 16.5 -48t55.5 -13q8 0 20 1t23 3q6 -33 3 -43t-10 -19q-23 -18 -90 -18q-45 0 -78.5 24.5t-33.5 90.5 l2 211q-10 0 -39 -1t-39 -1q-6 43 -4 53zM823 -2q2 72 2 132v108q0 27 -1 56.5t-1 65.5q0 23 10.5 33t57.5 10q25 0 24 -26q0 -8 -1 -19.5t-1 -21.5l5 -4q27 29 65.5 50t81.5 21q59 0 85 -35.5t26 -113.5v-115v-69.5v-41t2 -26.5q-10 -2 -29 -3t-37 -1q-23 0 -28 14.5 t-5 36.5v197q0 41 -14 56t-43 15q-25 0 -54.5 -16t-47.5 -33v-266q-6 0 -19.5 -1t-29 -1t-29 -1t-19.5 -1z" />
<glyph unicode="&#xd4;" horiz-adv-x="1476" d="M127 14q4 41 4 84v90q0 33 -1 83.5t-1 103.5v180q0 23 10.5 31t57.5 8q33 0 32.5 -34t-0.5 -128q0 -33 -2 -52.5t-8 -41.5q2 0 2 -1t2 -1q18 29 48 48t75 19q61 0 96 -51t35 -143q0 -111 -56 -161t-134 -50q-37 0 -78 4t-82 12zM223 80q16 -4 34 -5t32 -1q41 0 66.5 29.5 t25.5 101.5q0 59 -19.5 86.5t-54.5 27.5q-23 0 -44 -14t-36 -31q0 -37 -1 -71.5t-1 -63.5q-2 -33 -2 -59zM553 193q0 55 14.5 95t38 65.5t53 37.5t62.5 12q31 0 56.5 -10t35.5 -16q4 16 19.5 21t46.5 5q18 0 24 -8t6 -22q0 -35 -1 -82t-1 -88v-83t1 -53.5t2 -35t3 -25.5 q-16 -2 -30.5 -3t-32.5 -1q-23 0 -31 13.5t-8 35.5l8 17l-4 4q-20 -29 -53 -50.5t-76 -21.5q-55 0 -94 46t-39 147zM649 199q0 -117 76 -117q23 0 48.5 17.5t39.5 39.5v76v64.5t2 37.5q-12 4 -32 7.5t-38 3.5q-41 0 -68.5 -29t-27.5 -100zM991 197q0 104 49.5 155t116.5 51 q31 0 54.5 -8t39.5 -18q10 27 68 26q20 0 25.5 -8t5.5 -22q0 -41 -1 -67.5t-1 -67.5q0 -51 1 -103.5t1 -122.5q0 -104 -37 -145t-131 -41q-100 0 -133 15.5t-33 37.5q0 14 8 39q16 -4 53 -10t84 -6q39 0 64.5 16t25.5 59v13v59l9 19l-5 4q-18 -29 -52 -47.5t-79 -18.5 q-27 0 -50 9.5t-41.5 31t-30 58t-11.5 92.5zM1085 199q0 -35 7.5 -57.5t18.5 -35t24.5 -17.5t27.5 -5q31 0 55.5 17.5t34.5 33.5v125q0 31 2 57q-12 4 -34.5 7.5t-38.5 3.5q-43 0 -70 -30t-27 -99z" />
<glyph unicode="&#xd5;" horiz-adv-x="1699" d="M129 348v19q0 20 10.5 26t44.5 6h25l8 76q4 20 21.5 28.5t31.5 8.5q35 0 35 -25v-92l111 4q2 -16 3 -26.5t1 -18.5q0 -20 -9.5 -26t-54.5 -6q-10 0 -23.5 1t-27.5 1q0 -47 -1 -94.5t-1 -94.5q0 -35 16.5 -48t55.5 -13q8 0 20.5 1t22.5 3q2 -10 3 -18.5t1 -14.5 q0 -27 -21.5 -37t-78.5 -10q-45 0 -79 24.5t-34 90.5q0 53 1 105t1 106q-18 0 -38.5 -1t-39.5 -1q-4 16 -4 26zM492 -2q2 86 2 146.5v103.5q0 27 -1 58.5t-1 53.5q0 23 9 33t54 10q29 0 29 -26q0 -10 -1 -20.5t-3 -20.5l4 -4q20 23 51 47t65 24q39 0 39 -49q0 -8 -1 -17.5 t-3 -23.5q-10 2 -17 2h-16q-35 0 -62.5 -12t-51.5 -35v-266zM770 193q0 113 51 161.5t115 48.5q33 0 58.5 -10t35.5 -16q4 16 19.5 21t46.5 5q18 0 23 -8t5 -22q0 -35 -1 -82t-1 -88v-83t1 -53.5t2 -35t3 -25.5q-14 -2 -28.5 -3t-34.5 -1q-23 0 -30 13.5t-7 35.5l8 17l-4 4 q-20 -29 -53 -50.5t-76 -21.5q-57 0 -95 46t-38 147zM866 199q0 -59 19.5 -88t54.5 -29q25 0 50.5 17.5t39.5 39.5v76v64.5t2 37.5q-30 11 -71 11q-39 0 -67 -29t-28 -100zM1190 381q0 23 67 22q16 0 23.5 -7t11.5 -17l94 -283l82 269q6 23 18.5 30.5t53.5 7.5q31 0 31 -22 q0 -4 -4 -16q-31 -90 -62.5 -178.5t-62.5 -178.5q-20 -55 -39 -92t-38 -57.5t-40.5 -28.5t-48.5 -8q-37 0 -60.5 9t-23.5 30q0 16 8 41q14 -2 25.5 -3t31.5 -1q29 0 49.5 21.5t36.5 76.5l-149 369q-4 6 -4 16z" />
<glyph unicode="&#xd6;" horiz-adv-x="1067" />
<glyph unicode="&#xd7;" horiz-adv-x="1169" d="M61 47v662q0 18 14.5 32.5t33.5 14.5h88v194q0 82 30.5 154t84 125t124 83.5t150.5 30.5t149.5 -30.5t121.5 -83.5t83 -125t31 -154v-194h86q20 0 35.5 -14.5t15.5 -32.5v-662q0 -18 -15.5 -32.5t-35.5 -14.5h-948q-18 0 -33 14.5t-15 32.5zM365 752h444v194 q0 47 -17.5 88t-47 72t-70.5 48t-88 17q-45 0 -85 -17t-71 -48t-48 -72t-17 -88v-194z" />
<glyph unicode="&#xd8;" horiz-adv-x="1333" d="M92 690q0 178 41 311.5t116 221.5t181.5 132t235.5 44q154 0 270 -62l65 115q10 18 29 20.5t60 -20.5q35 -18 41 -33.5t-5 -36.5l-71 -127q90 -90 138 -230t48 -335q0 -178 -41 -310t-115.5 -220t-181 -132t-237.5 -44q-154 0 -267 57l-61 -113q-12 -18 -30.5 -20 t-59.5 20q-33 16 -40 31.5t3 38.5l70 127q-90 86 -139.5 226.5t-49.5 338.5zM287 690q0 -123 25.5 -221t72.5 -162l471 883q-80 55 -190 55q-170 0 -274.5 -138t-104.5 -417zM479 190q82 -53 187 -53q176 0 278.5 137.5t102.5 415.5q0 123 -25 221.5t-72 163.5z" />
<glyph unicode="&#xd9;" horiz-adv-x="1263" d="M129 1315q0 39 28.5 57.5t108.5 18.5q31 0 46.5 -11.5t15.5 -42.5q0 -27 -1 -87t-1 -138t-2 -166t-2 -171t-1 -152.5t-1 -108.5q0 -86 15 -155.5t51 -119t95.5 -75t149.5 -25.5t150.5 25.5t97.5 75t53 119t16 155.5q0 41 -1 110.5t-1 152.5t-2 169t-2 162t-1 131t-1 76 q0 39 28.5 57.5t108.5 18.5q31 0 46.5 -11.5t15.5 -42.5q0 -39 -1 -105.5t-1 -170t-1 -247.5t-1 -339q0 -242 -128 -363.5t-376 -121.5q-246 0 -372 123t-126 364q0 375 -2 575.5t-2 262.5zM363 1616q37 68 66.5 88t58.5 20q16 0 31.5 -4t43 -20.5t72.5 -47t121 -85.5 q-25 -47 -46 -61.5t-46 -14.5q-10 0 -23.5 2t-44 14.5t-86 37t-147.5 71.5z" />
<glyph unicode="&#xda;" horiz-adv-x="1263" d="M129 1315q0 39 28.5 57.5t108.5 18.5q31 0 46.5 -11.5t15.5 -42.5q0 -27 -1 -87t-1 -138t-2 -166t-2 -171t-1 -152.5t-1 -108.5q0 -86 15 -155.5t51 -119t95.5 -75t149.5 -25.5t150.5 25.5t97.5 75t53 119t16 155.5q0 41 -1 110.5t-1 152.5t-2 169t-2 162t-1 131t-1 76 q0 39 28.5 57.5t108.5 18.5q31 0 46.5 -11.5t15.5 -42.5q0 -39 -1 -105.5t-1 -170t-1 -247.5t-1 -339q0 -242 -128 -363.5t-376 -121.5q-246 0 -372 123t-126 364q0 375 -2 575.5t-2 262.5zM539 1567q74 55 119 85.5t72.5 47t44 20.5t32.5 4q29 0 59.5 -23.5t65.5 -84.5 q-94 -47 -149.5 -71.5t-86 -37t-45 -14.5t-24.5 -2q-23 0 -43 14.5t-45 61.5z" />
<glyph unicode="&#xdb;" horiz-adv-x="1263" d="M129 1315q0 39 28.5 57.5t108.5 18.5q31 0 46.5 -11.5t15.5 -42.5q0 -27 -1 -87t-1 -138t-2 -166t-2 -171t-1 -152.5t-1 -108.5q0 -86 15 -155.5t51 -119t95.5 -75t149.5 -25.5t150.5 25.5t97.5 75t53 119t16 155.5q0 41 -1 110.5t-1 152.5t-2 169t-2 162t-1 131t-1 76 q0 39 28.5 57.5t108.5 18.5q31 0 46.5 -11.5t15.5 -42.5q0 -39 -1 -105.5t-1 -170t-1 -247.5t-1 -339q0 -242 -128 -363.5t-376 -121.5q-246 0 -372 123t-126 364q0 375 -2 575.5t-2 262.5zM418 1548q0 31 43 62q41 33 68.5 54.5t47 33.5t36 17t34.5 5t34.5 -5t37 -17 t47.5 -34t68 -54q45 -33 45 -62q0 -55 -58 -59l-174 84l-172 -84q-57 4 -57 59z" />
<glyph unicode="&#xdc;" horiz-adv-x="1263" d="M129 1315q0 39 28.5 57.5t108.5 18.5q31 0 46.5 -11.5t15.5 -42.5q0 -27 -1 -87t-1 -138t-2 -166t-2 -171t-1 -152.5t-1 -108.5q0 -86 15 -155.5t51 -119t95.5 -75t149.5 -25.5t150.5 25.5t97.5 75t53 119t16 155.5q0 41 -1 110.5t-1 152.5t-2 169t-2 162t-1 131t-1 76 q0 39 28.5 57.5t108.5 18.5q31 0 46.5 -11.5t15.5 -42.5q0 -39 -1 -105.5t-1 -170t-1 -247.5t-1 -339q0 -242 -128 -363.5t-376 -121.5q-246 0 -372 123t-126 364q0 375 -2 575.5t-2 262.5zM375 1612q0 86 129 86q29 0 46 -11.5t17 -46.5q0 -49 -5 -77.5t-17 -44 t-34.5 -20.5t-57.5 -5q-43 0 -60.5 22.5t-17.5 96.5zM729 1612q0 86 129 86q29 0 46.5 -11.5t17.5 -46.5q0 -49 -5.5 -77.5t-17.5 -44t-34.5 -20.5t-57.5 -5q-43 0 -60.5 22.5t-17.5 96.5z" />
<glyph unicode="&#xdd;" horiz-adv-x="1032" d="M23.5 1368q27.5 23 121.5 23q35 0 48.5 -10.5t27.5 -49.5l309 -688l304 686q6 18 15 29.5t24.5 18.5t41 10.5t64.5 3.5q35 0 44 -21.5t-7 -56.5l-400 -836q-2 -84 -2 -168t-2 -153q-2 -82 -2 -156l-194 -10q0 51 2 121q2 59 3 150t1 214l-397 811q-29 59 -1.5 82z M399 1567q74 55 119 85.5t72.5 47t44 20.5t32.5 4q29 0 59.5 -23.5t65.5 -84.5q-94 -47 -149.5 -71.5t-86 -37t-45 -14.5t-24.5 -2q-23 0 -43 14.5t-45 61.5z" />
<glyph unicode="&#xde;" horiz-adv-x="1036" d="M139 -10q0 131 2 266q2 115 3 249t1 251q0 76 -1 160.5t-1 161.5t-1 139.5t-1 97.5q0 39 29 57.5t109 18.5q31 0 47 -11.5t14 -42.5l-4 -202q29 6 81 12t97 6q104 0 189 -21.5t144.5 -70.5t91.5 -129t32 -197q0 -123 -34 -206t-93.5 -134t-139 -73.5t-169.5 -22.5 q-53 0 -105.5 7t-97.5 18v-324zM332 459q37 -6 81 -11.5t91 -5.5q55 0 104 13.5t86 46.5t58.5 89t21.5 140q0 82 -21.5 134.5t-58.5 83t-86 41.5t-106 11q-59 0 -103.5 -5t-60.5 -9q0 -45 -1 -107.5t-2 -133t-2 -145.5t-1 -142z" />
<glyph unicode="&#xdf;" horiz-adv-x="1060" d="M119 956q0 117 22.5 214.5t73.5 168t135 109.5t205 39q117 0 194.5 -45t114.5 -121t33 -174t-53 -205q-96 -55 -137 -100t-41 -115q0 -43 25.5 -72.5t63.5 -54.5t82 -49.5t81.5 -58t63.5 -83t26 -122.5q0 -139 -83 -219t-243 -80q-76 0 -141.5 16t-87.5 41 q-10 10 -10.5 34.5t16.5 72.5q47 -10 91 -17.5t103 -7.5q80 0 125 39t45 110q0 51 -25.5 86t-62.5 61t-82 50.5t-81.5 57t-62.5 78.5t-26 118q0 104 57.5 170t168.5 123q27 63 27.5 122.5t-20 104.5t-61.5 73t-98 28q-258 0 -258 -394l4 -954l-182 -10v79t1 118.5t1 164.5 v219q0 53 -1 108.5t-1 107t-1 95.5t-1 74z" />
<glyph unicode="&#xe0;" horiz-adv-x="1034" d="M80 477q0 141 31.5 240.5t89 162t133.5 92t166 29.5q76 0 136 -17t95 -36q12 29 43 41t78 12q57 0 57 -53q0 -16 -1 -50t-3 -81t-3 -105.5t-1 -119.5v-276.5t1 -166t4 -92t9 -57.5q-20 -4 -54 -6t-62 -2q-102 0 -78 139l20 45l-4 6q-25 -35 -58.5 -69.5t-75.5 -62 t-91 -45t-104 -17.5q-176 0 -252 129t-76 360zM268 483q0 -188 50.5 -268t152.5 -80q37 0 76 16.5t73.5 40t61.5 50t39 49.5q-2 90 -2 177t1 159.5t2 125t3 72.5q-39 18 -88 27.5t-102 9.5q-57 0 -105.5 -16.5t-84.5 -58.5t-56.5 -115.5t-20.5 -188.5zM305 1358 q45 35 70.5 49t54.5 14q20 0 38.5 -7t42 -32.5t58.5 -73.5t90 -130q-27 -23 -44 -34t-40 -11q-18 0 -34.5 6t-44 29.5t-72.5 67.5t-119 122z" />
<glyph unicode="&#xe1;" horiz-adv-x="1034" d="M80 477q0 141 31.5 240.5t89 162t133.5 92t166 29.5q76 0 136 -17t95 -36q12 29 43 41t78 12q57 0 57 -53q0 -16 -1 -50t-3 -81t-3 -105.5t-1 -119.5v-276.5t1 -166t4 -92t9 -57.5q-20 -4 -54 -6t-62 -2q-102 0 -78 139l20 45l-4 6q-25 -35 -58.5 -69.5t-75.5 -62 t-91 -45t-104 -17.5q-176 0 -252 129t-76 360zM268 483q0 -188 50.5 -268t152.5 -80q37 0 76 16.5t73.5 40t61.5 50t39 49.5q-2 90 -2 177t1 159.5t2 125t3 72.5q-39 18 -88 27.5t-102 9.5q-57 0 -105.5 -16.5t-84.5 -58.5t-56.5 -115.5t-20.5 -188.5zM406 1178 q55 82 90 130t58.5 73.5t40 32.5t38.5 7q29 0 55.5 -14t71.5 -49q-74 -78 -120 -122t-73.5 -67.5t-44 -29.5t-34.5 -6q-23 0 -40.5 11t-41.5 34z" />
<glyph unicode="&#xe2;" horiz-adv-x="1034" d="M80 477q0 141 31.5 240.5t89 162t133.5 92t166 29.5q76 0 136 -17t95 -36q12 29 43 41t78 12q57 0 57 -53q0 -16 -1 -50t-3 -81t-3 -105.5t-1 -119.5v-276.5t1 -166t4 -92t9 -57.5q-20 -4 -54 -6t-62 -2q-102 0 -78 139l20 45l-4 6q-25 -35 -58.5 -69.5t-75.5 -62 t-91 -45t-104 -17.5q-176 0 -252 129t-76 360zM268 483q0 -188 50.5 -268t152.5 -80q37 0 76 16.5t73.5 40t61.5 50t39 49.5q-2 90 -2 177t1 159.5t2 125t3 72.5q-39 18 -88 27.5t-102 9.5q-57 0 -105.5 -16.5t-84.5 -58.5t-56.5 -115.5t-20.5 -188.5zM299 1186q0 31 37 74 q72 78 110.5 117.5t81.5 39.5q23 0 42.5 -10t41 -29.5t48 -50.5t63.5 -70q37 -43 37 -71q0 -27 -14.5 -39t-43.5 -17l-174 148l-174 -148q-27 4 -41 16.5t-14 39.5z" />
<glyph unicode="&#xe3;" horiz-adv-x="1034" d="M80 477q0 141 31.5 240.5t89 162t133.5 92t166 29.5q76 0 136 -17t95 -36q12 29 43 41t78 12q57 0 57 -53q0 -16 -1 -50t-3 -81t-3 -105.5t-1 -119.5v-276.5t1 -166t4 -92t9 -57.5q-20 -4 -54 -6t-62 -2q-102 0 -78 139l20 45l-4 6q-25 -35 -58.5 -69.5t-75.5 -62 t-91 -45t-104 -17.5q-176 0 -252 129t-76 360zM236 1241q0 72 33.5 98.5t74.5 26.5q37 0 74 -8t71 -17.5t65.5 -17.5t60.5 -8q55 0 37 84q78 16 104.5 -12.5t26.5 -90.5q0 -74 -35 -99.5t-76 -25.5q-37 0 -75 8.5t-73.5 17.5t-66 17.5t-53.5 8.5q-31 0 -39 -22.5t0 -63.5 q-78 -14 -103.5 14.5t-25.5 89.5zM268 483q0 -188 50.5 -268t152.5 -80q37 0 76 16.5t73.5 40t61.5 50t39 49.5q-2 90 -2 177t1 159.5t2 125t3 72.5q-39 18 -88 27.5t-102 9.5q-57 0 -105.5 -16.5t-84.5 -58.5t-56.5 -115.5t-20.5 -188.5z" />
<glyph unicode="&#xe4;" horiz-adv-x="1034" d="M80 477q0 141 31.5 240.5t89 162t133.5 92t166 29.5q76 0 136 -17t95 -36q12 29 43 41t78 12q57 0 57 -53q0 -16 -1 -50t-3 -81t-3 -105.5t-1 -119.5v-276.5t1 -166t4 -92t9 -57.5q-20 -4 -54 -6t-62 -2q-102 0 -78 139l20 45l-4 6q-25 -35 -58.5 -69.5t-75.5 -62 t-91 -45t-104 -17.5q-176 0 -252 129t-76 360zM252 1303q0 86 129 86q29 0 46 -11.5t17 -46.5q0 -49 -5 -77.5t-17 -45t-34.5 -21.5t-57.5 -5q-43 0 -60.5 23.5t-17.5 97.5zM268 483q0 -188 50.5 -268t152.5 -80q37 0 76 16.5t73.5 40t61.5 50t39 49.5q-2 90 -2 177t1 159.5 t2 125t3 72.5q-39 18 -88 27.5t-102 9.5q-57 0 -105.5 -16.5t-84.5 -58.5t-56.5 -115.5t-20.5 -188.5zM606 1303q0 86 129 86q29 0 46.5 -11.5t17.5 -46.5q0 -49 -5.5 -77.5t-17.5 -45t-34.5 -21.5t-57.5 -5q-43 0 -60.5 23.5t-17.5 97.5z" />
<glyph unicode="&#xe5;" horiz-adv-x="1034" d="M80 477q0 141 31.5 240.5t89 162t133.5 92t166 29.5q76 0 136 -17t95 -36q12 29 43 41t78 12q57 0 57 -53q0 -16 -1 -50t-3 -81t-3 -105.5t-1 -119.5v-276.5t1 -166t4 -92t9 -57.5q-20 -4 -54 -6t-62 -2q-102 0 -78 139l20 45l-4 6q-25 -35 -58.5 -69.5t-75.5 -62 t-91 -45t-104 -17.5q-176 0 -252 129t-76 360zM268 483q0 -188 50.5 -268t152.5 -80q37 0 76 16.5t73.5 40t61.5 50t39 49.5q-2 90 -2 177t1 159.5t2 125t3 72.5q-39 18 -88 27.5t-102 9.5q-57 0 -105.5 -16.5t-84.5 -58.5t-56.5 -115.5t-20.5 -188.5zM348 1280 q0 102 52 145t130 43q80 0 133.5 -42t53.5 -146t-52.5 -145t-134.5 -41q-78 0 -130 42t-52 144zM456 1280q0 -47 21.5 -69.5t52.5 -22.5q76 0 76 92q0 94 -76 94q-31 0 -52.5 -23.5t-21.5 -70.5z" />
<glyph unicode="&#xe6;" horiz-adv-x="1587" d="M80 477q0 141 31.5 240.5t89 162t133.5 92t166 29.5q76 0 136 -17t95 -36q12 29 43 41t78 12q57 0 57 -53v-23.5t-2 -33.5q51 53 111.5 81.5t134.5 28.5q86 0 154.5 -22.5t115.5 -74.5t73 -135t26 -202q0 -53 -24.5 -73.5t-78.5 -20.5h-112.5h-145.5t-145.5 1t-114.5 1 v-39q2 -90 24.5 -148.5t61.5 -93t93.5 -49t121.5 -14.5q88 0 162 18.5t104 28.5q18 -51 18.5 -69.5t-13.5 -32.5q-29 -29 -105 -57.5t-205 -28.5q-139 0 -232 48t-157 150q-61 -80 -155.5 -140t-210.5 -60q-176 0 -252 129t-76 360zM268 483q0 -188 50.5 -268t152.5 -80 q37 0 76 16.5t73.5 40t61.5 50t39 49.5q-2 90 -2 177t1 159.5t2 125t3 72.5q-39 18 -88 27.5t-102 9.5q-57 0 -105.5 -16.5t-84.5 -58.5t-56.5 -115.5t-20.5 -188.5zM903 582l447 4q6 147 -49.5 214.5t-147.5 67.5q-53 0 -96 -22.5t-76 -61.5t-53.5 -91t-24.5 -111z" />
<glyph unicode="&#xe7;" horiz-adv-x="800" d="M76 481q0 143 32.5 242.5t91 161t137.5 89t171 27.5q80 0 140.5 -22.5t84.5 -48.5q16 -16 17.5 -38t-25.5 -69q-29 8 -77 22.5t-111 14.5q-59 0 -109.5 -19.5t-86.5 -64.5t-56.5 -117t-20.5 -178q0 -104 21.5 -172.5t59.5 -108.5t88 -55.5t110 -15.5q72 0 118 12.5 t74 24.5q25 -47 24 -69.5t-18 -39.5q-18 -18 -78.5 -43.5t-170.5 -25.5q-92 0 -169 27.5t-131.5 88t-85 153.5t-30.5 224zM328 -246q66 4 90 33q12 16 14 41t-8 82h121q4 -14 9 -40t5 -56q0 -84 -48 -123t-109 -39q-45 0 -64 18q-6 6 -10 22.5t0 61.5z" />
<glyph unicode="&#xe8;" horiz-adv-x="956" d="M76 455q0 137 33.5 240.5t93 171t140.5 101t177 33.5q86 0 154.5 -22.5t117 -74.5t74 -135t25.5 -202q0 -53 -24.5 -73.5t-78.5 -20.5h-113.5h-146t-146.5 1t-116 1q-2 -102 18.5 -168.5t60.5 -105.5t97.5 -54.5t128.5 -15.5q88 0 162 18.5t105 28.5q18 -51 18 -69.5 t-14 -32.5q-29 -29 -104.5 -57.5t-205.5 -28.5q-102 0 -186 27.5t-144.5 85t-93 145.5t-32.5 207zM268 582l451 4q6 147 -50.5 214.5t-148.5 67.5q-53 0 -97 -22.5t-77 -61.5t-53.5 -91t-24.5 -111zM275 1358q45 35 70.5 49t54.5 14q20 0 38.5 -7t42 -32.5t58.5 -73.5 t90 -130q-27 -23 -44 -34t-40 -11q-18 0 -34.5 6t-44 29.5t-72.5 67.5t-119 122z" />
<glyph unicode="&#xe9;" horiz-adv-x="956" d="M76 455q0 137 33.5 240.5t93 171t140.5 101t177 33.5q86 0 154.5 -22.5t117 -74.5t74 -135t25.5 -202q0 -53 -24.5 -73.5t-78.5 -20.5h-113.5h-146t-146.5 1t-116 1q-2 -102 18.5 -168.5t60.5 -105.5t97.5 -54.5t128.5 -15.5q88 0 162 18.5t105 28.5q18 -51 18 -69.5 t-14 -32.5q-29 -29 -104.5 -57.5t-205.5 -28.5q-102 0 -186 27.5t-144.5 85t-93 145.5t-32.5 207zM268 582l451 4q6 147 -50.5 214.5t-148.5 67.5q-53 0 -97 -22.5t-77 -61.5t-53.5 -91t-24.5 -111zM438 1178q55 82 90 130t58.5 73.5t40 32.5t38.5 7q29 0 55.5 -14t71.5 -49 q-74 -78 -120 -122t-73.5 -67.5t-44 -29.5t-34.5 -6q-23 0 -40.5 11t-41.5 34z" />
<glyph unicode="&#xea;" horiz-adv-x="956" d="M76 455q0 137 33.5 240.5t93 171t140.5 101t177 33.5q86 0 154.5 -22.5t117 -74.5t74 -135t25.5 -202q0 -53 -24.5 -73.5t-78.5 -20.5h-113.5h-146t-146.5 1t-116 1q-2 -102 18.5 -168.5t60.5 -105.5t97.5 -54.5t128.5 -15.5q88 0 162 18.5t105 28.5q18 -51 18 -69.5 t-14 -32.5q-29 -29 -104.5 -57.5t-205.5 -28.5q-102 0 -186 27.5t-144.5 85t-93 145.5t-32.5 207zM268 582l451 4q6 147 -50.5 214.5t-148.5 67.5q-53 0 -97 -22.5t-77 -61.5t-53.5 -91t-24.5 -111zM293 1186q0 31 37 74q72 78 110.5 117.5t81.5 39.5q23 0 42.5 -10 t41 -29.5t48 -50.5t63.5 -70q37 -43 37 -71q0 -27 -14.5 -39t-43.5 -17l-174 148l-174 -148q-27 4 -41 16.5t-14 39.5z" />
<glyph unicode="&#xeb;" horiz-adv-x="956" d="M76 455q0 137 33.5 240.5t93 171t140.5 101t177 33.5q86 0 154.5 -22.5t117 -74.5t74 -135t25.5 -202q0 -53 -24.5 -73.5t-78.5 -20.5h-113.5h-146t-146.5 1t-116 1q-2 -102 18.5 -168.5t60.5 -105.5t97.5 -54.5t128.5 -15.5q88 0 162 18.5t105 28.5q18 -51 18 -69.5 t-14 -32.5q-29 -29 -104.5 -57.5t-205.5 -28.5q-102 0 -186 27.5t-144.5 85t-93 145.5t-32.5 207zM248 1303q0 86 129 86q29 0 46 -11.5t17 -46.5q0 -49 -5 -77.5t-17 -45t-34.5 -21.5t-57.5 -5q-43 0 -60.5 23.5t-17.5 97.5zM268 582l451 4q6 147 -50.5 214.5t-148.5 67.5 q-53 0 -97 -22.5t-77 -61.5t-53.5 -91t-24.5 -111zM602 1303q0 86 129 86q29 0 46.5 -11.5t17.5 -46.5q0 -49 -5.5 -77.5t-17.5 -45t-34.5 -21.5t-57.5 -5q-43 0 -60.5 23.5t-17.5 97.5z" />
<glyph unicode="&#xec;" horiz-adv-x="1101" d="M129 0q2 78 2 136.5v103.5q0 29 -1 57.5t-1 64.5q0 20 9 30.5t57 10.5q14 0 20 -7t6 -17v-19.5t-4 -23.5l4 -4q27 29 61.5 50t75.5 21q78 0 97 -77q29 35 65.5 56t77.5 21q109 0 109 -145q0 -84 -1 -129t-1 -72q0 -20 1 -32.5t3 -22.5q-10 -2 -23.5 -2h-30.5 q-29 0 -38 11.5t-9 37.5v197q0 39 -14 54t-39 15q-20 0 -47 -12t-45 -35v-266q-25 -2 -46.5 -2h-45.5v252q0 41 -16.5 53t-39.5 12q-20 0 -46.5 -15t-43.5 -34v-266q-27 -2 -49 -2h-47zM811 100v15v442q0 20 10 29.5t51 9.5q23 0 29 -7t6 -22q2 -39 0 -107.5t-2 -162.5v-195 q0 -20 9.5 -25t27.5 -5q17 0 25 2q6 -25 6 -37q0 -25 -18.5 -32t-59.5 -7q-47 0 -65.5 25.5t-18.5 76.5z" />
<glyph unicode="&#xed;" horiz-adv-x="614" d="M127 197q0 104 49 155t119 51q29 0 53.5 -8t40.5 -18q10 27 68 26q20 0 24 -8t4 -22q0 -41 -1 -67.5t-1 -67.5q0 -51 1 -103.5t1 -122.5q0 -104 -35.5 -146t-130.5 -42q-72 0 -109.5 10t-49.5 23q-4 6 -6 17t6 42q16 -4 54 -10t83 -6q41 0 68.5 19.5t23.5 70.5v59l8 19 l-4 4q-20 -29 -54 -47.5t-79 -18.5q-25 0 -49.5 9.5t-42.5 31t-29.5 58t-11.5 92.5zM221 199q0 -35 7.5 -57.5t18.5 -35t24.5 -17.5t27.5 -5q33 0 56.5 17.5t35.5 33.5v125q0 31 2 57q-12 4 -36 7.5t-38 3.5q-45 0 -71.5 -30t-26.5 -99z" />
<glyph unicode="&#xee;" horiz-adv-x="419" d="M129 100v15v442q0 20 10.5 29.5t50.5 9.5q23 0 29 -7t6 -22q2 -39 0 -107.5t-2 -162.5v-195q0 -20 9.5 -25t27.5 -5q17 0 25 2q6 -25 6 -37q0 -25 -18.5 -32t-59.5 -7q-47 0 -65.5 25.5t-18.5 76.5z" />
<glyph unicode="&#xef;" horiz-adv-x="835" d="M129 -2q2 78 2 137.5v104.5q0 29 -1 57.5t-1 64.5q0 20 9 30.5t57 10.5q14 0 20 -7t6 -17v-19.5t-4 -23.5l4 -4q27 29 61.5 50t75.5 21q78 0 97 -77q29 35 65.5 56t77.5 21q109 0 109 -145q0 -72 -1 -116t-1 -70.5t1 -42t3 -27.5q-10 -2 -23.5 -3t-30.5 -1 q-29 0 -38 12.5t-9 38.5v197q0 41 -14 56t-43 15q-20 0 -46 -13t-42 -36v-266q-6 0 -18.5 -1t-28 -1t-27.5 -1t-18 -1v254q0 41 -16.5 53t-39.5 12q-20 0 -46.5 -15t-43.5 -34v-266q-6 0 -19 -1t-28.5 -1t-29 -1t-19.5 -1z" />
<glyph unicode="&#xf0;" horiz-adv-x="1013" d="M76 473q0 143 32.5 240.5t90 157t135.5 86t170 26.5q23 0 53.5 -3t60 -9t55.5 -13.5t42 -13.5q-16 92 -49 166t-86 121l-187 -139q-41 27 -56 43t-15 36q0 31 40 60l101 67q-33 23 -90.5 37.5t-102.5 20.5q-20 2 -27 16t-7 33q0 68 16 88t35 20q18 0 54 -5t79 -16 t88 -28.5t82 -44.5l172 129q47 -23 60.5 -40t13.5 -33q0 -31 -41 -60l-95 -67q129 -115 180.5 -310.5t51.5 -464.5q0 -305 -115 -445t-313 -140q-209 0 -318.5 127t-109.5 358zM262 479q0 -184 70.5 -267t177.5 -83q55 0 99 21.5t75 69.5t48.5 126t17.5 193q0 74 -3.5 147.5 t-13.5 120.5q-16 6 -41.5 12t-55.5 12.5t-59.5 9.5t-52.5 3q-57 0 -105 -15.5t-83 -55.5t-54.5 -111.5t-19.5 -182.5z" />
<glyph unicode="&#xf1;" horiz-adv-x="1062" d="M119 926q0 76 141 75q25 0 34 -14t9 -39q0 -27 -3 -55.5t-7 -63.5l6 -4q31 31 70 62t84 56.5t97 41.5t109 16q141 0 211 -86t70 -251q0 -199 -1 -316t-1 -184.5t3 -100t9 -63.5q-16 -4 -46.5 -5t-61.5 -1q-49 0 -69.5 27.5t-20.5 70.5v531q0 123 -37 177t-119 54 q-70 0 -144.5 -46t-142.5 -106v-702l-186 -10q0 61 1 134t1 149.5v155.5v153q0 115 -3 206t-3 138zM273 1241q0 72 33.5 98.5t74.5 26.5q37 0 74 -8t71 -17.5t65.5 -17.5t60.5 -8q55 0 37 84q78 16 104.5 -12.5t26.5 -90.5q0 -74 -35 -99.5t-76 -25.5q-37 0 -75 8.5 t-73.5 17.5t-66 17.5t-53.5 8.5q-31 0 -39 -22.5t0 -63.5q-78 -14 -103.5 14.5t-25.5 89.5z" />
<glyph unicode="&#xf2;" d="M76 496q0 135 32.5 230t91 156.5t137.5 90t173 28.5q92 0 172 -28.5t137.5 -90t90 -156.5t32.5 -230q0 -133 -32.5 -229.5t-90 -158t-136.5 -90t-173 -28.5t-173 28.5t-137.5 90t-91 157.5t-32.5 230zM260 496q0 -186 66.5 -277.5t183.5 -91.5t182.5 91.5t65.5 277.5 t-65.5 277t-182.5 91t-183.5 -91t-66.5 -277zM275 1358q45 35 70.5 49t54.5 14q20 0 38.5 -7t42 -32.5t58.5 -73.5t90 -130q-27 -23 -44 -34t-40 -11q-18 0 -34.5 6t-44 29.5t-72.5 67.5t-119 122z" />
<glyph unicode="&#xf3;" d="M76 496q0 135 32.5 230t91 156.5t137.5 90t173 28.5q92 0 172 -28.5t137.5 -90t90 -156.5t32.5 -230q0 -133 -32.5 -229.5t-90 -158t-136.5 -90t-173 -28.5t-173 28.5t-137.5 90t-91 157.5t-32.5 230zM260 496q0 -186 66.5 -277.5t183.5 -91.5t182.5 91.5t65.5 277.5 t-65.5 277t-182.5 91t-183.5 -91t-66.5 -277zM461 1178q55 82 90 130t58.5 73.5t40 32.5t38.5 7q29 0 55.5 -14t71.5 -49q-74 -78 -120 -122t-73.5 -67.5t-44 -29.5t-34.5 -6q-23 0 -40.5 11t-41.5 34z" />
<glyph unicode="&#xf4;" d="M76 496q0 135 32.5 230t91 156.5t137.5 90t173 28.5q92 0 172 -28.5t137.5 -90t90 -156.5t32.5 -230q0 -133 -32.5 -229.5t-90 -158t-136.5 -90t-173 -28.5t-173 28.5t-137.5 90t-91 157.5t-32.5 230zM260 496q0 -186 66.5 -277.5t183.5 -91.5t182.5 91.5t65.5 277.5 t-65.5 277t-182.5 91t-183.5 -91t-66.5 -277zM279 1186q0 31 37 74q72 78 110.5 117.5t81.5 39.5q23 0 42.5 -10t41 -29.5t48 -50.5t63.5 -70q37 -43 37 -71q0 -27 -14.5 -39t-43.5 -17l-174 148l-174 -148q-27 4 -41 16.5t-14 39.5z" />
<glyph unicode="&#xf5;" d="M76 496q0 135 32.5 230t91 156.5t137.5 90t173 28.5q92 0 172 -28.5t137.5 -90t90 -156.5t32.5 -230q0 -133 -32.5 -229.5t-90 -158t-136.5 -90t-173 -28.5t-173 28.5t-137.5 90t-91 157.5t-32.5 230zM230 1241q0 72 33.5 98.5t74.5 26.5q37 0 74 -8t71 -17.5t65.5 -17.5 t60.5 -8q55 0 37 84q78 16 104.5 -12.5t26.5 -90.5q0 -74 -35 -99.5t-76 -25.5q-37 0 -75 8.5t-73.5 17.5t-66 17.5t-53.5 8.5q-31 0 -39 -22.5t0 -63.5q-78 -14 -103.5 14.5t-25.5 89.5zM260 496q0 -186 66.5 -277.5t183.5 -91.5t182.5 91.5t65.5 277.5t-65.5 277 t-182.5 91t-183.5 -91t-66.5 -277z" />
<glyph unicode="&#xf6;" d="M76 496q0 135 32.5 230t91 156.5t137.5 90t173 28.5q92 0 172 -28.5t137.5 -90t90 -156.5t32.5 -230q0 -133 -32.5 -229.5t-90 -158t-136.5 -90t-173 -28.5t-173 28.5t-137.5 90t-91 157.5t-32.5 230zM244 1303q0 86 129 86q29 0 46 -11.5t17 -46.5q0 -49 -5 -77.5 t-17 -45t-34.5 -21.5t-57.5 -5q-43 0 -60.5 23.5t-17.5 97.5zM260 496q0 -186 66.5 -277.5t183.5 -91.5t182.5 91.5t65.5 277.5t-65.5 277t-182.5 91t-183.5 -91t-66.5 -277zM598 1303q0 86 129 86q29 0 46.5 -11.5t17.5 -46.5q0 -49 -5.5 -77.5t-17.5 -45t-34.5 -21.5 t-57.5 -5q-43 0 -60.5 23.5t-17.5 97.5z" />
<glyph unicode="&#xf7;" horiz-adv-x="942" d="M39 585q4 23 16 36q18 18 76 18h768q6 -66 3 -89.5t-15 -35.5q-18 -18 -78 -18h-766q-8 66 -4 89zM377 264q0 88 133 88q29 0 47 -11t18 -48q0 -51 -5 -81t-17 -46t-34.5 -21.5t-59.5 -5.5q-47 0 -64.5 24.5t-17.5 100.5zM377 911q0 88 133 88q29 0 47 -11t18 -48 q0 -51 -5 -81t-17 -46t-34.5 -21.5t-59.5 -5.5q-47 0 -64.5 24.5t-17.5 100.5z" />
<glyph unicode="&#xf8;" d="M76 496q0 135 32.5 231t91 157.5t137.5 90.5t173 29q96 0 176 -31l49 90q10 20 28.5 21t53.5 -17q33 -18 39 -32.5t-4 -33.5l-53 -98q68 -61 105.5 -161.5t37.5 -245.5q0 -133 -32.5 -229.5t-90 -158t-136.5 -90t-173 -28.5q-104 0 -184 33l-47 -89q-10 -20 -29 -21 t-53 17q-31 16 -38 29.5t3 36.5l51 98q-66 61 -101.5 160.5t-35.5 241.5zM256 496q0 -74 12.5 -135.5t34.5 -102.5l309 582q-43 25 -102 24q-117 0 -185.5 -90t-68.5 -278zM399 154q45 -25 111 -25q117 0 184.5 90.5t67.5 276.5q0 158 -51 247z" />
<glyph unicode="&#xf9;" horiz-adv-x="1056" d="M119 326v600q0 75 139 75q29 0 39 -15t10 -42q0 -31 -1 -97.5t-2 -149.5t-2 -171t-1 -159q0 -133 41 -183.5t127 -50.5q72 0 139.5 45t134.5 121v627q0 76 138 75q29 0 40 -12t11 -37v-80t-1 -128.5t-1 -164v-186.5v-159.5t1 -103.5t4 -70.5t9 -59.5q-16 -4 -47 -5 t-61 -1q-47 0 -73 32.5t-15 110.5l16 37l-6 4q-78 -92 -166 -141t-199 -49q-137 0 -205.5 86t-68.5 252zM303 1358q45 35 70.5 49t54.5 14q20 0 38.5 -7t42 -32.5t58.5 -73.5t90 -130q-27 -23 -44 -34t-40 -11q-18 0 -34.5 6t-44 29.5t-72.5 67.5t-119 122z" />
<glyph unicode="&#xfa;" horiz-adv-x="1056" d="M119 326v600q0 75 139 75q29 0 39 -15t10 -42q0 -31 -1 -97.5t-2 -149.5t-2 -171t-1 -159q0 -133 41 -183.5t127 -50.5q72 0 139.5 45t134.5 121v627q0 76 138 75q29 0 40 -12t11 -37v-80t-1 -128.5t-1 -164v-186.5v-159.5t1 -103.5t4 -70.5t9 -59.5q-16 -4 -47 -5 t-61 -1q-47 0 -73 32.5t-15 110.5l16 37l-6 4q-78 -92 -166 -141t-199 -49q-137 0 -205.5 86t-68.5 252zM447 1178q55 82 90 130t58.5 73.5t40 32.5t38.5 7q29 0 55.5 -14t71.5 -49q-74 -78 -120 -122t-73.5 -67.5t-44 -29.5t-34.5 -6q-23 0 -40.5 11t-41.5 34z" />
<glyph unicode="&#xfb;" horiz-adv-x="1056" d="M119 326v600q0 75 139 75q29 0 39 -15t10 -42q0 -31 -1 -97.5t-2 -149.5t-2 -171t-1 -159q0 -133 41 -183.5t127 -50.5q72 0 139.5 45t134.5 121v627q0 76 138 75q29 0 40 -12t11 -37v-80t-1 -128.5t-1 -164v-186.5v-159.5t1 -103.5t4 -70.5t9 -59.5q-16 -4 -47 -5 t-61 -1q-47 0 -73 32.5t-15 110.5l16 37l-6 4q-78 -92 -166 -141t-199 -49q-137 0 -205.5 86t-68.5 252zM311 1186q0 31 37 74q72 78 110.5 117.5t81.5 39.5q23 0 42.5 -10t41 -29.5t48 -50.5t63.5 -70q37 -43 37 -71q0 -27 -14.5 -39t-43.5 -17l-174 148l-174 -148 q-27 4 -41 16.5t-14 39.5z" />
<glyph unicode="&#xfc;" horiz-adv-x="1056" d="M119 326v600q0 75 139 75q29 0 39 -15t10 -42q0 -31 -1 -97.5t-2 -149.5t-2 -171t-1 -159q0 -133 41 -183.5t127 -50.5q72 0 139.5 45t134.5 121v627q0 76 138 75q29 0 40 -12t11 -37v-80t-1 -128.5t-1 -164v-186.5v-159.5t1 -103.5t4 -70.5t9 -59.5q-16 -4 -47 -5 t-61 -1q-47 0 -73 32.5t-15 110.5l16 37l-6 4q-78 -92 -166 -141t-199 -49q-137 0 -205.5 86t-68.5 252zM270 1303q0 86 129 86q29 0 46 -11.5t17 -46.5q0 -49 -5 -77.5t-17 -45t-34.5 -21.5t-57.5 -5q-43 0 -60.5 23.5t-17.5 97.5zM624 1303q0 86 129 86q29 0 46.5 -11.5 t17.5 -46.5q0 -49 -5.5 -77.5t-17.5 -45t-34.5 -21.5t-57.5 -5q-43 0 -60.5 23.5t-17.5 97.5z" />
<glyph unicode="&#xfd;" horiz-adv-x="888" d="M6 948q0 20 26.5 36.5t102.5 16.5q23 0 39 -4t27 -32q4 -10 23.5 -69.5t48 -144.5t60.5 -182.5t59.5 -180.5t47 -140.5t21.5 -61.5q59 207 108 373q20 70 40 138.5t36.5 122.5t26.5 89t12 41q4 10 10 19.5t20.5 16.5t38 11t64.5 4q20 0 34.5 -8t14.5 -30v-13.5t-4 -15.5 q-4 -12 -28.5 -89t-59.5 -187.5t-78 -242.5t-85 -257t-77.5 -228.5t-58.5 -158.5t-47.5 -100.5t-56 -78t-71.5 -51t-95 -18.5q-66 0 -106 11t-52 22q-16 14 -16 34q0 29 12 78q20 -2 43 -4q18 -2 39.5 -3t44.5 -1q57 0 92 29.5t68 115.5q27 74 37 101.5t14 44.5 q-23 70 -58.5 168t-77.5 205.5l-84 215t-77 194.5t-56.5 145.5t-21.5 68.5zM336 1178q55 82 90 130t58.5 73.5t40 32.5t38.5 7q29 0 55.5 -14t71.5 -49q-74 -78 -120 -122t-73.5 -67.5t-44 -29.5t-34.5 -6q-23 0 -40.5 11t-41.5 34z" />
<glyph unicode="&#xfe;" horiz-adv-x="1024" d="M123 -373q2 209 4 353.5t3 251t1 186v157.5q0 41 -1 114t-1 159t-2 177t-2 169t-1 134t-1 75q0 76 133 76q51 0 51 -52q0 -199 -1 -330.5t-3 -224.5l-18 -43l4 -6q25 33 58.5 65t75.5 57.5t91 40.5t102 15q172 0 250 -124.5t78 -362.5q0 -141 -31.5 -241.5t-87 -164 t-131.5 -92t-164 -28.5q-72 0 -127 11t-96 24v-210t2 -132.5t5 -83t10 -62.5q-12 -4 -49 -5t-68 -1q-49 0 -66.5 27.5t-17.5 70.5zM299 152q47 -10 98.5 -17.5t94.5 -7.5q57 0 106 16.5t84 59.5t54.5 115.5t19.5 187.5q0 98 -14.5 164.5t-41 107.5t-64.5 58.5t-83 17.5 q-31 0 -65.5 -14.5t-68.5 -35t-63.5 -45t-50.5 -44.5q2 -172 1 -280.5t-3 -172.5q-2 -74 -4 -110z" />
<glyph unicode="&#xff;" horiz-adv-x="888" d="M6 948q0 20 26.5 36.5t102.5 16.5q23 0 39 -4t27 -32q4 -10 23.5 -69.5t48 -144.5t60.5 -182.5t59.5 -180.5t47 -140.5t21.5 -61.5q59 207 108 373q20 70 40 138.5t36.5 122.5t26.5 89t12 41q4 10 10 19.5t20.5 16.5t38 11t64.5 4q20 0 34.5 -8t14.5 -30v-13.5t-4 -15.5 q-4 -12 -28.5 -89t-59.5 -187.5t-78 -242.5t-85 -257t-77.5 -228.5t-58.5 -158.5t-47.5 -100.5t-56 -78t-71.5 -51t-95 -18.5q-66 0 -106 11t-52 22q-16 14 -16 34q0 29 12 78q20 -2 43 -4q18 -2 39.5 -3t44.5 -1q57 0 92 29.5t68 115.5q27 74 37 101.5t14 44.5 q-23 70 -58.5 168t-77.5 205.5l-84 215t-77 194.5t-56.5 145.5t-21.5 68.5zM168 1303q0 86 129 86q29 0 46 -11.5t17 -46.5q0 -49 -5 -77.5t-17 -45t-34.5 -21.5t-57.5 -5q-43 0 -60.5 23.5t-17.5 97.5zM522 1303q0 86 129 86q29 0 46.5 -11.5t17.5 -46.5q0 -49 -5.5 -77.5 t-17.5 -45t-34.5 -21.5t-57.5 -5q-43 0 -60.5 23.5t-17.5 97.5z" />
<glyph unicode="&#x152;" horiz-adv-x="1806" d="M88 690q0 178 40 311.5t114.5 221.5t180 132t234.5 44q84 0 156 -30t113 -79l-2 94q78 0 183 1t214 1h212h177q2 -39 2 -62.5t-2 -37.5t-5 -21.5t-9 -13.5q-8 -8 -25.5 -12t-74 -5t-168 0t-308.5 3l-2 -444h533v-146h-533v-497q166 0 269.5 1t167 3t98.5 6t61 10 q10 -35 10 -92q0 -35 -27.5 -56.5t-74.5 -21.5h-690l4 88q-43 -49 -118 -76.5t-163 -27.5q-129 0 -233.5 44t-179 132t-114.5 220t-40 310zM285 690q0 -279 100 -416t272 -137q96 0 161 39t106 119l4 457v174t-2 145q-39 80 -104.5 127t-164.5 47q-172 0 -272 -137 t-100 -418z" />
<glyph unicode="&#x153;" horiz-adv-x="1605" d="M76 496q0 135 34.5 231t94 157.5t137.5 90.5t162 29q123 0 206 -53.5t124 -155.5q41 104 135 156.5t205 52.5q82 0 150.5 -23t115.5 -75t72.5 -136t25.5 -205q-2 -49 -25.5 -69.5t-72.5 -20.5h-527q-4 -96 12.5 -162.5t52.5 -106.5t91 -57.5t133 -17.5q111 0 184.5 20.5 t96.5 28.5q18 -51 18 -71.5t-14 -36.5q-29 -29 -117 -55.5t-209 -26.5q-125 0 -216 43t-128 147q-39 -98 -128 -145t-195 -47q-92 0 -169 29.5t-132.5 91t-86 157.5t-30.5 230zM262 496q0 -180 60.5 -274.5t173.5 -94.5q111 0 175 91.5t64 277.5q0 182 -60.5 275t-172.5 93 q-111 0 -175.5 -90t-64.5 -278zM915 582h110.5t120 1t117 2t101.5 1q8 150 -50.5 216t-150.5 66q-53 0 -97 -22.5t-76 -61.5t-51.5 -91t-23.5 -111z" />
<glyph unicode="&#x178;" horiz-adv-x="1032" d="M23.5 1368q27.5 23 121.5 23q35 0 48.5 -10.5t27.5 -49.5l309 -688l304 686q6 18 15 29.5t24.5 18.5t41 10.5t64.5 3.5q35 0 44 -21.5t-7 -56.5l-400 -836q-2 -84 -2 -168t-2 -153q-2 -82 -2 -156l-194 -10q0 51 2 121q2 59 3 150t1 214l-397 811q-29 59 -1.5 82z M258 1612q0 86 129 86q29 0 46 -11.5t17 -46.5q0 -49 -5 -77.5t-17 -44t-34.5 -20.5t-57.5 -5q-43 0 -60.5 22.5t-17.5 96.5zM612 1612q0 86 129 86q29 0 46.5 -11.5t17.5 -46.5q0 -49 -5.5 -77.5t-17.5 -44t-34.5 -20.5t-57.5 -5q-43 0 -60.5 22.5t-17.5 96.5z" />
<glyph unicode="&#x2c6;" horiz-adv-x="620" d="M80 1186q0 31 37 74q72 78 110.5 117.5t81.5 39.5q23 0 42.5 -10t41 -29.5t48 -50.5t63.5 -70q37 -43 37 -71q0 -27 -14.5 -39t-43.5 -17l-174 148l-174 -148q-27 4 -41 16.5t-14 39.5z" />
<glyph unicode="&#x2dc;" horiz-adv-x="704" d="M80 1241q0 72 33.5 98.5t74.5 26.5q37 0 74 -8t71 -17.5t65.5 -17.5t60.5 -8q55 0 37 84q78 16 104.5 -12.5t26.5 -90.5q0 -74 -35 -99.5t-76 -25.5q-37 0 -75 8.5t-73.5 17.5t-66 17.5t-53.5 8.5q-31 0 -39 -22.5t0 -63.5q-78 -14 -103.5 14.5t-25.5 89.5z" />
<glyph unicode="&#x2000;" horiz-adv-x="862" />
<glyph unicode="&#x2001;" horiz-adv-x="1724" />
<glyph unicode="&#x2002;" horiz-adv-x="862" />
<glyph unicode="&#x2003;" horiz-adv-x="1724" />
<glyph unicode="&#x2004;" horiz-adv-x="574" />
<glyph unicode="&#x2005;" horiz-adv-x="431" />
<glyph unicode="&#x2006;" horiz-adv-x="287" />
<glyph unicode="&#x2007;" horiz-adv-x="287" />
<glyph unicode="&#x2008;" horiz-adv-x="215" />
<glyph unicode="&#x2009;" horiz-adv-x="344" />
<glyph unicode="&#x200a;" horiz-adv-x="95" />
<glyph unicode="&#x2010;" horiz-adv-x="655" d="M59 623.5q4 25.5 17 38.5q10 10 27.5 15t48.5 5h442q6 -63 2 -89t-16 -38q-10 -10 -26.5 -14t-47.5 -4h-445q-6 61 -2 86.5z" />
<glyph unicode="&#x2011;" horiz-adv-x="655" d="M59 623.5q4 25.5 17 38.5q10 10 27.5 15t48.5 5h442q6 -63 2 -89t-16 -38q-10 -10 -26.5 -14t-47.5 -4h-445q-6 61 -2 86.5z" />
<glyph unicode="&#x2012;" horiz-adv-x="655" d="M59 623.5q4 25.5 17 38.5q10 10 27.5 15t48.5 5h442q6 -63 2 -89t-16 -38q-10 -10 -26.5 -14t-47.5 -4h-445q-6 61 -2 86.5z" />
<glyph unicode="&#x2013;" horiz-adv-x="1024" d="M4 698.5q4 24.5 16 36.5q18 18 76 19h924q2 -35 3 -57.5t-1 -37t-6 -22.5t-10 -14q-10 -10 -27.5 -15.5t-48.5 -5.5h-924q-6 72 -2 96.5z" />
<glyph unicode="&#x2014;" horiz-adv-x="2048" d="M4 698.5q4 24.5 16 36.5q18 18 76 19h1946q6 -72 2 -95.5t-16 -35.5q-10 -10 -32 -15.5t-71 -5.5h-1919q-6 72 -2 96.5z" />
<glyph unicode="&#x2018;" horiz-adv-x="374" d="M86 1102q0 100 10 173t24.5 123t31 79.5t28.5 42.5q47 43 142 -7q-18 -43 -33 -92t-15 -108q0 -35 5.5 -81t5.5 -99q0 -94 -131 -95q-31 0 -49.5 12.5t-18.5 51.5z" />
<glyph unicode="&#x2019;" horiz-adv-x="374" d="M53 1069q18 43 32.5 92t14.5 109q0 35 -5 81t-5 99q0 94 131 94q31 0 49.5 -12t18.5 -51q0 -100 -10.5 -173t-24.5 -123.5t-30.5 -80t-29.5 -41.5q-47 -43 -141 6z" />
<glyph unicode="&#x201a;" horiz-adv-x="348" d="M43 -258q18 43 32.5 92t14.5 109q0 35 -5 81t-5 99q0 94 131 94q31 0 49.5 -12t18.5 -51q0 -100 -10.5 -173t-24.5 -123.5t-30.5 -80t-29.5 -41.5q-47 -43 -141 6z" />
<glyph unicode="&#x201c;" horiz-adv-x="671" d="M86 1102q0 100 10 173t24.5 123t31 79.5t28.5 42.5q47 43 142 -7q-18 -43 -33 -92t-15 -108q0 -35 5.5 -81t5.5 -99q0 -94 -131 -95q-31 0 -49.5 12.5t-18.5 51.5zM383 1102q0 100 10 173t24.5 123t31 79.5t28.5 42.5q47 43 141 -7q-18 -43 -32.5 -92t-14.5 -108 q0 -35 5.5 -81t5.5 -99q0 -94 -131 -95q-31 0 -49.5 12.5t-18.5 51.5z" />
<glyph unicode="&#x201d;" horiz-adv-x="671" d="M53 1069q18 43 32.5 92t14.5 109q0 35 -5 81t-5 99q0 94 131 94q31 0 49.5 -12t18.5 -51q0 -100 -10.5 -173t-24.5 -123.5t-30.5 -80t-29.5 -41.5q-47 -43 -141 6zM350 1069q18 43 32.5 92t14.5 109q0 35 -5 81t-5 99q0 94 131 94q31 0 49.5 -12t18.5 -51 q0 -100 -10.5 -173t-24.5 -123.5t-30.5 -80t-29.5 -41.5q-47 -43 -141 6z" />
<glyph unicode="&#x201e;" horiz-adv-x="647" d="M43 -258q18 43 32.5 92t14.5 109q0 35 -5 81t-5 99q0 94 131 94q31 0 49.5 -12t18.5 -51q0 -100 -10.5 -173t-24.5 -123.5t-30.5 -80t-29.5 -41.5q-47 -43 -141 6zM340 -258q18 43 32.5 92t14.5 109q0 35 -5 81t-5 99q0 94 131 94q31 0 49.5 -12t18.5 -51 q0 -100 -10.5 -173t-24.5 -123.5t-30.5 -80t-29.5 -41.5q-47 -43 -141 6z" />
<glyph unicode="&#x2022;" horiz-adv-x="669" d="M129 707q0 98 67.5 141t192.5 43q72 0 112 -30t40 -111q0 -98 -10.5 -156.5t-36 -89.5t-68.5 -41t-111 -10q-53 0 -89 11t-57.5 38.5t-30.5 77t-9 127.5z" />
<glyph unicode="&#x2026;" horiz-adv-x="1243" d="M84 123q0 94 141 94q31 0 50.5 -12t19.5 -51q0 -53 -5 -86t-19.5 -49.5t-38 -21.5t-60.5 -5q-51 0 -69.5 25.5t-18.5 105.5zM516 123q0 94 141 94q31 0 50.5 -12t19.5 -51q0 -53 -5 -86t-19.5 -49.5t-38 -21.5t-60.5 -5q-51 0 -69.5 25.5t-18.5 105.5zM948 123 q0 94 142 94q31 0 50 -12t19 -51q0 -53 -5 -86t-19.5 -49.5t-38 -21.5t-60.5 -5q-51 0 -69.5 25.5t-18.5 105.5z" />
<glyph unicode="&#x202f;" horiz-adv-x="344" />
<glyph unicode="&#x2039;" horiz-adv-x="559" d="M58.5 532.5q-1.5 20.5 3 36t12.5 27.5t22 25l285 270q25 23 70 -23q18 -23 23 -36t-5 -27l-225 -264l227 -267q16 -25 -20 -63q-43 -43 -68 -23l-317 291q-6 33 -7.5 53.5z" />
<glyph unicode="&#x203a;" horiz-adv-x="559" d="M85.5 249q-5.5 13 4.5 27l225 265l-227 266q-16 25 21 63q43 43 67 23l318 -291q6 -33 7 -53.5t-3 -35.5t-12.5 -27.5t-22.5 -24.5l-285 -271q-25 -23 -69 23q-18 23 -23.5 36z" />
<glyph unicode="&#x205f;" horiz-adv-x="431" />
<glyph unicode="&#x20ac;" horiz-adv-x="1071" d="M27 560q4 24 16 34q20 20 68 20h65l2 117h-139q-6 49 -1 72.5t15 34.5q20 20 68 20h69q18 115 65.5 207t121.5 156.5t172 99.5t217 35q98 0 162.5 -19.5t85.5 -40.5q14 -16 15 -38.5t-23 -81.5q-29 8 -84.5 18t-130.5 10q-168 0 -270.5 -94t-131.5 -252h522 q6 -51 2 -73.5t-16 -34.5q-18 -18 -68 -19h-456v-117h520q6 -51 2 -73.5t-16 -34.5q-18 -18 -68 -19h-428q27 -174 131 -262t303 -88q72 0 129.5 9.5t81.5 15.5q20 -57 18 -78t-16 -35q-23 -23 -94.5 -43t-175.5 -20q-133 0 -234.5 36.5t-172 102t-111.5 159t-54 203.5h-159 q-6 49 -2 73z" />
<glyph unicode="&#x2122;" horiz-adv-x="1333" d="M43 1264q-4 57 0 74.5t16 29.5q16 16 60 16h424q4 -61 -1 -78.5t-16 -27.5q-8 -8 -17 -12t-32 -2l-108 2v-498l-142 -10v508zM543 799.5q-2 13.5 2 36.5l90 510q4 25 27.5 37t76.5 12q63 0 72 -45l82 -430l88 432q4 20 24.5 31.5t79.5 11.5q33 0 48.5 -10.5t19.5 -32.5 l88 -510q8 -41 -10 -60q-10 -10 -35 -16t-88 -8l-59 469l-7 -123l-81 -340l-156 -6l-94 471v-125l-45 -344q-53 0 -76 2t-33 12q-12 12 -14 25.5z" />
<glyph unicode="&#x25fc;" horiz-adv-x="1013" d="M0 0v1014h1014v-1014h-1014z" />
</font>
</defs>
</svg>
