<?xml version="1.0" standalone="no"?>
<!DOCTYPE svg PUBLIC "-//W3C//DTD SVG 1.1//EN" "http://www.w3.org/Graphics/SVG/1.1/DTD/svg11.dtd" >
<svg xmlns="http://www.w3.org/2000/svg">
<metadata></metadata>
<defs>
<font id="officeworksbookbook" horiz-adv-x="1134" >
<font-face units-per-em="2048" ascent="1536" descent="-512" />
<missing-glyph horiz-adv-x="567" />
<glyph horiz-adv-x="2048" />
<glyph horiz-adv-x="2048" />
<glyph unicode="&#xd;" horiz-adv-x="0" />
<glyph unicode=" "  horiz-adv-x="567" />
<glyph unicode="&#x09;" horiz-adv-x="567" />
<glyph unicode="&#xa0;" horiz-adv-x="567" />
<glyph unicode="!" horiz-adv-x="604" d="M229 0v256h150v-256h-150zM229 391v1114h150v-1114h-150z" />
<glyph unicode="&#x22;" horiz-adv-x="632" d="M66 1505h163l-24 -590h-115zM383 1505h164l-25 -590h-114z" />
<glyph unicode="#" d="M61 418v137h218l57 393h-221v137h239l60 420h139l-59 -420h274l57 420h142l-60 -420h170v-137h-188l-55 -393h190v-137h-211l-57 -420h-142l60 420h-273l-59 -420h-141l59 420h-199zM420 555h272l56 393h-273z" />
<glyph unicode="$" d="M145 463h140q0 -70 23.5 -123t63.5 -90t92 -55.5t109 -18.5t107.5 20.5t89.5 57.5t61.5 85t22.5 103q0 111 -65.5 184.5t-217.5 114.5q-76 20 -146.5 46t-123.5 67t-86 103.5t-33 158.5q0 80 25.5 142.5t68.5 107.5t98.5 73.5t112.5 41.5v168h150v-164q59 -10 116.5 -38 t101.5 -74t72.5 -111.5t30.5 -149.5h-139q0 51 -18.5 97t-51 80t-77.5 54.5t-99 20.5q-53 0 -99 -18.5t-80 -51t-53 -74.5t-19 -90q0 -47 13 -83.5t45 -66.5t83 -54.5t125 -46.5q88 -27 162.5 -60t128 -82t84 -116.5t30.5 -161.5q0 -86 -30.5 -157t-82 -123t-115 -84 t-128.5 -42v-196h-150v202q-63 12 -124.5 42t-109.5 79t-78 120t-30 163z" />
<glyph unicode="%" horiz-adv-x="1587" d="M51 1163q0 76 29 141.5t78 114.5t114.5 78t141.5 29t141.5 -29t114.5 -78t77.5 -114.5t28.5 -141.5t-28.5 -141.5t-77.5 -114.5t-114.5 -77.5t-141.5 -28.5t-141.5 28.5t-114.5 77.5t-78 114.5t-29 141.5zM166 1163q0 -51 19.5 -96t53 -79t78.5 -53.5t97 -19.5 q51 0 96 19.5t79 53.5t53.5 79t19.5 96t-19.5 96.5t-53.5 79t-79 53t-96 19.5t-96.5 -19.5t-79 -53t-53 -79t-19.5 -96.5zM287 -2l862 1507h139l-864 -1507h-137zM807 340q0 74 28.5 140.5t78 115.5t115 77.5t140.5 28.5q76 0 141.5 -28.5t115 -77.5t78 -115.5t28.5 -140.5 q0 -76 -28.5 -142.5t-78 -115.5t-115 -78t-141.5 -29t-141 29t-114.5 78t-78 115.5t-28.5 142.5zM922 340q0 -51 19.5 -96t53 -79t78.5 -53.5t96 -19.5t96.5 19.5t79 53.5t53 79t19.5 96t-19.5 95t-53 78t-78.5 53.5t-97 19.5q-51 0 -96 -19.5t-78.5 -53.5t-53 -78 t-19.5 -95z" />
<glyph unicode="&#x26;" horiz-adv-x="1550" d="M111 434q0 80 29.5 147.5t78.5 123t112.5 99.5t131.5 75q-18 18 -30.5 31.5t-18.5 19.5q-63 63 -93 135t-30 133q0 70 29.5 130.5t80 105.5t116 71.5t136.5 26.5q92 0 160 -35t112 -88t65.5 -114.5t21.5 -114.5q0 -37 -11.5 -79t-43 -87t-89 -89t-149.5 -87 q53 -53 128 -127t157 -154q33 63 69.5 132t65.5 126q35 68 67 131h170q-47 -92 -94 -182q-20 -39 -41.5 -80t-43 -83t-42 -81t-39.5 -71q74 -72 141.5 -139.5t120.5 -119.5q61 -61 117 -112l-109 -105q-47 47 -102 101q-47 47 -109.5 108.5t-134.5 130.5q-27 -66 -67.5 -126 t-98 -108t-129 -77t-159.5 -29q-94 0 -180.5 38t-152 100.5t-104 146.5t-38.5 176zM262 426q0 -51 20.5 -105.5t60.5 -99.5t98.5 -74.5t131.5 -29.5q74 0 128.5 27.5t95.5 70.5t72.5 96.5t60.5 106.5l2 2q-98 96 -194.5 188t-170.5 166q-92 -41 -151.5 -83t-93 -86t-47 -89 t-13.5 -90zM440 1200q0 -29 7.5 -55.5t26 -57t52 -66.5t86.5 -79q137 51 193.5 112.5t56.5 133.5q0 39 -14 74.5t-41 63.5t-66 45.5t-90 17.5t-91 -18.5t-66.5 -46.5t-40 -60.5t-13.5 -63.5z" />
<glyph unicode="'" horiz-adv-x="405" d="M123 1505h164l-25 -590h-115z" />
<glyph unicode="(" horiz-adv-x="755" d="M98 561q0 135 27 248t71 207t100 169t116 134q137 137 313 221v-154q-135 -82 -240 -204q-45 -53 -87 -119t-75.5 -145.5t-54 -173t-20.5 -201.5q0 -100 20.5 -188.5t54 -165t75.5 -140t87 -115.5q104 -121 240 -206v-146q-176 74 -313 207q-59 57 -115.5 132t-100.5 170 t-71 212t-27 258z" />
<glyph unicode=")" horiz-adv-x="755" d="M33 -272q133 86 237 206q45 51 88 115t77 140.5t54.5 164.5t20.5 189q0 109 -20.5 202t-54.5 172.5t-77 145t-88 119.5q-104 123 -237 204v154q174 -84 313 -221q57 -59 113.5 -134t101.5 -169t71.5 -207t26.5 -248q0 -141 -26.5 -258t-71.5 -212t-101.5 -170 t-113.5 -132q-139 -133 -313 -207v146z" />
<glyph unicode="*" horiz-adv-x="870" d="M123 1233l37 115l231 -93l-10 250h117l-15 -252l234 90l35 -112l-238 -66l154 -190l-97 -70l-135 207l-135 -205l-96 70l155 190z" />
<glyph unicode="+" horiz-adv-x="1241" d="M111 446v138h444v446h137v-446h445v-138h-445v-446h-137v446h-444z" />
<glyph unicode="," horiz-adv-x="567" d="M16 -150l189 406h149l-186 -406h-152z" />
<glyph unicode="-" horiz-adv-x="679" d="M51 504v137h574v-137h-574z" />
<glyph unicode="." horiz-adv-x="567" d="M203 0v256h159v-256h-159z" />
<glyph unicode="/" horiz-adv-x="894" d="M86 -203l571 1708h160l-575 -1708h-156z" />
<glyph unicode="0" d="M63 522v469q0 131 38 233.5t105.5 172t159 106.5t199.5 37q106 0 198.5 -37t160 -105.5t105.5 -168t38 -223.5v-498q0 -125 -38 -224.5t-105.5 -169t-159.5 -106.5t-199 -37q-109 0 -200 37t-158.5 107.5t-105.5 173t-38 233.5zM211 498q0 -76 25.5 -146.5t71.5 -124 t111.5 -86t145.5 -32.5t145.5 30.5t111.5 82.5t72 123t26 149v526q0 78 -26 148.5t-72 122.5t-111.5 83t-145.5 31t-145.5 -33t-111.5 -87t-71.5 -123.5t-25.5 -145.5v-518z" />
<glyph unicode="1" d="M276 1380v140l281 2h129v-1522h-151v1378z" />
<glyph unicode="2" d="M88 0v137q143 139 270 260q53 51 108.5 103.5t103.5 98.5t86 84t61 60q88 86 137 165t49 169q0 43 -17.5 99.5t-56 106.5t-101 84t-150.5 34q-90 0 -151.5 -34t-100.5 -88t-56.5 -121.5t-17.5 -137.5h-46t-48 2q-27 0 -58 2q0 102 31 195.5t91.5 164t150.5 112.5t211 42 t209 -46t146 -114.5t86 -150.5t28 -152q0 -66 -20.5 -126t-53.5 -115.5t-74 -103.5t-82 -87q-20 -20 -54 -52t-76 -72t-87 -83l-90 -86q-104 -98 -225 -213h753v-137h-956z" />
<glyph unicode="3" d="M74 471h151q0 -66 21.5 -130.5t64.5 -115.5t105.5 -82.5t144.5 -31.5t142.5 29.5t100.5 78.5t60.5 111.5t20.5 126.5q0 63 -24.5 120.5t-68.5 101.5t-106.5 70.5t-136.5 26.5h-96v135q10 -2 24 -2h60q63 0 110 26t78 64.5t45 80.5t14 77q0 49 -13 93t-41 78t-74 53.5 t-109 19.5q-66 0 -111 -29t-74.5 -69.5t-43 -88t-13.5 -86.5h-151q0 70 26.5 144t77.5 133t125 98t168 39t167 -34.5t121 -90t72.5 -127t24.5 -145.5q0 -66 -24.5 -120t-53.5 -93q-35 -45 -78 -82q72 -35 127 -88q47 -47 87 -120t40 -177t-35.5 -194.5t-98 -156 t-149.5 -103.5t-190 -38q-102 0 -191 38t-154.5 104.5t-103.5 158t-38 197.5z" />
<glyph unicode="4" d="M29 289v137l737 1090h172v-1090h137v-137h-137v-289h-150v289h-759zM201 426h587v872z" />
<glyph unicode="5" d="M59 473h152q12 -82 43 -148.5t79 -114.5t109.5 -73.5t132.5 -25.5q72 0 137.5 30.5t115 84t79 124t29.5 148.5q0 80 -27.5 150.5t-76 124.5t-114 86t-140.5 32q-76 0 -133.5 -23.5t-96.5 -52.5q-45 -33 -78 -74l-125 23l138 749h675v-135h-557l-75 -424q33 18 73 35 q35 14 82 25.5t103 11.5q82 0 171 -35t162.5 -101.5t120.5 -164.5t47 -227q0 -127 -49 -225.5t-123.5 -165t-165 -100.5t-172.5 -34q-84 0 -165.5 26t-151.5 84t-122 154.5t-77 235.5z" />
<glyph unicode="6" d="M55 508q0 84 22.5 160.5t53.5 142.5t64.5 118t56.5 87q12 18 32.5 49t47 68.5t56.5 80.5t58 86q68 98 146 213h172q-66 -96 -131 -188q-55 -80 -116.5 -168t-106.5 -158q-2 -4 -3 -5t-4 -5q39 16 85.5 28.5t91.5 12.5q84 0 174 -33.5t163.5 -98t120.5 -159t47 -217.5 q0 -121 -38.5 -222t-108.5 -174t-163 -113t-204 -40t-205 40t-163.5 111t-108.5 169t-39 215zM207 494q0 -70 25.5 -138.5t73.5 -123t114.5 -88t150.5 -33.5q82 0 149.5 31.5t115 86t74 124t26.5 145.5t-25.5 147.5t-71.5 126.5t-110.5 88t-140.5 33q-68 0 -123 -20.5 t-98 -50t-74 -65.5t-51 -67q-35 -94 -35 -196z" />
<glyph unicode="7" d="M117 1380v136h884v-136l-600 -1380h-157l602 1380h-729z" />
<glyph unicode="8" d="M88 440q0 70 21.5 134.5t57.5 116.5t83 90t100 59q-78 53 -133 125.5t-55 181.5q0 92 31.5 165.5t87 125t129 78t159.5 26.5t160 -28.5t128 -81t86 -125t32 -160.5q0 -53 -16.5 -100.5t-43 -87t-60.5 -70.5t-67 -51q51 -23 98.5 -62t84.5 -90t58.5 -113.5t21.5 -132.5 q0 -96 -36 -182t-100.5 -149.5t-152.5 -100.5t-193 -37q-104 0 -192 37t-152.5 100.5t-100.5 149.5t-36 182zM236 432q0 -68 25.5 -128t70.5 -105t105 -71t128 -26t128.5 26t105.5 71t70.5 105.5t25.5 127.5q0 68 -25.5 128.5t-70.5 105.5t-105.5 70.5t-128.5 25.5 t-128 -25.5t-105 -70.5t-70.5 -105.5t-25.5 -128.5zM313 1147q0 -51 20.5 -95t56.5 -77t82 -52.5t97 -19.5t97.5 19.5t81 52.5t55 77t20.5 95q0 55 -20.5 101t-55 81t-81 54.5t-97.5 19.5t-97 -19.5t-82 -53.5t-56.5 -81t-20.5 -102z" />
<glyph unicode="9" d="M55 1014q0 123 39 220t108.5 164.5t162.5 103.5t204 36t205 -41t164 -112.5t108.5 -172t38.5 -217.5q0 -84 -21.5 -158.5t-52 -139t-64.5 -117t-58 -86.5q-12 -18 -32.5 -49t-46.5 -69t-54.5 -81t-57.5 -84q-68 -98 -143 -211h-172q66 94 129 186q27 39 55.5 82t57 85 t56.5 82t50 75q2 4 3 5t3 5q-39 -16 -85 -28.5t-91 -12.5q-84 0 -173 31t-162.5 96.5t-122 165.5t-48.5 242zM199 1006q0 -76 26.5 -147t73.5 -124t111.5 -86t142.5 -33q68 0 123 19.5t98 49.5t75 63.5t52 64.5q16 47 24.5 95t8.5 102q0 70 -25.5 139.5t-74 125.5t-116 92 t-149.5 36t-150.5 -33t-117.5 -87t-75.5 -126t-26.5 -151z" />
<glyph unicode=":" horiz-adv-x="567" d="M199 0v256h161v-256h-161zM199 864v258h161v-258h-161z" />
<glyph unicode=";" horiz-adv-x="567" d="M25 -150l186 406h151l-188 -406h-149zM201 864v258h159v-258h-159z" />
<glyph unicode="&#x3c;" horiz-adv-x="1241" d="M96 451v127l1032 466v-137l-864 -393l864 -393v-137z" />
<glyph unicode="=" horiz-adv-x="1241" d="M111 240v139h1026v-139h-1026zM111 651v137h1026v-137h-1026z" />
<glyph unicode="&#x3e;" horiz-adv-x="1241" d="M113 -16v137l852 393l-852 393v137l1030 -466v-127z" />
<glyph unicode="?" horiz-adv-x="1210" d="M127 1034q0 98 33 188.5t94 160t151.5 111.5t204.5 42q115 0 204 -39t148.5 -103.5t88 -146.5t24.5 -168q-4 -76 -33.5 -137t-72.5 -113.5t-93.5 -100.5t-93.5 -98t-70.5 -107.5t-27.5 -129.5h-152q0 90 29 160t73 126t95 104t95 94.5t73 96.5t29 111q0 98 -37 160 t-89 95.5t-106.5 45t-87.5 11.5q-25 0 -79 -10.5t-109.5 -48.5t-97 -109.5t-41.5 -194.5h-152zM532 0v256h152v-256h-152z" />
<glyph unicode="@" horiz-adv-x="1775" d="M137 752q0 178 66.5 324.5t177.5 248.5t252 158.5t291 56.5q147 0 278 -48t228.5 -136t153.5 -213t56 -281t-42 -261t-101 -168.5t-121.5 -90.5t-103.5 -27q-61 0 -94 26t-50 58q-18 37 -20 84q-29 -47 -68 -84q-35 -33 -88 -58.5t-129 -25.5t-139 34t-106 92.5 t-61.5 138t-6.5 172.5q12 92 52 165.5t94.5 125t119 78t127.5 26.5q80 0 129 -30t78 -64q33 -41 45 -92l33 159h123q-20 -115 -41 -221q-16 -92 -32.5 -185t-27.5 -151q-10 -57 -4 -87t18.5 -42t28 -13t23.5 -1q45 0 88 29.5t77 86t55.5 138.5t21.5 186t-33 205.5 t-103.5 181.5t-183.5 129t-272 49q-162 0 -286 -57t-209 -151.5t-128 -216t-43 -250.5t42 -249t127 -212t214 -147.5t305 -55.5q90 0 177 15.5t155 35.5q80 23 152 51l30 -104q-72 -33 -153 -57q-72 -23 -164 -39.5t-197 -16.5q-178 0 -327.5 55.5t-257 157t-167 245.5 t-59.5 323zM633 621.5q12 -58.5 42 -101.5t74 -66.5t97 -23.5t96 21.5t76 58.5t54.5 85t31.5 101t8 112.5t-23.5 109t-63.5 82t-112 32.5q-47 0 -92 -17.5t-83 -52t-65.5 -88t-39.5 -122.5q-12 -72 0 -130.5z" />
<glyph unicode="A" horiz-adv-x="1515" d="M29 0l643 1516h170l647 -1516h-166l-217 510h-700l-220 -510h-157zM463 647h584l-291 721z" />
<glyph unicode="B" horiz-adv-x="1175" d="M156 0v1513h397q96 0 182 -23.5t150.5 -73.5t102.5 -127t38 -183q0 -78 -25.5 -135.5t-56.5 -93.5q-37 -43 -82 -74q70 -29 125 -80q47 -43 86 -113.5t39 -177.5q0 -106 -39 -187t-109.5 -135.5t-170 -82t-222.5 -27.5h-415zM305 137h295q100 0 170 23.5t112 64.5 t60.5 94.5t18.5 112.5q0 133 -95.5 210t-269.5 77h-231q-37 0 -60 2v-584zM305 856h230q70 0 131 13.5t108 43t75 78.5t28 121q0 141 -96.5 203.5t-252.5 62.5h-223v-522z" />
<glyph unicode="C" horiz-adv-x="1665" d="M88 760q0 162 58.5 303t163 246.5t250 167t319.5 61.5q111 0 212 -29.5t189 -84t159.5 -129t123.5 -165.5h-170q-86 123 -220.5 199t-293.5 76q-133 0 -249 -52.5t-203 -141.5t-137 -207.5t-50 -251.5t50 -251t137 -206t202.5 -138.5t249.5 -50.5q164 0 301 77t225 204 h164q-49 -92 -121 -168t-161 -131t-192.5 -85t-215.5 -30q-162 0 -306.5 62.5t-252 170t-170 250t-62.5 304.5z" />
<glyph unicode="D" horiz-adv-x="1523" d="M160 -6l2 1519h422q145 0 294.5 -40.5t271.5 -131t198.5 -234.5t76.5 -351q0 -190 -67.5 -333.5t-184 -239t-273.5 -142.5t-335 -47h-405zM305 137h299q174 0 301 55.5t210 144.5t122 198.5t39 220.5t-39 221t-122 199.5t-215 145.5t-318 56h-277v-1241z" />
<glyph unicode="E" horiz-adv-x="1097" d="M150 0v1513h823v-135h-674v-544h651v-136h-651v-561h674v-137h-823z" />
<glyph unicode="F" horiz-adv-x="993" d="M143 0v1513h762v-135h-610v-559h588v-137h-588v-682h-152z" />
<glyph unicode="G" horiz-adv-x="1785" d="M82 752q0 162 62.5 305t170 250.5t254 170t312.5 62.5q117 0 225 -30.5t200.5 -87t167 -134.5t125.5 -172h-169q-88 133 -231.5 212t-317.5 79q-135 0 -254 -52t-206 -141.5t-138.5 -209t-51.5 -252.5t51.5 -251t138.5 -206t205.5 -138.5t254.5 -50.5q111 0 210 34 t181 94.5t142.5 143.5t90.5 181h-843v137h1021q-12 -152 -78.5 -282.5t-175 -229t-249 -155t-299.5 -56.5q-166 0 -312.5 61.5t-254 167t-170 247t-62.5 303.5z" />
<glyph unicode="H" horiz-adv-x="1398" d="M158 0v1516h151v-676h778v676h150v-1516h-150v705h-778v-705h-151z" />
<glyph unicode="I" horiz-adv-x="462" d="M156 0v1516h149v-1516h-149z" />
<glyph unicode="J" horiz-adv-x="987" d="M16 358h148q0 -59 21.5 -104t58.5 -78t84 -49t100 -16q51 0 96 15t78 54t51.5 105.5t18.5 169.5v1061h149v-1061q0 -92 -18.5 -178.5t-63.5 -154t-121.5 -108.5t-191.5 -41q-117 0 -194.5 39t-126 97.5t-69 126t-20.5 122.5z" />
<glyph unicode="K" horiz-adv-x="1210" d="M166 0v1516h151v-883l695 883h192l-596 -744l596 -772h-188l-504 653l-195 -239v-414h-151z" />
<glyph unicode="L" horiz-adv-x="946" d="M172 0v1516h152v-1379h622v-137h-774z" />
<glyph unicode="M" horiz-adv-x="1882" d="M158 0v1516h231l549 -1303l549 1303h231v-1516h-149v1341l-561 -1341h-142l-557 1341v-1341h-151z" />
<glyph unicode="N" horiz-adv-x="1515" d="M152 0v1516h204l844 -1272v1272h152v-1516h-152l-897 1325v-1325h-151z" />
<glyph unicode="O" horiz-adv-x="1779" d="M100 752q0 162 62.5 304t170 249.5t252 170t306.5 62.5t305 -62.5t249.5 -170t168 -250t61.5 -303.5q0 -162 -61.5 -303.5t-168 -247t-249.5 -167t-305 -61.5t-306.5 61.5t-252 167t-170 247t-62.5 303.5zM246 752q0 -133 51 -251t139 -206t205 -138.5t250 -50.5 q131 0 247.5 50.5t204 138.5t137.5 205.5t50 251.5q0 133 -50 251.5t-137.5 207.5t-204 141.5t-247.5 52.5q-133 0 -250 -52.5t-205 -141.5t-139 -207.5t-51 -251.5z" />
<glyph unicode="P" horiz-adv-x="1212" d="M158 0v1511h446q121 0 221.5 -27.5t173 -82.5t112.5 -141t40 -203t-44 -202t-116.5 -140.5t-165 -81t-190.5 -25.5h-328v-608h-149zM307 743h322q104 0 174.5 30t115 76t63.5 101.5t19 106.5q0 68 -22.5 126t-66.5 101t-108.5 66.5t-150.5 23.5h-258q-51 0 -88 2v-633z " />
<glyph unicode="Q" horiz-adv-x="1783" d="M88 752q0 162 59.5 305t167 250.5t256 170t326.5 62.5t327.5 -62.5t257 -170t167 -250.5t59.5 -305q0 -166 -67.5 -311.5t-184.5 -252.5q49 -35 104.5 -56t122.5 -21v-138q-102 0 -183 37t-157 92q-98 -61 -209.5 -95t-236.5 -34q-168 0 -315.5 61.5t-257 167t-173 247 t-63.5 303.5zM238 752q0 -92 28 -185q35 14 111 32.5t203 18.5q156 0 271.5 -32.5t204.5 -81.5t158.5 -109.5t131.5 -115.5q98 88 154 209.5t56 263.5q0 133 -52 252.5t-141 209t-209 141.5t-257 52q-135 0 -256 -52t-210 -141.5t-141 -209t-52 -252.5zM322 440 q43 -74 103 -135t134 -105t160 -69t178 -25t175 23t155 64q-63 51 -130 103t-145 93t-170 67.5t-204 26.5q-104 0 -166 -15t-90 -28z" />
<glyph unicode="R" horiz-adv-x="1243" d="M141 0v1513h447q123 0 227.5 -29.5t182 -90t121.5 -149.5t44 -206q0 -98 -36.5 -184t-98 -149.5t-143.5 -101.5t-170 -42l426 -561h-189l-512 682q41 0 98.5 1t96.5 1q104 0 176 35t116 87t64.5 114.5t20.5 117.5q0 61 -24.5 122t-72 109t-117 77.5t-161.5 29.5h-258 q-51 0 -86 2v-1378h-152z" />
<glyph unicode="S" horiz-adv-x="1019" d="M45 422h150q0 -76 25.5 -134.5t69.5 -97t100 -59t118 -20.5q61 0 116.5 22.5t96.5 61t65.5 91t24.5 111.5q0 121 -69.5 200t-235.5 124q-82 23 -159 51.5t-135 72.5t-93 112.5t-35 170.5t39 179t100.5 128.5t137 77t147.5 25.5t144.5 -24.5t132 -76t98.5 -127t43 -180.5 h-152q0 55 -19.5 104.5t-55 87.5t-85 59.5t-106.5 21.5q-59 0 -108.5 -21.5t-86.5 -57.5t-57 -83t-20 -98t15 -91t49 -72t89 -58.5t135 -51.5q94 -29 175 -64.5t139.5 -88.5t91.5 -126t33 -175t-41 -184t-104.5 -139.5t-142.5 -88.5t-155 -31q-78 0 -161 25t-153.5 78 t-115.5 139t-45 207z" />
<glyph unicode="T" horiz-adv-x="872" d="M12 1376v135h840v-135h-342v-1376h-150v1376h-348z" />
<glyph unicode="U" horiz-adv-x="1341" d="M160 567v946h149v-946q0 -219 91.5 -337.5t271.5 -118.5q90 0 158.5 32.5t114.5 92t68.5 143.5t22.5 186v120t-1 144.5t-1 156.5v157v370h152v-946q0 -139 -35 -248.5t-101.5 -186.5t-161.5 -118t-218 -41t-217.5 43t-160 122t-99 187.5t-33.5 241.5z" />
<glyph unicode="V" horiz-adv-x="1437" d="M18 1513h166l535 -1341l532 1341h164l-618 -1513h-164z" />
<glyph unicode="W" horiz-adv-x="1966" d="M31 1513h155l373 -1339l359 1339h139l364 -1341l369 1341h152l-426 -1513h-201l-330 1270l-323 -1270h-209z" />
<glyph unicode="X" horiz-adv-x="1247" d="M25 0l510 786l-482 730h176l402 -594l397 594h174l-483 -730l514 -786h-180l-422 659l-430 -659h-176z" />
<glyph unicode="Y" horiz-adv-x="1212" d="M2 1516h166l430 -811l442 811h164l-528 -971v-545h-152v545z" />
<glyph unicode="Z" horiz-adv-x="983" d="M31 0v137l741 1241h-719v135h887v-135l-737 -1241h760v-137h-932z" />
<glyph unicode="[" horiz-adv-x="718" d="M274 197v798q0 80 17.5 145.5t47.5 119t66.5 95.5t75.5 72q92 74 209 115v-151q-29 -8 -74 -35t-88 -78t-73.5 -128t-30.5 -183q0 -217 1 -420t1 -350q0 -96 23.5 -163t60.5 -114t84 -77.5t96 -53.5v-154q-90 27 -167 75t-132 118t-86 162t-31 207z" />
<glyph unicode="\" horiz-adv-x="1239" d="M240 1513h161l578 -1724h-156z" />
<glyph unicode="]" horiz-adv-x="718" d="M33 -211q49 23 96 53.5t84 77.5t60.5 113.5t23.5 163.5v778q0 106 -30.5 182t-73.5 125t-88.5 73.5t-71.5 33.5v151q115 -37 207 -108q39 -31 75.5 -72t65.5 -94.5t47 -118t18 -143.5v-807q0 -115 -30.5 -207t-86 -162t-131 -118t-165.5 -75v154z" />
<glyph unicode="^" horiz-adv-x="1241" d="M106 623l445 888h129l444 -888h-141l-369 774l-362 -774h-146z" />
<glyph unicode="_" horiz-adv-x="1024" d="M2 -154h1018v-102h-1018v102z" />
<glyph unicode="`" horiz-adv-x="774" d="M139 1483l66 121l397 -222l-65 -116z" />
<glyph unicode="a" horiz-adv-x="1398" d="M92 557q0 121 46 228.5t124 187.5t183.5 127t226.5 47q141 0 260 -60.5t196 -164.5v196h144v-1118h-144v201q-78 -104 -196.5 -166t-259.5 -62q-121 0 -226.5 46.5t-183.5 125t-124 185t-46 227.5zM236 555q0 -94 35.5 -177t97 -145.5t143.5 -98.5t176 -36t176 36 t143.5 98.5t97.5 145.5t36 177t-36 179t-97.5 148.5t-143.5 100.5t-176 37t-176 -37t-143.5 -100.5t-97 -148.5t-35.5 -179z" />
<glyph unicode="b" horiz-adv-x="1396" d="M143 0v1516h142v-601q80 104 198.5 168t259.5 64q119 0 224.5 -47t184.5 -127t124 -187.5t45 -228.5t-45 -227.5t-124 -185t-184.5 -125t-224.5 -46.5q-141 0 -259.5 61.5t-198.5 166.5v-201h-142zM274 555q0 -94 36 -177t97.5 -145.5t143.5 -98.5t176 -36t176 36 t143.5 98.5t97.5 145.5t36 177t-36 179t-97.5 148.5t-143.5 100.5t-176 37t-176 -37t-143.5 -100.5t-97.5 -148.5t-36 -179z" />
<glyph unicode="c" horiz-adv-x="1325" d="M86 557q0 121 47 228.5t128 187.5t190.5 127t232.5 47q92 0 177 -27.5t157 -77t127 -116t90 -146.5h-152q-59 104 -163.5 172t-233.5 68q-96 0 -179 -37t-144.5 -100.5t-97.5 -148.5t-36 -179t36 -177t97.5 -145.5t144.5 -98.5t179 -36q129 0 232.5 63.5t162.5 168.5h152 q-35 -78 -90.5 -143.5t-127 -112.5t-155.5 -74t-176 -27q-123 0 -232.5 46.5t-190.5 125t-128 185t-47 227.5z" />
<glyph unicode="d" horiz-adv-x="1402" d="M84 557q0 121 46 228.5t124 187.5t183.5 127t226.5 47q141 0 259.5 -63.5t196.5 -168.5v601h144v-1516h-144v201q-78 -104 -196.5 -166t-259.5 -62q-121 0 -226.5 46.5t-183.5 125t-124 185t-46 227.5zM227 555q0 -94 36 -177t97.5 -145.5t143.5 -98.5t176 -36t176 36 t143.5 98.5t97.5 145.5t36 177t-36 179t-97.5 148.5t-143.5 100.5t-176 37t-176 -37t-143.5 -100.5t-97.5 -148.5t-36 -179z" />
<glyph unicode="e" horiz-adv-x="1331" d="M80 557q0 121 46 228.5t125 187.5t185.5 126t227.5 46t226 -45t184 -124t125 -185.5t46 -227.5v-25.5t-2 -27.5h-135h-887q8 -86 47 -161t98.5 -130t136.5 -88t163 -33q135 0 242.5 74t160.5 193h143q-31 -86 -84 -158t-124.5 -124t-158.5 -81t-181 -29 q-121 0 -227.5 46.5t-185.5 125t-125 185t-46 227.5zM225 637h881q-12 82 -52 151.5t-98.5 121t-133 80t-156.5 28.5q-84 0 -158 -28.5t-132.5 -80t-98 -121t-52.5 -151.5z" />
<glyph unicode="f" horiz-adv-x="643" d="M41 993v127h172v31q0 74 17.5 143.5t65.5 124t131 88t214 33.5v-131q-68 0 -120 -13.5t-89 -45t-56.5 -88t-19.5 -142.5h285v-127h-285v-993h-143v993h-172z" />
<glyph unicode="g" horiz-adv-x="1378" d="M80 557q0 121 45 228.5t124 187.5t183.5 127t220.5 47q137 0 252 -63.5t193 -168.5v205h139v-975q0 -127 -36 -234.5t-104.5 -185t-170 -120.5t-232.5 -43t-228 38t-166 98t-112 133t-65 140h151q53 -135 160 -207.5t258 -72.5q76 0 148.5 21.5t130 73.5t92.5 136t35 211 v68q-78 -104 -196 -166t-255 -62q-117 0 -220 46.5t-180 125t-122 185t-45 227.5zM219 555q0 -94 35 -177t95.5 -145.5t141 -98.5t173.5 -36q92 0 173 36t141 98.5t95 145.5t35 177t-34 179t-93 148.5t-139 100.5t-172 37t-174 -37t-143.5 -100.5t-97.5 -148.5t-36 -179z " />
<glyph unicode="h" horiz-adv-x="1249" d="M133 0v1509h141v-538q14 20 41 51t69 60.5t100.5 51t136.5 21.5q98 0 187 -30.5t156.5 -96t107.5 -170t40 -254.5v-604h-143v623q0 82 -21.5 155.5t-65.5 129t-109.5 88t-151.5 32.5t-152 -30.5t-109 -85t-64.5 -126t-21.5 -153.5v-633h-141z" />
<glyph unicode="i" horiz-adv-x="409" d="M135 0v1114h141v-1114h-141zM135 1260v256h141v-256h-141z" />
<glyph unicode="j" horiz-adv-x="415" d="M-88 -250q104 0 164.5 68.5t60.5 214.5v612q0 217 2 467h142v-1092q0 -92 -25 -167.5t-73 -130t-116.5 -84t-154.5 -29.5v141zM139 1260v256h142v-256h-142z" />
<glyph unicode="k" horiz-adv-x="1028" d="M139 0v1516h144v-1082l526 686h182l-440 -555l459 -565h-183l-364 455l-180 -228v-227h-144z" />
<glyph unicode="l" horiz-adv-x="409" d="M135 0v1516h141v-1516h-141z" />
<glyph unicode="m" horiz-adv-x="1921" d="M139 0v1120h142v-131q12 18 36.5 45t62.5 51.5t90 43t122 18.5q115 0 214 -50t159 -165q14 25 42.5 61.5t74.5 70.5t108.5 58.5t146.5 24.5q106 0 189.5 -38t140.5 -102.5t86 -151.5t29 -187v-668h-142v666q0 94 -23.5 161.5t-65.5 110.5t-97 62.5t-117 19.5 q-63 0 -118.5 -17.5t-96.5 -62.5t-64.5 -122t-23.5 -195v-58v-565h-143v618q0 90 -17.5 165t-54.5 127.5t-93 81t-134 28.5q-86 0 -145.5 -29.5t-96.5 -81t-53 -122t-16 -150.5v-637h-142z" />
<glyph unicode="n" horiz-adv-x="1249" d="M139 0v1118h144v-151q12 20 39.5 51t69.5 59.5t100.5 49t136.5 20.5q98 0 186 -30t155.5 -95.5t107.5 -168.5t40 -253v-600h-141v618q0 82 -21.5 155t-65.5 128t-109.5 87t-151.5 32t-151.5 -31t-108.5 -83t-64.5 -123.5t-21.5 -153.5v-629h-144z" />
<glyph unicode="o" horiz-adv-x="1341" d="M86 557q0 121 46 228.5t126 187.5t186.5 127t227.5 47t227.5 -47t186 -127t125.5 -187.5t46 -228.5t-46 -227.5t-125.5 -185t-186 -125t-227.5 -46.5t-227.5 46.5t-186.5 125t-126 185t-46 227.5zM227 555q0 -94 35 -177t96.5 -145.5t142.5 -98.5t173 -36t174 36 t143.5 98.5t96 145.5t34.5 177t-34.5 179t-96 148.5t-143.5 100.5t-174 37t-173 -37t-142.5 -100.5t-96.5 -148.5t-35 -179z" />
<glyph unicode="p" horiz-adv-x="1396" d="M133 -389v1507h143v-196q78 104 200 164.5t263 60.5q119 0 224.5 -47t184.5 -127t124 -187.5t45 -228.5t-45 -227.5t-124 -185t-184.5 -125t-224.5 -46.5q-141 0 -263 61.5t-200 166.5v-590h-143zM264 555q0 -94 37 -177t99.5 -145.5t145.5 -98.5t177 -36t176 36 t143.5 98.5t97.5 145.5t36 177t-36 179t-97.5 148.5t-143.5 100.5t-176 37t-177 -37t-145.5 -100.5t-99.5 -148.5t-37 -179z" />
<glyph unicode="q" horiz-adv-x="1396" d="M78 557q0 121 45 228.5t124 187.5t183.5 126t224.5 46q141 0 263 -62.5t200 -167.5v197h144v-1501h-144v590q-78 -104 -199.5 -166t-263.5 -62q-121 0 -225 46.5t-183 125t-124 185t-45 227.5zM219 555q0 -94 36 -177t97.5 -145.5t143.5 -98.5t176 -36t177 36t145.5 98.5 t99 145.5t36.5 177t-36.5 179t-99 147.5t-145.5 99.5t-177 37t-176 -37t-143.5 -99.5t-97.5 -147.5t-36 -179z" />
<glyph unicode="r" horiz-adv-x="616" d="M135 0v1118h141v-184q10 31 32 67.5t58.5 68.5t92 53.5t135.5 21.5v-150q-51 0 -106.5 -19.5t-102.5 -62.5t-78 -110.5t-31 -163.5v-639h-141z" />
<glyph unicode="s" horiz-adv-x="794" d="M55 330h144q0 -43 10 -84t32.5 -73t61.5 -51.5t94 -19.5t95 17.5t65 46.5t36 64.5t11 70.5q0 72 -40 120t-142 87q-51 20 -109.5 43.5t-108.5 59.5t-83 90.5t-33 136.5t28.5 140t75 96t102.5 55.5t112 17.5q55 0 109 -19.5t97 -57.5t70 -95t27 -131h-142q-2 49 -20 88 q-16 33 -50 60.5t-98 27.5q-43 0 -74.5 -15.5t-52 -39t-31 -53t-10.5 -60.5q0 -53 29 -88t68 -57.5t76.5 -36t56.5 -19.5q18 -6 65 -26.5t96.5 -58.5t87.5 -99t38 -150q0 -90 -28 -154.5t-74 -106.5t-105.5 -62.5t-122.5 -20.5t-128 17.5t-117 58.5t-85 109.5t-33 171.5z " />
<glyph unicode="t" horiz-adv-x="694" d="M29 993v127h233v393h141v-393h269v-127h-269v-993h-141v993h-233z" />
<glyph unicode="u" horiz-adv-x="1245" d="M125 520v598h143v-618q0 -80 21.5 -153t65.5 -128t109.5 -87t151.5 -32t150.5 30t108 82t65 124t21.5 153v629h143v-1118h-143v154q-12 -20 -40 -51t-70 -61t-100.5 -50.5t-134.5 -20.5q-98 0 -187 30t-156.5 95.5t-107.5 170t-40 253.5z" />
<glyph unicode="v" d="M14 1118h154l393 -942l400 942h151l-471 -1118h-156z" />
<glyph unicode="w" horiz-adv-x="1701" d="M31 1116h147l350 -936l258 805h123l258 -805l359 936h147l-426 -1116h-162l-235 784l-236 -784h-161z" />
<glyph unicode="x" horiz-adv-x="983" d="M25 0l385 557l-385 561h172l290 -434l293 434h172l-379 -561l379 -557h-168l-295 432l-294 -432h-170z" />
<glyph unicode="y" horiz-adv-x="1097" d="M37 1118h149l355 -893l379 893h151l-645 -1509h-150l195 428z" />
<glyph unicode="z" horiz-adv-x="870" d="M25 0v125l618 866h-598v127h768v-127l-610 -862h647v-129h-825z" />
<glyph unicode="{" horiz-adv-x="718" d="M145 494v131q31 0 64 16t58.5 48t42 77t16.5 102v375q0 51 15 100.5t43 87t68 61.5t89 24h135v-121h-103q-14 0 -30.5 -5.5t-30.5 -23.5t-24.5 -54t-10.5 -100v-376q0 -84 -44 -164t-134 -109q43 -8 77 -36.5t56.5 -68.5t33.5 -86t11 -87v-373q0 -94 25.5 -134t70.5 -40 h103v-123h-148q-33 0 -68.5 16.5t-65 53t-49 95t-19.5 142.5v330q0 61 -17.5 106t-44 76t-58.5 45.5t-61 14.5z" />
<glyph unicode="|" horiz-adv-x="1376" d="M612 -453v2044h152v-2044h-152z" />
<glyph unicode="}" horiz-adv-x="718" d="M49 -262h103q45 0 70.5 40t25.5 134v373q0 41 11 87t33.5 86t56.5 68.5t77 36.5q-90 29 -134 109t-44 164v376q0 63 -10.5 99.5t-24.5 54.5t-30.5 23.5t-30.5 5.5h-103v121h135q49 0 89 -24t68 -61.5t43 -87t15 -100.5v-375q0 -57 16.5 -102t42 -77t58.5 -48t64 -16v-131 q-29 0 -61 -14.5t-58.5 -45.5t-44 -76t-17.5 -106v-330q0 -84 -19.5 -142.5t-49 -95t-65.5 -53t-68 -16.5h-148v123z" />
<glyph unicode="~" horiz-adv-x="1241" d="M131 451q31 53 70 94q35 35 85 65.5t115 30.5q72 0 130.5 -23.5t108.5 -51t97 -50t97 -22.5q39 0 70.5 21.5t53.5 47.5q27 31 48 72l88 -60q-27 -57 -64 -102q-33 -39 -83 -69.5t-116 -30.5q-76 0 -127 22.5t-97 50t-95 50t-121 22.5q-47 0 -76.5 -21.5t-50.5 -47.5 q-23 -31 -37 -68z" />
<glyph unicode="&#xa1;" horiz-adv-x="604" d="M227 -391v1114h150v-1114h-150zM227 864v256h150v-256h-150z" />
<glyph unicode="&#xa2;" d="M96 776q0 86 31 166t85 142.5t127 105.5t159 57v201h151v-199q133 -18 234.5 -100t146.5 -199h-147q-45 78 -122 124t-173 46q-70 0 -131.5 -27.5t-107.5 -75.5t-72.5 -110.5t-26.5 -132.5t26.5 -130t72.5 -105t107.5 -72t131.5 -27q94 0 172 46t121 122h149 q-47 -117 -148.5 -195.5t-232.5 -99.5v-184h-151v186q-86 14 -159 55.5t-127 103t-85 139t-31 163.5z" />
<glyph unicode="&#xa3;" d="M20 711v127h97v231q0 94 33.5 178t93 147.5t143.5 100.5t186 37q100 0 189.5 -38t154 -99.5t102.5 -137t38 -151.5h-148q0 66 -28.5 121t-76.5 95t-108.5 61.5t-122.5 21.5q-61 0 -117.5 -21.5t-98.5 -64.5t-66.5 -105.5t-24.5 -144.5v-231h619v-127h-619v-584h355 q166 0 265 82t99 217q0 16 -3 37.5t-7 40.5q-4 23 -8 41h151q4 -18 8 -39q4 -16 7.5 -35.5t3.5 -38.5q0 -72 -26 -148.5t-87 -140t-163.5 -103.5t-254.5 -40h-489v711h-97z" />
<glyph unicode="&#xa4;" d="M31 561v129h166q0 31 -1 66t-1 75h-164v130h164q0 158 47 268t120.5 180t161.5 101.5t170 31.5q117 0 199 -30.5t135 -65.5q61 -43 102 -96l-59 -146q-33 55 -86 101q-45 37 -112.5 68.5t-163.5 31.5q-92 0 -159 -38t-112 -100.5t-67.5 -142.5t-26.5 -163h606v-130h-606 v-141h606v-129h-604q14 -217 103.5 -334.5t259.5 -117.5q88 0 149.5 22.5t99.5 50.5q45 33 74 74v-178q-35 -31 -82 -53q-41 -20 -101.5 -36t-139.5 -16q-115 0 -209 42t-162 119t-104.5 184.5t-36.5 236.5v6h-166z" />
<glyph unicode="&#xa5;" d="M-4 1505h166l403 -653l410 653h164l-418 -671h344v-127h-422v-162h422v-129h-422v-416h-149v416h-426v129h426v162h-426v127h346z" />
<glyph unicode="&#xa6;" horiz-adv-x="1376" d="M612 -303v713h152v-713h-152zM612 719v711h152v-711h-152z" />
<glyph unicode="&#xa7;" horiz-adv-x="1259" d="M180 721q0 59 20.5 107.5t49.5 85t58.5 61t45.5 35.5q-31 39 -53 89t-22 113q0 59 23.5 118t69.5 106t113.5 75.5t155.5 28.5q96 0 161.5 -30.5t106.5 -75.5t59.5 -97.5t18.5 -95.5h-149q0 43 -21 80q-16 31 -57 56.5t-119 25.5q-104 0 -157.5 -57.5t-53.5 -139.5 q0 -70 37 -109.5t117 -80.5q78 -39 157.5 -79t163.5 -83q84 -41 131 -111.5t47 -162.5q0 -51 -19.5 -95.5t-45 -79t-53 -60.5t-45.5 -38q59 -53 80.5 -113.5t21.5 -136.5q0 -61 -27.5 -120.5t-81 -107.5t-129 -78t-170.5 -30q-104 0 -176.5 42t-119 103.5t-68 131.5 t-21.5 127h150q2 -76 29 -135q12 -25 29.5 -49.5t44 -43t62.5 -29.5t83 -11q113 0 179 60t66 144q0 72 -32.5 119t-118.5 90t-170 87t-176 94q-88 47 -141.5 111.5t-53.5 158.5zM324 721q0 -41 29.5 -84t101.5 -80q37 -18 84 -41.5l95 -47.5t92 -45.5t73 -35.5l18 -12 q12 8 31.5 23.5t38 41t32 59t13.5 79.5q0 41 -30 91t-95 83q-33 16 -83 41.5t-100.5 50t-95.5 47l-67 33.5q-4 2 -7 4t-8 4q-16 -8 -36.5 -24.5t-40 -42t-32.5 -61.5t-13 -83z" />
<glyph unicode="&#xa8;" horiz-adv-x="755" d="M154 1288v268h149v-268h-149zM455 1288v268h149v-268h-149z" />
<glyph unicode="&#xa9;" horiz-adv-x="1529" d="M-10 754q0 160 61.5 301t166 246.5t245.5 167t301 61.5t301 -61.5t246.5 -167t166 -247t60.5 -300.5q0 -162 -60.5 -303.5t-166 -247t-246.5 -167t-301 -61.5t-301 61.5t-245.5 167t-166 247t-61.5 303.5zM96 754q0 -139 52.5 -262t143.5 -214.5t212 -144.5t260 -53 q137 0 259 53t213 144.5t143.5 214t52.5 262.5q0 139 -52.5 261t-143.5 213t-213 144t-259 53q-139 0 -260 -53t-212 -144t-143.5 -213t-52.5 -261zM336 754q0 88 28.5 171t84 148.5t137.5 105.5t188 40t179 -37t119 -88.5t66.5 -102.5t20.5 -82h-108q-6 23 -18.5 57.5 t-40 67.5t-75 56.5t-124.5 23.5q-172 0 -258 -99.5t-86 -260.5q0 -94 27.5 -163t73.5 -113t105.5 -64.5t124.5 -20.5q125 0 183.5 55.5t89.5 151.5h112q0 -23 -21.5 -74t-67.5 -103t-115.5 -92t-167.5 -40q-123 0 -209 40t-141.5 104.5t-81 148.5t-25.5 170z" />
<glyph unicode="&#xaa;" horiz-adv-x="755" d="M0 1182q0 86 34 150.5t86 109.5t115.5 67.5t122.5 22.5q78 0 141.5 -32t108.5 -89v105h121v-672h-121v100q-47 -57 -112.5 -87t-137.5 -30q-61 0 -125.5 23.5t-115.5 69t-84 112t-33 150.5zM121 1178q0 -63 25.5 -108.5t62.5 -73t79 -41t77 -13.5t76.5 13.5t78.5 43 t61.5 74.5t24.5 109q0 63 -24.5 108t-61.5 73t-78.5 41t-76.5 13q-41 0 -84 -13t-78 -42t-58.5 -75t-23.5 -109z" />
<glyph unicode="&#xab;" horiz-adv-x="870" d="M82 573l244 406l120 -64l-204 -342l204 -342l-120 -67zM436 573l244 406l119 -64l-205 -342l205 -342l-119 -67z" />
<glyph unicode="&#xac;" horiz-adv-x="1241" d="M113 651v137h1024v-567h-136v430h-888z" />
<glyph unicode="&#xad;" horiz-adv-x="679" d="M51 504v137h574v-137h-574z" />
<glyph unicode="&#xae;" horiz-adv-x="1529" d="M-10 754q0 160 60.5 301t166 246.5t246.5 167t301 61.5t301 -61.5t246.5 -167t166 -247t60.5 -300.5q0 -162 -60.5 -303.5t-166 -247t-246.5 -167t-301 -61.5t-301 61.5t-246.5 167t-166 247t-60.5 303.5zM94 754q0 -139 52.5 -262t143.5 -214.5t213 -144.5t261 -53 q137 0 259 53t213 144.5t143.5 214t52.5 262.5q0 139 -52.5 261t-143.5 213t-213 144t-259 53q-139 0 -261 -53t-213 -144t-143.5 -213t-52.5 -261zM432 301v889h375q55 0 111.5 -11.5t100.5 -39t72.5 -73.5t28.5 -118t-27.5 -113.5t-59.5 -64t-59.5 -30t-27.5 -9.5t24.5 -8 t53.5 -25.5t53.5 -54.5t24.5 -94q0 -88 4 -137.5t10 -73.5q8 -29 17 -37h-115q-23 20 -23 68.5t-4 95.5q-2 25 -3 60.5t-15.5 70.5t-48 59.5t-101.5 24.5h-282v-379h-109zM541 778h266q98 0 147.5 48t49.5 104q0 72 -42 113.5t-120 41.5h-301v-307z" />
<glyph unicode="&#xaf;" horiz-adv-x="993" d="M168 1366v133h657v-133h-657z" />
<glyph unicode="&#xb0;" horiz-adv-x="819" d="M119 1151q0 59 22.5 112.5t62.5 93.5t93 62.5t115 22.5q61 0 114.5 -22.5t93 -62.5t62.5 -93.5t23 -112.5q0 -61 -23 -114.5t-62.5 -93.5t-93 -62.5t-114.5 -22.5t-114.5 22.5t-93.5 62.5t-62.5 93.5t-22.5 114.5zM219 1151q0 -41 15.5 -76t41 -60.5t60.5 -41t76 -15.5 q39 0 74.5 15.5t61 41t41 60.5t15.5 76q0 39 -15.5 74t-41 60.5t-61 40.5t-74.5 15q-41 0 -76 -15t-60.5 -40.5t-41 -60.5t-15.5 -74z" />
<glyph unicode="&#xb1;" horiz-adv-x="1241" d="M104 553v139h447v363h139v-363h440v-139h-440v-363h-139v363h-447zM111 -49v139h1026v-139h-1026z" />
<glyph unicode="&#xb2;" horiz-adv-x="679" d="M43 602v100q100 92 184 172q37 33 73 68t67.5 64.5t57.5 54t38 37.5q51 51 58 85t7 56q0 37 -15 68.5t-39.5 55t-55.5 37t-64 13.5q-51 0 -86 -19.5t-56.5 -50t-30.5 -70.5t-9 -81h-121q0 61 16.5 119.5t53.5 104.5t95 75t140 29t138.5 -31t91.5 -75t50 -92t15 -85 q0 -72 -43 -140.5t-104 -125.5q-31 -29 -79 -73t-93 -85q-53 -49 -111 -100h428v-111h-606z" />
<glyph unicode="&#xb3;" horiz-adv-x="679" d="M41 905h121q0 -109 56 -158t132 -49q74 0 126 49.5t52 135.5q0 102 -71.5 143t-186.5 33v108h64q63 0 99 39t36 80q0 53 -36 88t-89 35t-87 -41t-34 -111h-123q0 49 16.5 96.5t47.5 84.5t77 59.5t107 22.5q59 0 105.5 -21.5t77 -56.5t46 -77t15.5 -83t-13.5 -71.5 t-29.5 -51.5q-18 -23 -41 -41q39 -20 72 -55q27 -29 49 -74t22 -104q0 -61 -22.5 -114.5t-62.5 -94.5t-98 -64.5t-128 -23.5q-115 0 -176.5 49t-87.5 108q-33 70 -35 160z" />
<glyph unicode="&#xb4;" horiz-adv-x="768" d="M172 1382l385 211l66 -120l-385 -207z" />
<glyph unicode="&#xb6;" horiz-adv-x="1155" d="M51 1102q0 92 33 166.5t92.5 127t142 81t185.5 28.5h622v-114h-129v-1616h-127v1616h-243v-1616h-127v934q-96 2 -179 25.5t-142.5 70.5t-93.5 120.5t-34 176.5z" />
<glyph unicode="&#xb7;" horiz-adv-x="567" d="M201 383v256h161v-256h-161z" />
<glyph unicode="&#xb8;" horiz-adv-x="663" d="M170 -309q35 6 57 12q12 4 23 6q6 -25 16 -43q10 -16 25.5 -29.5t44.5 -13.5q53 0 76.5 33t23.5 70q0 43 -23.5 70.5t-68.5 27.5q-23 0 -38 -6t-25 -15q-12 -8 -21 -18l-78 27l97 194l83 -10l-59 -121q6 4 16 8q8 4 20.5 7.5t29.5 3.5q25 0 51 -9.5t49 -31t37 -54 t14 -78.5q0 -45 -16.5 -77.5t-42 -54t-56 -32t-61.5 -10.5q-59 0 -108.5 34t-65.5 110z" />
<glyph unicode="&#xb9;" horiz-adv-x="679" d="M131 1395v110h275v-903h-123v793h-152z" />
<glyph unicode="&#xba;" horiz-adv-x="755" d="M41 1180q0 74 26.5 138t73.5 112.5t108.5 76t133.5 27.5q70 0 132.5 -27.5t109.5 -76t73.5 -113t26.5 -137.5q0 -74 -26.5 -138.5t-73.5 -112.5t-109.5 -76t-132.5 -28q-72 0 -133.5 28t-108.5 76t-73.5 112.5t-26.5 138.5zM154 1180q0 -49 18 -92.5t49 -76t73 -51 t89 -18.5t89 18.5t72.5 51t49 75.5t18.5 93q0 49 -18.5 92t-49 75.5t-72.5 51t-89 18.5t-89 -18.5t-73 -51t-49 -75.5t-18 -92z" />
<glyph unicode="&#xbb;" horiz-adv-x="870" d="M61 231l207 342l-207 342l121 64l244 -406l-244 -409zM416 231l205 342l-205 342l121 64l243 -406l-243 -409z" />
<glyph unicode="&#xbc;" horiz-adv-x="1701" d="M217 1395v110h275v-913h-123v803h-152zM381 0l678 1505h123l-678 -1505h-123zM831 158v100l447 645h131v-635h84v-110h-84v-158h-119v158h-459zM983 268h307v453z" />
<glyph unicode="&#xbd;" horiz-adv-x="1701" d="M176 1395v110h275v-913h-123v803h-152zM348 0l678 1505h121l-678 -1505h-121zM926 0v100q100 92 184 172q37 33 73 68t67.5 64.5t57 53t38.5 36.5q51 51 58 84.5t7 58.5q0 37 -15.5 68.5t-40 55t-55 37t-63.5 13.5q-51 0 -86 -19.5t-56.5 -50t-30.5 -70.5t-9 -81h-121 q0 61 16.5 119.5t53 104.5t95 75t140.5 29t138.5 -31t91 -75t50 -93t15.5 -84q0 -72 -43 -140.5t-105 -125.5q-31 -29 -78.5 -73t-93.5 -85q-53 -49 -110 -102h428v-109h-606z" />
<glyph unicode="&#xbe;" horiz-adv-x="1701" d="M106 905h121q0 -109 56.5 -158t132.5 -49t127 49.5t51 135.5q0 102 -71.5 143t-186.5 33v108h65q61 0 97.5 39t36.5 80q0 53 -36 88t-89 35t-87 -41t-34 -111h-121q0 49 16.5 96.5t47 84.5t76.5 59.5t106 22.5q59 0 105 -21.5t77 -56.5t46 -77t15 -83t-13 -71.5 t-30 -51.5q-18 -23 -41 -41q39 -20 72 -55q27 -29 49.5 -74t22.5 -104q0 -61 -22.5 -114.5t-62.5 -94.5t-97.5 -64.5t-126.5 -23.5q-115 0 -177.5 49t-89.5 108q-33 70 -35 160zM518 0l678 1505h121l-678 -1505h-121zM938 158v100l446 645h132v-635h83v-110h-83v-158h-119 v158h-459zM1087 268h310v453z" />
<glyph unicode="&#xbf;" horiz-adv-x="1210" d="M127 31q0 76 28.5 137t70.5 113.5t92.5 100.5t92.5 98t70.5 107.5t28.5 129.5h152q0 -96 -29 -167t-72 -126t-92 -99t-92 -89.5t-72 -95.5t-29 -115q0 -98 40 -159t93.5 -92.5t106.5 -42t78 -10.5t79 9.5t107.5 45.5t94 106.5t40.5 193.5h152q0 -98 -31.5 -187.5 t-93 -158t-151 -109.5t-203.5 -41q-115 0 -202 43t-144.5 109.5t-86 146.5t-28.5 152zM510 862v248h152v-248h-152z" />
<glyph unicode="&#xc0;" horiz-adv-x="1515" d="M29 0l643 1516h170l647 -1516h-166l-217 510h-700l-220 -510h-157zM463 647h584l-291 721zM526 1886l66 121l397 -222l-65 -116z" />
<glyph unicode="&#xc1;" horiz-adv-x="1515" d="M29 0l643 1516h170l647 -1516h-166l-217 510h-700l-220 -510h-157zM463 647h584l-291 721zM532 1785l385 211l66 -120l-385 -207z" />
<glyph unicode="&#xc2;" horiz-adv-x="1515" d="M29 0l643 1516h170l647 -1516h-166l-217 510h-700l-220 -510h-157zM398 1703l303 254h118l297 -254h-180l-174 140l-180 -140h-184zM463 647h584l-291 721z" />
<glyph unicode="&#xc3;" horiz-adv-x="1515" d="M29 0l643 1516h170l647 -1516h-166l-217 510h-700l-220 -510h-157zM401 1841q27 25 62 47q29 18 66.5 33.5t84.5 15.5q45 0 86 -13.5t77 -28.5t68.5 -28.5t63.5 -13.5t53.5 6t38.5 17q18 10 33 24l80 -94q-33 -23 -66 -39q-29 -16 -62.5 -27.5t-68.5 -11.5 q-47 0 -88 13.5t-78 28.5t-70.5 28.5t-66.5 13.5t-56.5 -10t-39.5 -21q-20 -14 -33 -30zM463 647h584l-291 721z" />
<glyph unicode="&#xc4;" horiz-adv-x="1515" d="M29 0l643 1516h170l647 -1516h-166l-217 510h-700l-220 -510h-157zM463 647h584l-291 721zM533 1691v268h149v-268h-149zM834 1691v268h149v-268h-149z" />
<glyph unicode="&#xc5;" horiz-adv-x="1515" d="M29 0l643 1516h170l647 -1516h-166l-217 510h-700l-220 -510h-157zM463 647h584l-291 721zM551 1835q0 43 16.5 80.5t44 65.5t65.5 44t81 16t80 -16t64.5 -44t44 -65.5t16.5 -80.5q0 -86 -59.5 -145.5t-145.5 -59.5q-43 0 -81 16.5t-65.5 44t-44 64.5t-16.5 80zM649 1835 q0 -45 31 -77t78 -32q45 0 77 31.5t32 77.5q0 47 -32 78.5t-77 31.5q-47 0 -78 -31.5t-31 -78.5z" />
<glyph unicode="&#xc6;" horiz-adv-x="1912" d="M-31 0l1049 1505h837v-137h-645v-528h625v-138h-625v-567h645v-135h-794v487l-572 -4l-337 -483h-183zM586 621l475 4v706z" />
<glyph unicode="&#xc7;" horiz-adv-x="1665" d="M94 752q0 162 61.5 303t168 246.5t250 167t305.5 61.5q111 0 212 -28.5t189 -81t159.5 -126t123.5 -164.5h-170q-86 123 -220.5 195t-293.5 72q-133 0 -249 -51.5t-203 -138.5t-137 -204.5t-50 -250.5t50 -251t137 -206t202.5 -138.5t249.5 -50.5q164 0 301 77t225 204 h164q-49 -92 -121 -168t-161 -131t-192.5 -85t-215.5 -30l-50 -100q6 4 17 8q8 4 20.5 7t28.5 3q25 0 51.5 -9t49 -30.5t37 -54.5t14.5 -78t-16.5 -77.5t-42 -54t-56.5 -32t-62 -10.5q-59 0 -108 34t-66 110q35 6 58 12q12 4 22 6q6 -25 17 -43q10 -16 25.5 -29.5 t43.5 -13.5q53 0 77 33t24 70q0 43 -24 70.5t-69 27.5q-23 0 -38 -6t-25 -15q-12 -8 -21 -18l-77 27l84 170q-147 14 -275.5 80.5t-221.5 170t-147.5 236.5t-54.5 285z" />
<glyph unicode="&#xc8;" horiz-adv-x="1097" d="M150 0v1513h823v-135h-674v-544h651v-136h-651v-561h674v-137h-823zM317 1886l66 121l397 -222l-65 -116z" />
<glyph unicode="&#xc9;" horiz-adv-x="1097" d="M150 0v1513h823v-135h-674v-544h651v-136h-651v-561h674v-137h-823zM324 1785l385 211l66 -120l-385 -207z" />
<glyph unicode="&#xca;" horiz-adv-x="1097" d="M150 0v1513h823v-135h-674v-544h651v-136h-651v-561h674v-137h-823zM189 1703l303 254h118l297 -254h-180l-174 140l-180 -140h-184z" />
<glyph unicode="&#xcb;" horiz-adv-x="1097" d="M150 0v1513h823v-135h-674v-544h651v-136h-651v-561h674v-137h-823zM324 1691v268h149v-268h-149zM625 1691v268h149v-268h-149z" />
<glyph unicode="&#xcc;" horiz-adv-x="462" d="M2 1886l66 121l397 -222l-65 -116zM156 0v1516h149v-1516h-149z" />
<glyph unicode="&#xcd;" horiz-adv-x="462" d="M8 1785l385 211l66 -120l-385 -207zM156 0v1516h149v-1516h-149z" />
<glyph unicode="&#xce;" horiz-adv-x="462" d="M-124 1703l303 254h118l297 -254h-180l-174 140l-180 -140h-184zM156 0v1516h149v-1516h-149z" />
<glyph unicode="&#xcf;" horiz-adv-x="462" d="M9 1691v268h149v-268h-149zM156 0v1516h149v-1516h-149zM310 1691v268h149v-268h-149z" />
<glyph unicode="&#xd0;" horiz-adv-x="1617" d="M80 707v131h153l3 667h421q133 0 281.5 -36.5t272.5 -122.5t205 -230.5t81 -359.5q0 -143 -38 -256t-103.5 -198t-151.5 -143.5t-181 -95t-194.5 -53t-189.5 -16.5h-406v713h-153zM379 135h108q47 0 98.5 1t92.5 1q174 0 301 55.5t210 143.5t122 198.5t39 219.5 q0 111 -39 220t-122 196t-215 142.5t-319 55.5h-174q-51 0 -102 2v-532h457v-131h-457v-572z" />
<glyph unicode="&#xd1;" horiz-adv-x="1515" d="M152 0v1516h204l844 -1272v1272h152v-1516h-152l-897 1325v-1325h-151zM401 1841q27 25 62 47q29 18 66.5 33.5t84.5 15.5q45 0 86 -13.5t77 -28.5t68.5 -28.5t63.5 -13.5t53.5 6t38.5 17q18 10 33 24l80 -94q-33 -23 -66 -39q-29 -16 -62.5 -27.5t-68.5 -11.5 q-47 0 -88 13.5t-78 28.5t-70.5 28.5t-66.5 13.5t-56.5 -10t-39.5 -21q-20 -14 -33 -30z" />
<glyph unicode="&#xd2;" horiz-adv-x="1779" d="M100 752q0 162 62.5 304t170 249.5t252 170t306.5 62.5t305 -62.5t249.5 -170t168 -250t61.5 -303.5q0 -162 -61.5 -303.5t-168 -247t-249.5 -167t-305 -61.5t-306.5 61.5t-252 167t-170 247t-62.5 303.5zM246 752q0 -133 51 -251t139 -206t205 -138.5t250 -50.5 q131 0 247.5 50.5t204 138.5t137.5 205.5t50 251.5q0 133 -50 251.5t-137.5 207.5t-204 141.5t-247.5 52.5q-133 0 -250 -52.5t-205 -141.5t-139 -207.5t-51 -251.5zM657 1886l66 121l397 -222l-65 -116z" />
<glyph unicode="&#xd3;" horiz-adv-x="1779" d="M100 752q0 162 62.5 304t170 249.5t252 170t306.5 62.5t305 -62.5t249.5 -170t168 -250t61.5 -303.5q0 -162 -61.5 -303.5t-168 -247t-249.5 -167t-305 -61.5t-306.5 61.5t-252 167t-170 247t-62.5 303.5zM246 752q0 -133 51 -251t139 -206t205 -138.5t250 -50.5 q131 0 247.5 50.5t204 138.5t137.5 205.5t50 251.5q0 133 -50 251.5t-137.5 207.5t-204 141.5t-247.5 52.5q-133 0 -250 -52.5t-205 -141.5t-139 -207.5t-51 -251.5zM664 1785l385 211l66 -120l-385 -207z" />
<glyph unicode="&#xd4;" horiz-adv-x="1779" d="M100 752q0 162 62.5 304t170 249.5t252 170t306.5 62.5t305 -62.5t249.5 -170t168 -250t61.5 -303.5q0 -162 -61.5 -303.5t-168 -247t-249.5 -167t-305 -61.5t-306.5 61.5t-252 167t-170 247t-62.5 303.5zM246 752q0 -133 51 -251t139 -206t205 -138.5t250 -50.5 q131 0 247.5 50.5t204 138.5t137.5 205.5t50 251.5q0 133 -50 251.5t-137.5 207.5t-204 141.5t-247.5 52.5q-133 0 -250 -52.5t-205 -141.5t-139 -207.5t-51 -251.5zM531 1703l303 254h118l297 -254h-180l-174 140l-180 -140h-184z" />
<glyph unicode="&#xd5;" horiz-adv-x="1779" d="M100 752q0 162 62.5 304t170 249.5t252 170t306.5 62.5t305 -62.5t249.5 -170t168 -250t61.5 -303.5q0 -162 -61.5 -303.5t-168 -247t-249.5 -167t-305 -61.5t-306.5 61.5t-252 167t-170 247t-62.5 303.5zM246 752q0 -133 51 -251t139 -206t205 -138.5t250 -50.5 q131 0 247.5 50.5t204 138.5t137.5 205.5t50 251.5q0 133 -50 251.5t-137.5 207.5t-204 141.5t-247.5 52.5q-133 0 -250 -52.5t-205 -141.5t-139 -207.5t-51 -251.5zM532 1841q27 25 62 47q29 18 66.5 33.5t84.5 15.5q45 0 86 -13.5t77 -28.5t68.5 -28.5t63.5 -13.5t53.5 6 t38.5 17q18 10 33 24l80 -94q-33 -23 -66 -39q-29 -16 -62.5 -27.5t-68.5 -11.5q-47 0 -88 13.5t-78 28.5t-70.5 28.5t-66.5 13.5t-56.5 -10t-39.5 -21q-20 -14 -33 -30z" />
<glyph unicode="&#xd6;" horiz-adv-x="1779" d="M100 752q0 162 62.5 304t170 249.5t252 170t306.5 62.5t305 -62.5t249.5 -170t168 -250t61.5 -303.5q0 -162 -61.5 -303.5t-168 -247t-249.5 -167t-305 -61.5t-306.5 61.5t-252 167t-170 247t-62.5 303.5zM246 752q0 -133 51 -251t139 -206t205 -138.5t250 -50.5 q131 0 247.5 50.5t204 138.5t137.5 205.5t50 251.5q0 133 -50 251.5t-137.5 207.5t-204 141.5t-247.5 52.5q-133 0 -250 -52.5t-205 -141.5t-139 -207.5t-51 -251.5zM664 1691v268h149v-268h-149zM965 1691v268h149v-268h-149z" />
<glyph unicode="&#xd7;" horiz-adv-x="1241" d="M166 145l358 371l-356 367l98 98l355 -367l354 367l98 -98l-356 -367l358 -371l-98 -96l-356 367l-357 -367z" />
<glyph unicode="&#xd8;" horiz-adv-x="1777" d="M104 752q0 162 61.5 303t168 246.5t249 167t304.5 61.5q115 0 219 -31t194 -86l179 238l108 -84l-176 -238q121 -106 190.5 -254.5t69.5 -322.5q0 -162 -61.5 -303.5t-168 -247t-249.5 -167t-305 -61.5q-113 0 -215.5 30t-192.5 83l-192 -256l-111 82l193 258 q-123 106 -194 257t-71 325zM250 752q0 -141 54 -261t149 -210l766 1022q-72 45 -156 69.5t-176 24.5q-131 0 -247 -51.5t-203 -138.5t-137 -204.5t-50 -250.5zM561 197q72 -43 154 -67t172 -24q131 0 247.5 50.5t203.5 138.5t137.5 205.5t50.5 251.5q0 139 -53.5 258.5 t-145.5 208.5z" />
<glyph unicode="&#xd9;" horiz-adv-x="1341" d="M160 567v946h149v-946q0 -219 91.5 -337.5t271.5 -118.5q90 0 158.5 32.5t114.5 92t68.5 143.5t22.5 186v120t-1 144.5t-1 156.5v157v370h152v-946q0 -139 -35 -248.5t-101.5 -186.5t-161.5 -118t-218 -41t-217.5 43t-160 122t-99 187.5t-33.5 241.5zM438 1886l66 121 l397 -222l-65 -116z" />
<glyph unicode="&#xda;" horiz-adv-x="1341" d="M160 567v946h149v-946q0 -219 91.5 -337.5t271.5 -118.5q90 0 158.5 32.5t114.5 92t68.5 143.5t22.5 186v120t-1 144.5t-1 156.5v157v370h152v-946q0 -139 -35 -248.5t-101.5 -186.5t-161.5 -118t-218 -41t-217.5 43t-160 122t-99 187.5t-33.5 241.5zM444 1785l385 211 l66 -120l-385 -207z" />
<glyph unicode="&#xdb;" horiz-adv-x="1341" d="M160 567v946h149v-946q0 -219 91.5 -337.5t271.5 -118.5q90 0 158.5 32.5t114.5 92t68.5 143.5t22.5 186v120t-1 144.5t-1 156.5v157v370h152v-946q0 -139 -35 -248.5t-101.5 -186.5t-161.5 -118t-218 -41t-217.5 43t-160 122t-99 187.5t-33.5 241.5zM312 1703l303 254 h118l297 -254h-180l-174 140l-180 -140h-184z" />
<glyph unicode="&#xdc;" horiz-adv-x="1341" d="M160 567v946h149v-946q0 -219 91.5 -337.5t271.5 -118.5q90 0 158.5 32.5t114.5 92t68.5 143.5t22.5 186v120t-1 144.5t-1 156.5v157v370h152v-946q0 -139 -35 -248.5t-101.5 -186.5t-161.5 -118t-218 -41t-217.5 43t-160 122t-99 187.5t-33.5 241.5zM445 1691v268h149 v-268h-149zM746 1691v268h149v-268h-149z" />
<glyph unicode="&#xdd;" horiz-adv-x="1212" d="M2 1507h166l430 -802l442 802h164l-528 -962v-545h-152v545zM428 1720l385 211l66 -121l-385 -206z" />
<glyph unicode="&#xde;" horiz-adv-x="1212" d="M129 0v1505h152v-305h335q117 0 211.5 -33.5t161 -94t101 -142.5t34.5 -178q0 -86 -29.5 -167t-96 -143.5t-173 -100.5t-258.5 -38h-286v-303h-152zM281 440h299q102 0 176.5 26t123 69t72 99t23.5 118q0 61 -23.5 118.5t-69.5 100.5t-114 68.5t-156 25.5h-331v-625z" />
<glyph unicode="&#xdf;" d="M125 0v1059q0 106 32.5 193t89 149.5t133.5 96.5t167 34t167 -34t132 -91t87 -135t32 -166t-28 -147.5t-63 -96.5q-39 -43 -90 -69q78 -23 142 -72q53 -41 98 -113.5t45 -185.5q0 -104 -31.5 -188t-88 -141.5t-133.5 -88.5t-169 -31q-37 0 -82 9.5t-84 19.5 q-47 12 -92 29l39 125q37 -16 74 -29q33 -10 70.5 -18.5t72.5 -8.5q51 0 102.5 18.5t91.5 55.5t64.5 91t24.5 126q0 92 -34 154.5t-95.5 98.5t-148.5 48.5t-193 3.5v135q100 0 169.5 23t112.5 60.5t62.5 91t19.5 114.5q0 123 -73.5 203t-200.5 80q-125 0 -202 -92t-77 -269 v-1042h-143z" />
<glyph unicode="&#xe0;" horiz-adv-x="1398" d="M92 557q0 121 46 228.5t124 187.5t183.5 127t226.5 47q141 0 260 -60.5t196 -164.5v196h144v-1118h-144v201q-78 -104 -196.5 -166t-259.5 -62q-121 0 -226.5 46.5t-183.5 125t-124 185t-46 227.5zM236 555q0 -94 35.5 -177t97 -145.5t143.5 -98.5t176 -36t176 36 t143.5 98.5t97.5 145.5t36 177t-36 179t-97.5 148.5t-143.5 100.5t-176 37t-176 -37t-143.5 -100.5t-97 -148.5t-35.5 -179zM467 1483l66 121l397 -222l-65 -116z" />
<glyph unicode="&#xe1;" horiz-adv-x="1398" d="M92 557q0 121 46 228.5t124 187.5t183.5 127t226.5 47q141 0 260 -60.5t196 -164.5v196h144v-1118h-144v201q-78 -104 -196.5 -166t-259.5 -62q-121 0 -226.5 46.5t-183.5 125t-124 185t-46 227.5zM236 555q0 -94 35.5 -177t97 -145.5t143.5 -98.5t176 -36t176 36 t143.5 98.5t97.5 145.5t36 177t-36 179t-97.5 148.5t-143.5 100.5t-176 37t-176 -37t-143.5 -100.5t-97 -148.5t-35.5 -179zM473 1382l385 211l66 -120l-385 -207z" />
<glyph unicode="&#xe2;" horiz-adv-x="1398" d="M92 557q0 121 46 228.5t124 187.5t183.5 127t226.5 47q141 0 260 -60.5t196 -164.5v196h144v-1118h-144v201q-78 -104 -196.5 -166t-259.5 -62q-121 0 -226.5 46.5t-183.5 125t-124 185t-46 227.5zM236 555q0 -94 35.5 -177t97 -145.5t143.5 -98.5t176 -36t176 36 t143.5 98.5t97.5 145.5t36 177t-36 179t-97.5 148.5t-143.5 100.5t-176 37t-176 -37t-143.5 -100.5t-97 -148.5t-35.5 -179zM340 1300l303 254h118l297 -254h-180l-174 140l-180 -140h-184z" />
<glyph unicode="&#xe3;" horiz-adv-x="1398" d="M92 557q0 121 46 228.5t124 187.5t183.5 127t226.5 47q141 0 260 -60.5t196 -164.5v196h144v-1118h-144v201q-78 -104 -196.5 -166t-259.5 -62q-121 0 -226.5 46.5t-183.5 125t-124 185t-46 227.5zM236 555q0 -94 35.5 -177t97 -145.5t143.5 -98.5t176 -36t176 36 t143.5 98.5t97.5 145.5t36 177t-36 179t-97.5 148.5t-143.5 100.5t-176 37t-176 -37t-143.5 -100.5t-97 -148.5t-35.5 -179zM342 1438q27 25 62 47q29 18 66.5 33.5t84.5 15.5q45 0 86 -13.5t77 -28.5t68.5 -28.5t63.5 -13.5t53.5 6t38.5 17q18 10 33 24l80 -94 q-33 -23 -66 -39q-29 -16 -62.5 -27.5t-68.5 -11.5q-47 0 -88 13.5t-78 28.5t-70.5 28.5t-66.5 13.5t-56.5 -10t-39.5 -21q-20 -14 -33 -30z" />
<glyph unicode="&#xe4;" horiz-adv-x="1398" d="M92 557q0 121 46 228.5t124 187.5t183.5 127t226.5 47q141 0 260 -60.5t196 -164.5v196h144v-1118h-144v201q-78 -104 -196.5 -166t-259.5 -62q-121 0 -226.5 46.5t-183.5 125t-124 185t-46 227.5zM236 555q0 -94 35.5 -177t97 -145.5t143.5 -98.5t176 -36t176 36 t143.5 98.5t97.5 145.5t36 177t-36 179t-97.5 148.5t-143.5 100.5t-176 37t-176 -37t-143.5 -100.5t-97 -148.5t-35.5 -179zM473 1288v268h149v-268h-149zM774 1288v268h149v-268h-149z" />
<glyph unicode="&#xe5;" horiz-adv-x="1398" d="M92 557q0 121 46 228.5t124 187.5t183.5 127t226.5 47q141 0 260 -60.5t196 -164.5v196h144v-1118h-144v201q-78 -104 -196.5 -166t-259.5 -62q-121 0 -226.5 46.5t-183.5 125t-124 185t-46 227.5zM236 555q0 -94 35.5 -177t97 -145.5t143.5 -98.5t176 -36t176 36 t143.5 98.5t97.5 145.5t36 177t-36 179t-97.5 148.5t-143.5 100.5t-176 37t-176 -37t-143.5 -100.5t-97 -148.5t-35.5 -179zM493 1432q0 43 16.5 80.5t44 65.5t65.5 44t81 16t80 -16t64.5 -44t44 -65.5t16.5 -80.5q0 -86 -59.5 -145.5t-145.5 -59.5q-43 0 -81 16.5t-65.5 44 t-44 64.5t-16.5 80zM591 1432q0 -45 31 -77t78 -32q45 0 77 31.5t32 77.5q0 47 -32 78.5t-77 31.5q-47 0 -78 -31.5t-31 -78.5z" />
<glyph unicode="&#xe6;" horiz-adv-x="2344" d="M74 557q0 121 46 227.5t124 185.5t183 125t226 46q141 0 260 -60.5t197 -165.5v197h143v-194q74 102 186.5 162.5t254.5 60.5q121 0 226 -46t184 -125t125 -185.5t46 -227.5v-25.5t-2 -27.5h-1020v-19q12 -82 51 -152.5t98.5 -122.5t134.5 -82t159 -30q135 0 242.5 74 t160.5 193h144q-31 -86 -84.5 -158t-125 -124t-158.5 -81t-181 -29q-141 0 -254 60.5t-187 163.5v-197h-143v201q-78 -104 -196.5 -166t-260.5 -62q-121 0 -226 46.5t-183 125t-124 185t-46 227.5zM217 555q0 -94 36 -177t97.5 -145.5t143 -98.5t176.5 -36q94 0 176 36 t143.5 98.5t97 145.5t35.5 177t-35.5 178t-97 146.5t-143.5 98.5t-176 36t-176 -36t-143.5 -98.5t-97.5 -146.5t-36 -178zM1255 631h881q-12 82 -52 151.5t-98.5 120.5t-133 81t-156.5 30q-84 0 -158 -30t-132 -81t-98 -120.5t-53 -151.5z" />
<glyph unicode="&#xe7;" horiz-adv-x="1325" d="M86 557q0 121 47 227.5t128 185.5t190.5 125t232.5 46q92 0 177 -27t157 -75t127 -113.5t90 -145.5h-152q-59 104 -163.5 169t-233.5 65q-96 0 -179 -36t-144.5 -98.5t-97.5 -146.5t-36 -178t36 -177t97.5 -145.5t144.5 -98.5t179 -36q129 0 232.5 63.5t162.5 168.5h152 q-35 -78 -90.5 -143.5t-127 -112.5t-155.5 -74t-176 -27h-16l-47 -98q6 4 16 8q8 4 20.5 7.5t28.5 3.5q25 0 51.5 -9.5t49 -31t37 -54t14.5 -78.5q0 -45 -16.5 -77.5t-42 -54t-56.5 -32t-61 -10.5q-59 0 -108.5 34t-66.5 110q35 6 58 12q12 4 22 6q6 -25 17 -43 q10 -16 25.5 -29.5t43.5 -13.5q53 0 77 33t24 70q0 43 -23.5 70.5t-68.5 27.5q-23 0 -38.5 -6t-25.5 -15q-12 -8 -20 -18l-78 27l84 170q-106 18 -197.5 69t-158 128t-104.5 173.5t-38 204.5z" />
<glyph unicode="&#xe8;" horiz-adv-x="1331" d="M80 557q0 121 46 228.5t125 187.5t185.5 126t227.5 46t226 -45t184 -124t125 -185.5t46 -227.5v-25.5t-2 -27.5h-135h-887q8 -86 47 -161t98.5 -130t136.5 -88t163 -33q135 0 242.5 74t160.5 193h143q-31 -86 -84 -158t-124.5 -124t-158.5 -81t-181 -29 q-121 0 -227.5 46.5t-185.5 125t-125 185t-46 227.5zM225 637h881q-12 82 -52 151.5t-98.5 121t-133 80t-156.5 28.5q-84 0 -158 -28.5t-132.5 -80t-98 -121t-52.5 -151.5zM434 1483l66 121l397 -222l-65 -116z" />
<glyph unicode="&#xe9;" horiz-adv-x="1331" d="M80 557q0 121 46 228.5t125 187.5t185.5 126t227.5 46t226 -45t184 -124t125 -185.5t46 -227.5v-25.5t-2 -27.5h-135h-887q8 -86 47 -161t98.5 -130t136.5 -88t163 -33q135 0 242.5 74t160.5 193h143q-31 -86 -84 -158t-124.5 -124t-158.5 -81t-181 -29 q-121 0 -227.5 46.5t-185.5 125t-125 185t-46 227.5zM225 637h881q-12 82 -52 151.5t-98.5 121t-133 80t-156.5 28.5q-84 0 -158 -28.5t-132.5 -80t-98 -121t-52.5 -151.5zM440 1382l385 211l66 -120l-385 -207z" />
<glyph unicode="&#xea;" horiz-adv-x="1331" d="M80 557q0 121 46 228.5t125 187.5t185.5 126t227.5 46t226 -45t184 -124t125 -185.5t46 -227.5v-25.5t-2 -27.5h-135h-887q8 -86 47 -161t98.5 -130t136.5 -88t163 -33q135 0 242.5 74t160.5 193h143q-31 -86 -84 -158t-124.5 -124t-158.5 -81t-181 -29 q-121 0 -227.5 46.5t-185.5 125t-125 185t-46 227.5zM225 637h881q-12 82 -52 151.5t-98.5 121t-133 80t-156.5 28.5q-84 0 -158 -28.5t-132.5 -80t-98 -121t-52.5 -151.5zM306 1300l303 254h118l297 -254h-180l-174 140l-180 -140h-184z" />
<glyph unicode="&#xeb;" horiz-adv-x="1331" d="M80 557q0 121 46 228.5t125 187.5t185.5 126t227.5 46t226 -45t184 -124t125 -185.5t46 -227.5v-25.5t-2 -27.5h-135h-887q8 -86 47 -161t98.5 -130t136.5 -88t163 -33q135 0 242.5 74t160.5 193h143q-31 -86 -84 -158t-124.5 -124t-158.5 -81t-181 -29 q-121 0 -227.5 46.5t-185.5 125t-125 185t-46 227.5zM225 637h881q-12 82 -52 151.5t-98.5 121t-133 80t-156.5 28.5q-84 0 -158 -28.5t-132.5 -80t-98 -121t-52.5 -151.5zM441 1288v268h149v-268h-149zM742 1288v268h149v-268h-149z" />
<glyph unicode="&#xec;" horiz-adv-x="409" d="M-25 1483l66 121l397 -222l-65 -116zM135 0v1114h141v-1114h-141z" />
<glyph unicode="&#xed;" horiz-adv-x="409" d="M-18 1382l385 211l66 -120l-385 -207zM135 0v1114h141v-1114h-141z" />
<glyph unicode="&#xee;" horiz-adv-x="409" d="M-151 1300l303 254h118l297 -254h-180l-174 140l-180 -140h-184zM135 0v1114h141v-1114h-141z" />
<glyph unicode="&#xef;" horiz-adv-x="409" d="M-18 1288v268h149v-268h-149zM135 0v1114h141v-1114h-141zM283 1288v268h149v-268h-149z" />
<glyph unicode="&#xf0;" horiz-adv-x="1341" d="M94 561q0 123 47 227.5t126 181.5t182.5 121t214.5 44q76 0 135 -17.5t100 -40.5q47 -25 82 -57q-35 43 -78 88q-37 39 -90 85t-121 89l-12 8l-12 8l-316 -124l-102 79l297 113q-57 29 -101.5 48.5t-74.5 29.5q-37 12 -64 20l158 68q129 -43 242 -105l272 105l96 -76 l-254 -98q113 -78 195 -171t135 -192.5t79.5 -205t26.5 -207.5q0 -137 -47 -249t-128 -192t-186 -123t-222 -43t-222.5 45.5t-185.5 125t-126 186t-46 229.5zM231 555q0 -94 35 -176t95.5 -143.5t140.5 -96.5t172 -35t172 35t139 96.5t94 143.5t35 176t-35 177t-94 144.5 t-139 96.5t-172 35t-172 -35t-140.5 -96.5t-95.5 -144.5t-35 -177z" />
<glyph unicode="&#xf1;" horiz-adv-x="1249" d="M139 0v1112h144v-151q12 20 39.5 50.5t69.5 59.5t100.5 49.5t136.5 20.5q98 0 186 -30t155.5 -95.5t107.5 -169t40 -252.5v-594h-141v612q0 82 -21.5 155t-65.5 128t-109.5 87t-151.5 32t-151.5 -31t-108.5 -83t-64.5 -123.5t-21.5 -153.5v-623h-144zM268 1438 q27 25 62 47q29 18 66.5 33.5t84.5 15.5q45 0 86 -13.5t77 -28.5t68.5 -28.5t63.5 -13.5t53.5 6t38.5 17q18 10 33 24l80 -94q-33 -23 -66 -39q-29 -16 -62.5 -27.5t-68.5 -11.5q-47 0 -88 13.5t-77.5 28.5t-70.5 28.5t-67 13.5t-56.5 -10t-39.5 -21q-20 -14 -33 -30z" />
<glyph unicode="&#xf2;" horiz-adv-x="1341" d="M86 557q0 121 46 228.5t126 187.5t186.5 127t227.5 47t227.5 -47t186 -127t125.5 -187.5t46 -228.5t-46 -227.5t-125.5 -185t-186 -125t-227.5 -46.5t-227.5 46.5t-186.5 125t-126 185t-46 227.5zM227 555q0 -94 35 -177t96.5 -145.5t142.5 -98.5t173 -36t174 36 t143.5 98.5t96 145.5t34.5 177t-34.5 179t-96 148.5t-143.5 100.5t-174 37t-173 -37t-142.5 -100.5t-96.5 -148.5t-35 -179zM438 1483l66 121l397 -222l-65 -116z" />
<glyph unicode="&#xf3;" horiz-adv-x="1341" d="M86 557q0 121 46 228.5t126 187.5t186.5 127t227.5 47t227.5 -47t186 -127t125.5 -187.5t46 -228.5t-46 -227.5t-125.5 -185t-186 -125t-227.5 -46.5t-227.5 46.5t-186.5 125t-126 185t-46 227.5zM227 555q0 -94 35 -177t96.5 -145.5t142.5 -98.5t173 -36t174 36 t143.5 98.5t96 145.5t34.5 177t-34.5 179t-96 148.5t-143.5 100.5t-174 37t-173 -37t-142.5 -100.5t-96.5 -148.5t-35 -179zM444 1382l385 211l66 -120l-385 -207z" />
<glyph unicode="&#xf4;" horiz-adv-x="1341" d="M86 557q0 121 46 228.5t126 187.5t186.5 127t227.5 47t227.5 -47t186 -127t125.5 -187.5t46 -228.5t-46 -227.5t-125.5 -185t-186 -125t-227.5 -46.5t-227.5 46.5t-186.5 125t-126 185t-46 227.5zM227 555q0 -94 35 -177t96.5 -145.5t142.5 -98.5t173 -36t174 36 t143.5 98.5t96 145.5t34.5 177t-34.5 179t-96 148.5t-143.5 100.5t-174 37t-173 -37t-142.5 -100.5t-96.5 -148.5t-35 -179zM312 1300l303 254h118l297 -254h-180l-174 140l-180 -140h-184z" />
<glyph unicode="&#xf5;" horiz-adv-x="1341" d="M86 557q0 121 46 228.5t126 187.5t186.5 127t227.5 47t227.5 -47t186 -127t125.5 -187.5t46 -228.5t-46 -227.5t-125.5 -185t-186 -125t-227.5 -46.5t-227.5 46.5t-186.5 125t-126 185t-46 227.5zM227 555q0 -94 35 -177t96.5 -145.5t142.5 -98.5t173 -36t174 36 t143.5 98.5t96 145.5t34.5 177t-34.5 179t-96 148.5t-143.5 100.5t-174 37t-173 -37t-142.5 -100.5t-96.5 -148.5t-35 -179zM313 1438q27 25 62 47q29 18 66.5 33.5t84.5 15.5q45 0 86 -13.5t77 -28.5t68.5 -28.5t63.5 -13.5t53.5 6t38.5 17q18 10 33 24l80 -94 q-33 -23 -66 -39q-29 -16 -62.5 -27.5t-68.5 -11.5q-47 0 -88 13.5t-78 28.5t-70.5 28.5t-66.5 13.5t-56.5 -10t-39.5 -21q-20 -14 -33 -30z" />
<glyph unicode="&#xf6;" horiz-adv-x="1341" d="M86 557q0 121 46 228.5t126 187.5t186.5 127t227.5 47t227.5 -47t186 -127t125.5 -187.5t46 -228.5t-46 -227.5t-125.5 -185t-186 -125t-227.5 -46.5t-227.5 46.5t-186.5 125t-126 185t-46 227.5zM227 555q0 -94 35 -177t96.5 -145.5t142.5 -98.5t173 -36t174 36 t143.5 98.5t96 145.5t34.5 177t-34.5 179t-96 148.5t-143.5 100.5t-174 37t-173 -37t-142.5 -100.5t-96.5 -148.5t-35 -179zM445 1288v268h149v-268h-149zM746 1288v268h149v-268h-149z" />
<glyph unicode="&#xf7;" horiz-adv-x="1241" d="M111 446v138h1026v-138h-1026zM549 -10v219h149v-219h-149zM549 838v219h149v-219h-149z" />
<glyph unicode="&#xf8;" horiz-adv-x="1337" d="M82 557q0 121 46 227.5t126 185.5t186.5 125t227.5 46q82 0 156.5 -21.5t140.5 -58.5l129 170l110 -86l-129 -168q84 -80 131 -188.5t47 -231.5q0 -121 -46 -227.5t-126 -185t-186.5 -125t-226.5 -46.5q-82 0 -157 20.5t-140 59.5l-142 -184l-110 78l143 188 q-84 80 -132 188.5t-48 233.5zM221 555q0 -92 33 -172t88 -141l543 714q-47 27 -101.5 41.5t-113.5 14.5q-92 0 -174 -36t-143.5 -98.5t-96.5 -145.5t-35 -177zM449 158q49 -29 105.5 -45.5t115.5 -16.5q92 0 174 36t143.5 98.5t96 145.5t34.5 179q0 92 -32.5 173t-92.5 142 z" />
<glyph unicode="&#xf9;" horiz-adv-x="1245" d="M125 520v598h143v-618q0 -80 21.5 -153t65.5 -128t109.5 -87t151.5 -32t150.5 30t108 82t65 124t21.5 153v629h143v-1118h-143v154q-12 -20 -40 -51t-70 -61t-100.5 -50.5t-134.5 -20.5q-98 0 -187 30t-156.5 95.5t-107.5 170t-40 253.5zM391 1483l66 121l397 -222 l-65 -116z" />
<glyph unicode="&#xfa;" horiz-adv-x="1245" d="M125 520v598h143v-618q0 -80 21.5 -153t65.5 -128t109.5 -87t151.5 -32t150.5 30t108 82t65 124t21.5 153v629h143v-1118h-143v154q-12 -20 -40 -51t-70 -61t-100.5 -50.5t-134.5 -20.5q-98 0 -187 30t-156.5 95.5t-107.5 170t-40 253.5zM397 1382l385 211l66 -120 l-385 -207z" />
<glyph unicode="&#xfb;" horiz-adv-x="1245" d="M125 520v598h143v-618q0 -80 21.5 -153t65.5 -128t109.5 -87t151.5 -32t150.5 30t108 82t65 124t21.5 153v629h143v-1118h-143v154q-12 -20 -40 -51t-70 -61t-100.5 -50.5t-134.5 -20.5q-98 0 -187 30t-156.5 95.5t-107.5 170t-40 253.5zM263 1300l303 254h118l297 -254 h-180l-174 140l-180 -140h-184z" />
<glyph unicode="&#xfc;" horiz-adv-x="1245" d="M125 520v598h143v-618q0 -80 21.5 -153t65.5 -128t109.5 -87t151.5 -32t150.5 30t108 82t65 124t21.5 153v629h143v-1118h-143v154q-12 -20 -40 -51t-70 -61t-100.5 -50.5t-134.5 -20.5q-98 0 -187 30t-156.5 95.5t-107.5 170t-40 253.5zM398 1288v268h149v-268h-149z M699 1288v268h149v-268h-149z" />
<glyph unicode="&#xfd;" horiz-adv-x="1097" d="M37 1118h149l355 -893l379 893h151l-645 -1509h-150l195 428zM324 1382l385 211l66 -120l-385 -207z" />
<glyph unicode="&#xfe;" horiz-adv-x="1396" d="M139 -391v1896h142v-592q80 104 198.5 165t259.5 61q119 0 224.5 -46t184.5 -125t124 -185.5t45 -227.5t-45 -227.5t-124 -185.5t-184.5 -125t-224.5 -46q-141 0 -260 61.5t-198 166.5v-590h-142zM268 553q0 -94 36 -177t97.5 -145.5t143.5 -98.5t176 -36t176 36 t143.5 98.5t97.5 145.5t36 177t-36 178t-97.5 146.5t-143.5 98.5t-176 36t-176 -36t-143.5 -98.5t-97.5 -146.5t-36 -178z" />
<glyph unicode="&#xff;" horiz-adv-x="1097" d="M37 1118h149l355 -893l379 893h151l-645 -1509h-150l195 428zM324 1288v268h149v-268h-149zM625 1288v268h149v-268h-149z" />
<glyph unicode="&#x152;" horiz-adv-x="2404" d="M94 752q0 162 61.5 303t168 246.5t249 167t304.5 61.5q199 0 366.5 -91t276.5 -243v309h823v-135h-674v-543h651v-135h-651v-555h674v-137h-823v305q-109 -152 -277 -242t-366 -90q-162 0 -304.5 61.5t-249 167t-168 247t-61.5 303.5zM240 752q0 -133 50 -251t136 -206 t202 -138.5t249 -50.5q131 0 247.5 50.5t203.5 138.5t137.5 205.5t50.5 251.5q0 133 -50.5 250.5t-137.5 204.5t-203.5 138.5t-247.5 51.5q-133 0 -249 -51.5t-202 -138.5t-136 -204.5t-50 -250.5z" />
<glyph unicode="&#x153;" horiz-adv-x="2326" d="M72 557q0 121 46 227.5t126 185.5t186.5 125t226.5 46q84 0 162 -23.5t145.5 -64.5t122 -99.5t91.5 -128.5q70 141 204 228.5t304 87.5q121 0 226 -46t184 -125t125 -185.5t46 -227.5v-25.5t-2 -27.5h-1022q8 -86 47 -160t98.5 -128t136.5 -86t163 -32q135 0 242.5 74 t160.5 193h143q-31 -86 -84 -158t-124.5 -124t-158.5 -81t-181 -29q-170 0 -304.5 87t-203.5 229q-74 -141 -211.5 -228.5t-309.5 -87.5q-121 0 -227 46.5t-186 125t-126 185t-46 227.5zM213 555q0 -94 35 -177t96.5 -145.5t142 -98.5t172.5 -36t174 36t143.5 98.5 t96.5 145.5t35 177t-35 178t-96.5 146.5t-143.5 98.5t-174 36t-172.5 -36t-142 -98.5t-96.5 -146.5t-35 -178zM1247 631h881q-12 82 -52 151.5t-98.5 120.5t-133.5 81t-156 30q-84 0 -158 -30t-132.5 -81t-98 -120.5t-52.5 -151.5z" />
<glyph unicode="&#x178;" horiz-adv-x="1212" d="M2 1516h166l430 -811l442 811h164l-528 -971v-545h-152v545zM381 1691v268h149v-268h-149zM682 1691v268h149v-268h-149z" />
<glyph unicode="&#x2c6;" horiz-adv-x="1028" d="M152 1300l303 254h118l297 -254h-180l-174 140l-180 -140h-184z" />
<glyph unicode="&#x2dc;" horiz-adv-x="899" d="M90 1438q27 25 62 47q29 18 66.5 33.5t84.5 15.5q45 0 86 -13.5t77 -28.5t68.5 -28.5t63.5 -13.5t53.5 6t38.5 17q18 10 33 24l80 -94q-33 -23 -66 -39q-29 -16 -62.5 -27.5t-68.5 -11.5q-47 0 -88 13.5t-78 28.5t-70.5 28.5t-66.5 13.5t-56.5 -10t-39.5 -21 q-20 -14 -33 -30z" />
<glyph unicode="&#x2000;" horiz-adv-x="1020" />
<glyph unicode="&#x2001;" horiz-adv-x="2041" />
<glyph unicode="&#x2002;" horiz-adv-x="1020" />
<glyph unicode="&#x2003;" horiz-adv-x="2041" />
<glyph unicode="&#x2004;" horiz-adv-x="680" />
<glyph unicode="&#x2005;" horiz-adv-x="510" />
<glyph unicode="&#x2006;" horiz-adv-x="340" />
<glyph unicode="&#x2007;" horiz-adv-x="340" />
<glyph unicode="&#x2008;" horiz-adv-x="255" />
<glyph unicode="&#x2009;" horiz-adv-x="408" />
<glyph unicode="&#x200a;" horiz-adv-x="113" />
<glyph unicode="&#x2010;" horiz-adv-x="679" d="M51 504v137h574v-137h-574z" />
<glyph unicode="&#x2011;" horiz-adv-x="679" d="M51 504v137h574v-137h-574z" />
<glyph unicode="&#x2012;" horiz-adv-x="679" d="M51 504v137h574v-137h-574z" />
<glyph unicode="&#x2013;" horiz-adv-x="1024" d="M78 504v137h874v-137h-874z" />
<glyph unicode="&#x2014;" horiz-adv-x="2048" d="M74 504v137h1892v-137h-1892z" />
<glyph unicode="&#x2018;" horiz-adv-x="405" d="M51 1505h150l153 -395h-151z" />
<glyph unicode="&#x2019;" horiz-adv-x="405" d="M51 1110l154 395h149l-151 -395h-152z" />
<glyph unicode="&#x201a;" horiz-adv-x="724" d="M172 -150l186 404h152l-186 -404h-152z" />
<glyph unicode="&#x201c;" horiz-adv-x="716" d="M55 1505h152l151 -395h-149zM356 1505h152l151 -395h-149z" />
<glyph unicode="&#x201d;" horiz-adv-x="716" d="M57 1110l154 395h149l-151 -395h-152zM360 1110l152 395h152l-154 -395h-150z" />
<glyph unicode="&#x201e;" horiz-adv-x="1028" d="M180 -150l187 404h151l-188 -404h-150zM479 -150l189 404h149l-186 -404h-152z" />
<glyph unicode="&#x2022;" horiz-adv-x="1241" d="M313 774q0 63 24.5 120.5t65.5 98.5t97.5 65.5t122.5 24.5q63 0 119.5 -24.5t98.5 -65.5t66.5 -98t24.5 -121q0 -63 -24.5 -119.5t-66.5 -98.5t-98.5 -66.5t-119.5 -24.5q-66 0 -122.5 24.5t-97.5 66.5t-65.5 98.5t-24.5 119.5z" />
<glyph unicode="&#x2026;" horiz-adv-x="2048" d="M250 0v256h162v-256h-162zM942 0v256h160v-256h-160zM1632 0v256h162v-256h-162z" />
<glyph unicode="&#x202f;" horiz-adv-x="408" />
<glyph unicode="&#x2039;" horiz-adv-x="514" d="M78 573l244 406l120 -64l-204 -342l204 -342l-120 -67z" />
<glyph unicode="&#x203a;" horiz-adv-x="514" d="M68 231l204 342l-204 342l120 64l244 -406l-244 -409z" />
<glyph unicode="&#x205f;" horiz-adv-x="510" />
<glyph unicode="&#x20ac;" d="M31 553v129h166q0 31 -1 65.5t-1 75.5h-164v129h164q0 158 47 268.5t120.5 179t161.5 100.5t170 32q117 0 199 -31t135 -65q61 -43 102 -97l-59 -145q-33 55 -86 100q-45 37 -112.5 69t-163.5 32q-92 0 -159 -38t-112 -99.5t-67.5 -141.5t-26.5 -164h606v-129h-606v-141 h606v-129h-604q14 -217 103.5 -330.5t259.5 -113.5q88 0 149.5 22.5t99.5 50.5q45 33 74 74v-178q-35 -31 -82 -53q-41 -20 -101.5 -36t-139.5 -16q-115 0 -209 41t-162 116t-104.5 181.5t-36.5 235.5v6h-166z" />
<glyph unicode="&#x2122;" horiz-adv-x="2048" d="M18 1419v97h543v-97h-215v-813h-113v813h-215zM678 606v910h160l336 -748l335 748h162v-910h-112v762h-5l-333 -762h-95l-331 760h-4v-760h-113z" />
<glyph unicode="&#xe000;" horiz-adv-x="1116" d="M0 0v1116h1116v-1116h-1116z" />
<glyph unicode="&#xfb01;" horiz-adv-x="997" d="M41 985v127h172v37q0 190 112.5 286.5t315.5 96.5v-131q-92 0 -148.5 -22.5t-87 -61.5t-40 -92.5t-9.5 -112.5h504v-1112h-143v985h-361v-985h-143v985h-172zM717 1270v256h143v-256h-143z" />
<glyph unicode="&#xfb02;" horiz-adv-x="993" d="M37 985v127h174v37q0 190 111.5 286.5t316.5 96.5v-131q-92 0 -148.5 -22.5t-87 -61.5t-41 -92.5t-10.5 -112.5h357v416h145v-1528h-145v985h-357v-985h-141v985h-174z" />
</font>
</defs>
</svg>
