<?xml version="1.0" standalone="no"?>
<!DOCTYPE svg PUBLIC "-//W3C//DTD SVG 1.1//EN" "http://www.w3.org/Graphics/SVG/1.1/DTD/svg11.dtd" >
<svg xmlns="http://www.w3.org/2000/svg">
<metadata>Generated by IcoMoon</metadata>
<defs>
<font id="ThemeIcons" horiz-adv-x="512">
<font-face units-per-em="512" ascent="480" descent="-32" />
<missing-glyph horiz-adv-x="512" />
<glyph unicode="&#x20;" d="" horiz-adv-x="256" />
<glyph unicode="&#xe200;" d="M128 160.016l91.41 91.411-219.41 164.575 64.005 63.998 274.26-109.721 86.35 86.353c24.89 24.889 59.651 30.853 77.251 13.254s11.634-52.363-13.255-77.25l-86.343-86.342 109.732-274.291-63.995-64.003-164.595 219.434-91.413-91.414v-127.99h-63.997l-31.996 95.994-95.994 31.998v63.996l127.99-0.002z" />
<glyph unicode="&#xe201;" d="M64 416h149.49l208-208-149.49-149.49-208 208v149.49zM0 480v0-240l272-272 240 240-272 272h-240zM192 336c0 26.51-21.49 48-48 48s-48-21.49-48-48c0-26.51 21.49-48 48-48s48 21.49 48 48z" />
<glyph unicode="&#xe202;" d="M512 192v192h-96v32c0 17.6-14.4 32-32 32h-352c-17.6 0-32-14.4-32-32v-96c0-17.6 14.4-32 32-32h352c17.6 0 32 14.4 32 32v32h64v-128h-288v-64h-16c-8.837 0-16-7.163-16-16v-160c0-8.837 7.163-16 16-16h64c8.837 0 16 7.163 16 16v160c0 8.837-7.163 16-16 16h-16v32h288zM384 384h-352v32h352v-32z" />
<glyph unicode="&#xe203;" d="M464 416h-416c-26.4 0-48-21.6-48-48v-288c0-26.4 21.6-48 48-48h416c26.4 0 48 21.6 48 48v288c0 26.4-21.6 48-48 48zM48 384h416c8.673 0 16-7.327 16-16v-48h-448v48c0 8.673 7.327 16 16 16zM464 64h-416c-8.673 0-16 7.327-16 16v144h448v-144c0-8.673-7.327-16-16-16zM64 160h32v-64h-32zM128 160h32v-64h-32zM192 160h32v-64h-32z" />
<glyph unicode="&#xe204;" d="M457.153 376.352c53.267-30.284 54.847-62.709 54.849-85.349v-3.397c0-5.182-4.469-9.418-9.928-9.418h-120.146c-5.459 0-9.928 4.236-9.928 9.418v11.453c0 28.605-27.355 33.175-42.449 35.605-15.096 2.426-52.617 4.777-73.48 4.777-0.026 0-0.046 0-0.066 0-0.029 0-0.049 0-0.077 0-20.862 0-58.387-2.35-73.48-4.777s-42.449-6.998-42.449-35.605v-11.453c0-5.182-4.469-9.418-9.926-9.418h-120.146c-5.457 0-9.926 4.236-9.926 9.418v3.397c0 22.64 1.58 55.065 54.847 85.349 63.35 36.010 153.929 39.648 201.080 39.648 0.028-0.025 0.048-0.055 0.077-0.078 0.018 0.022 0.039 0.054 0.066 0.078 47.152 0 137.732-3.634 201.082-39.648zM256.001 288c-28.374 0-87.443-2.126-117.456-38.519-30.022-36.383-105.090-217.481-38.147-217.481 66.956 0 125.458 0 155.606 0 30.137 0 88.648 0 155.595 0 66.945 0-8.125 181.098-38.137 217.481-30.018 36.393-89.1 38.519-117.461 38.519zM256 96c-35.346 0-64 28.653-64 64s28.654 64 64 64c35.347 0 64-28.653 64-64s-28.653-64-64-64z" />
<glyph unicode="&#xe205;" d="M480 416h-448c-17.6 0-32-14.4-32-32v-320c0-17.6 14.4-32 32-32h448c17.6 0 32 14.4 32 32v320c0 17.6-14.4 32-32 32zM448 352v-23l-192-113.143-192 113.143v23h384zM64 96v177.286l192-113.143 192 113.143v-177.286h-384z" />
<glyph unicode="&#xe206;" d="M256.001 383.394v32.606h64v32c0 17.673-14.327 32-32.001 32h-95.999c-17.673 0-32-14.327-32-32v-32h64v-32.606c-107.399-8.169-192-97.901-192-207.394 0-114.875 93.125-208 208-208s208 93.125 208 208c0 109.492-84.601 199.224-192 207.394zM353.138 62.863c-30.221-30.22-70.399-46.863-113.137-46.863s-82.917 16.643-113.137 46.863c-30.22 30.22-46.863 70.4-46.863 113.137s16.643 82.917 46.863 113.137c29.020 29.019 67.224 45.509 108.057 46.774l-10.839-157.010c-0.93-13.145 6.232-18.901 15.918-18.901s16.849 5.756 15.918 18.901l-10.838 157.011c40.833-1.266 79.038-17.756 108.058-46.775 30.22-30.22 46.863-70.4 46.863-113.137s-16.643-82.917-46.863-113.137z" />
<glyph unicode="&#xe207;" d="M0 64h512v-64h-512zM64 192h64v-96h-64zM160 320h64v-224h-64zM256 224h64v-128h-64zM352 416h64v-320h-64z" />
<glyph unicode="&#xe208;" d="M512 192l-64 128h-96v64c0 17.6-14.4 32-32 32h-288c-17.6 0-32-14.4-32-32v-256l32-32h40.583c-5.449-9.416-8.583-20.339-8.583-32 0-35.346 28.654-64 64-64s64 28.654 64 64c0 11.661-3.134 22.584-8.583 32h177.167c-5.449-9.416-8.584-20.339-8.584-32 0-35.346 28.654-64 64-64s64 28.654 64 64c0 11.661-3.135 22.584-8.584 32h40.584v96zM352 192v80h66.334l40-80h-106.334z" />
<glyph unicode="&#xe209;" d="M445.502 299.97c-1.621 64.349-54.229 116.030-118.931 116.030-37.896 0-71.633-17.747-93.427-45.366-12.221 15.799-31.345 25.98-52.854 25.98-36.905 0-66.821-29.937-66.821-66.861 0-3.218 0.24-6.38 0.682-9.477-5.611 1.012-11.383 1.569-17.285 1.569-53.499 0.001-96.866-43.393-96.866-96.921 0-53.531 43.367-96.924 96.865-96.924h49.88l109.255-109.255 109.255 109.255 59.741 0.006c48.069 0.092 87.004 39.106 87.004 87.223 0 41.045-28.339 75.45-66.498 84.741zM256 64l-96 96h64v96h64v-96h64l-96-96z" />
<glyph unicode="&#xe20a;" d="M446.134 286.755c1.222 5.555 1.866 11.324 1.866 17.245 0 44.183-35.817 80-80 80-7.111 0-14.007-0.934-20.566-2.676-12.399 38.676-48.645 66.676-91.434 66.676-43.674 0-80.527-29.168-92.163-69.085-11.371 3.311-23.396 5.085-35.837 5.085-70.692 0-128-57.308-128-128 0-70.694 57.308-128 128-128h64v-96h128v96h112c44.183 0 80 35.816 80 80 0 39.36-28.427 72.081-65.866 78.755zM288 160v-96h-64v96h-80l112 112 112-112h-80z" />
<glyph unicode="&#xe20b;" d="M256 432c-55.559 0-107.792-21.636-147.078-60.922s-60.922-91.519-60.922-147.078c0-55.559 21.636-107.792 60.922-147.078s91.519-60.922 147.078-60.922c55.559 0 107.792 21.636 147.078 60.922s60.922 91.519 60.922 147.078c0 55.559-21.636 107.792-60.922 147.078s-91.519 60.922-147.078 60.922zM256 480v0c141.385 0 256-114.615 256-256s-114.615-256-256-256c-141.385 0-256 114.615-256 256s114.615 256 256 256zM224 128h64v-64h-64zM224 384h64v-192h-64z" />
<glyph unicode="&#xe20c;" d="M224 128h64v-64h-64zM352 352c17.673 0 32-14.327 32-32v-96l-96-64h-64v32l96 64v32h-160v64h192zM256 432c-55.559 0-107.792-21.636-147.078-60.922s-60.922-91.519-60.922-147.078c0-55.559 21.636-107.792 60.922-147.078s91.519-60.922 147.078-60.922c55.559 0 107.792 21.636 147.078 60.922s60.922 91.519 60.922 147.078c0 55.559-21.636 107.792-60.922 147.078s-91.519 60.922-147.078 60.922zM256 480v0c141.385 0 256-114.615 256-256s-114.615-256-256-256c-141.385 0-256 114.615-256 256s114.615 256 256 256z" />
<glyph unicode="&#xe20d;" d="M256 480c-141.385 0-256-114.615-256-256s114.615-256 256-256 256 114.615 256 256-114.615 256-256 256zM256 16c-114.875 0-208 93.125-208 208s93.125 208 208 208 208-93.125 208-208-93.125-208-208-208zM224 352h64v-64h-64zM320 96h-128v32h32v96h-32v32h96v-128h32z" />
<glyph unicode="&#xe20e;" d="M256 480c-141.385 0-256-114.615-256-256s114.615-256 256-256 256 114.615 256 256-114.615 256-256 256zM256 32c-106.039 0-192 85.961-192 192s85.961 192 192 192c106.039 0 192-85.961 192-192s-85.961-192-192-192zM208 64l-106 138 47 49 59-75 185 151 23-23z" />
<glyph unicode="&#xe20f;" d="M390.628 134.628l-45.256-45.256-89.372 89.373-89.373-89.372-45.255 45.255 89.373 89.372-89.372 89.373 45.254 45.254 89.373-89.372 89.372 89.373 45.256-45.255-89.373-89.373 89.373-89.372z" />
<glyph unicode="&#xe210;" d="M437.011 405.010c-46.326 46.328-110.318 74.99-181.011 74.99-109.744 0-203.345-69.064-239.749-166.094l59.938-22.477c27.302 72.773 97.503 124.571 179.811 124.571 53.020 0 101.010-21.5 135.753-56.247l-71.753-71.753h192v192l-74.989-74.99zM256 32c-53.020 0-101.013 21.496-135.756 56.244l71.756 71.756h-192v-192l74.997 74.997c46.323-46.331 110.309-74.997 181.003-74.997 109.745 0 203.346 69.064 239.75 166.094l-59.938 22.477c-27.302-72.773-97.503-124.571-179.812-124.571z" />
<glyph unicode="&#xe211;" d="M390.979-32c-27.208 0.001-61.186 16.608-75.809 53.702-2.034 4.84-4.271 10.714-6.859 17.509-8.285 21.749-20.806 54.616-33.892 68.23-4.79 4.984-8.495 8.599-11.473 11.504-2.673 2.607-4.921 4.801-6.946 7.019-2.025-2.219-4.273-4.412-6.948-7.022-2.976-2.904-6.68-6.519-11.468-11.5-13.086-13.616-25.608-46.488-33.895-68.239-2.586-6.791-4.823-12.661-6.856-17.499-14.625-37.095-48.602-53.704-75.808-53.704-5.303 0-10.138 0.646-14.373 1.918-26.772 8.046-43.012 37.939-40.411 74.386l0.372 4.206c3.287 29.404 21.199 58.458 50.435 81.806 25.344 20.238 55.31 32.812 78.204 32.812 4.53 0 8.712-0.494 12.519-1.472l15.711 32.209c-16.148 40.414-39.152 100.774-57.123 153.646-10.015 29.463-17.448 53.594-22.094 71.721-7.352 28.691-6.883 38.393-3.916 44.132l8.601 16.636 107.053-219.465 107.046 219.464 8.602-16.635c2.967-5.739 3.438-15.441-3.915-44.132-4.646-18.126-12.079-42.257-22.093-71.72-17.97-52.868-40.974-113.229-57.123-153.646l15.711-32.209c3.806 0.978 7.987 1.472 12.518 1.472 22.895 0 52.861-12.574 78.206-32.814 24.995-19.962 41.713-44.097 48.090-69.052l1.179 0.564 1.535-17.522c2.603-36.445-13.635-66.338-40.404-74.386-4.235-1.272-9.071-1.918-14.373-1.918-0.002-0.001-0.003-0.001-0.003-0.001zM346.841 39.052c18.936-34.353 35.854-39.491 44.263-39.491 11.447 0 20.018 9.238 21.691 18.169 1.097 5.871 1.296 11.914 0.592 17.961-2.837 24.156-19.338 44.898-32.678 58.044-18.334 18.065-38.889 30.062-52.085 35.3-1.313 0.457-2.121 0.526-2.489 0.526-0.255 0-0.354-0.031-0.355-0.031-3.843-2.496-8.438-31.52 21.061-90.478zM183.13 129.035c-13.115-5.24-33.545-17.236-51.764-35.301-13.26-13.145-29.656-33.888-32.475-58.052-0.704-6.030-0.506-12.069 0.589-17.953 1.661-8.93 10.179-18.169 21.556-18.169 8.356 0 25.17 5.139 43.991 39.49 29.312 58.938 24.764 87.944 20.903 90.493 0-0.001-0.001-0.001-0.004-0.001-0.020 0-0.125 0.018-0.32 0.018-0.367 0.001-1.168-0.068-2.476-0.525z" />
<glyph unicode="&#xe212;" d="M279.533 448c0 0-100.478 0-133.97 0-60.060 0-116.585-45.503-116.585-98.211 0-53.863 40.941-97.333 102.044-97.333 4.249 0 8.378 0.085 12.421 0.376-3.965-7.593-6.801-16.144-6.801-25.021 0-14.969 8.052-27.105 18.234-37.012-7.693 0-15.121-0.224-23.226-0.224-74.391 0.001-131.65-47.379-131.65-96.51 0-48.389 62.771-78.657 137.167-78.657 84.812 0 131.653 48.122 131.653 96.514 0 38.8-11.448 62.036-46.843 87.067-12.108 8.572-35.265 29.418-35.265 41.672 0 14.36 4.098 21.434 25.714 38.323 22.156 17.312 37.836 41.651 37.836 69.958 0 33.703-15.010 66.549-43.186 77.386h42.477l29.98 21.672zM232.74 120.271c1.063-4.486 1.642-9.103 1.642-13.814 0-39.1-25.196-69.655-97.487-69.655-51.421 0-88.558 32.552-88.558 71.65 0 38.321 46.063 70.222 97.482 69.666 12-0.127 23.184-2.058 33.335-5.345 27.913-19.413 47.938-30.381 53.586-52.502zM150.409 266.112c-34.519 1.032-67.318 38.613-73.276 83.93-5.958 45.333 17.185 80.021 51.694 78.995 34.505-1.037 67.319-37.407 73.279-82.729 5.953-45.33-17.195-81.229-51.697-80.196zM416 352v96h-32v-96h-96v-32h96v-96h32v96h96v32z" />
<glyph unicode="&#xe213;" d="M287.935-32h-95.935v256h-64v88.225l64 0.029-0.104 51.976c0 71.976 19.517 115.77 104.299 115.77h70.588v-88.242h-44.115c-33.016 0-34.603-12.328-34.603-35.342l-0.131-44.162h79.345l-9.352-88.225-69.927-0.029-0.065-256z" />
<glyph unicode="&#xe214;" d="M512 382.791c-18.838-8.354-39.082-14.001-60.33-16.54 21.686 13 38.343 33.585 46.186 58.115-20.298-12.039-42.778-20.78-66.705-25.49-19.16 20.415-46.461 33.17-76.673 33.17-58.011 0-105.044-47.029-105.044-105.039 0-8.233 0.929-16.25 2.72-23.939-87.3 4.382-164.701 46.2-216.509 109.753-9.042-15.514-14.223-33.558-14.223-52.809 0-36.444 18.544-68.596 46.73-87.433-17.219 0.546-33.416 5.271-47.577 13.139-0.010-0.438-0.010-0.878-0.010-1.321 0-50.894 36.209-93.348 84.261-103-8.813-2.4-18.094-3.686-27.674-3.686-6.769 0-13.349 0.66-19.764 1.886 13.368-41.73 52.16-72.103 98.126-72.948-35.95-28.175-81.243-44.967-130.458-44.967-8.479 0-16.84 0.497-25.058 1.47 46.486-29.805 101.701-47.197 161.021-47.197 193.211 0 298.868 160.062 298.868 298.872 0 4.554-0.103 9.084-0.305 13.59 20.528 14.81 38.336 33.31 52.418 54.374z" />
<glyph unicode="&#xe215;" d="M68.147 104.535c-37.598 0-68.146-30.667-68.146-68.038 0-37.577 30.55-67.901 68.146-67.901 37.733 0 68.247 30.324 68.247 67.901-0.001 37.371-30.512 68.038-68.247 68.038zM0.078 306.035v-98.129c63.892 0 123.979-24.986 169.229-70.256 45.192-45.159 70.141-105.518 70.141-169.65h98.561c-0.001 186.41-151.641 338.035-337.931 338.035zM0.194 480v-98.178c227.891 0 413.378-185.667 413.378-413.822h98.428c0 282.235-229.627 512-511.806 512z" />
<glyph unicode="&#xe216;" d="M416 416h-320c-52.8 0-96-43.2-96-96v-192c0-52.8 43.2-96 96-96h320c52.8 0 96 43.2 96 96v192c0 52.8-43.2 96-96 96zM192 96v256l160-128-160-128z" />
<glyph unicode="&#xe217;" d="M0 325.815l20.797-27.272c0 0 42.885 33.804 57.18 16.901 14.294-16.901 68.868-220.978 87.085-258.623 15.9-33.015 59.759-76.66 107.857-45.491 48.068 31.17 207.92 167.643 236.533 328.808 28.59 161.113-192.36 127.363-215.765-13.005 58.495 35.118 89.718-14.269 59.785-70.186-29.879-55.862-57.18-92.296-71.476-92.296-14.269 0-25.245 37.384-41.594 102.723-16.899 67.551-16.796 189.23-87.058 175.435-66.259-13.006-153.344-116.994-153.344-116.994z" />
<glyph unicode="&#xe218;" d="M400 272c-35.29 0-64-28.71-64-64s28.71-64 64-64c35.29 0 64 28.71 64 64s-28.71 64-64 64zM400 320v0c61.855 0 112-50.144 112-112s-50.145-112-112-112c-61.855 0-112 50.145-112 112s50.145 112 112 112zM0 208c0 61.856 50.144 112 112 112s112-50.144 112-112c0-61.856-50.144-112-112-112s-112 50.144-112 112z" />
<glyph unicode="&#xe219;" d="M256.001-32c-141.16 0-256.001 114.841-256.001 256s114.841 256 256.001 256c141.161 0 255.999-114.841 255.999-256s-114.838-256-255.999-256zM471.899 188.957c-7.481 2.36-67.682 20.316-136.205 9.349 28.602-78.593 40.239-142.604 42.479-155.904 49.057 33.168 83.979 85.713 93.726 146.555zM341.416 22.381c-3.253 19.185-15.949 86.045-46.649 165.82-0.48-0.164-0.961-0.32-1.44-0.486-123.335-42.979-167.608-128.508-171.543-136.552 37.075-28.912 83.668-46.16 134.218-46.16 30.29 0 59.159 6.195 85.414 17.378zM93.549 77.461c4.954 8.48 64.965 107.842 177.738 144.297 2.852 0.92 5.724 1.785 8.618 2.6-5.49 12.422-11.47 24.857-17.728 37.108-109.199-32.68-215.162-31.315-224.73-31.118-0.066-2.221-0.111-4.445-0.111-6.683 0-56.16 21.29-107.437 56.213-146.204zM41.956 268.452c9.779-0.13 99.868-0.521 202.151 26.641-36.23 64.406-75.306 118.555-81.071 126.46-61.174-28.854-106.901-85.248-121.080-153.101zM204.759 436.25c6.044-8.092 45.759-62.174 81.59-128.007 77.754 29.142 110.67 73.385 114.604 78.987-38.615 34.259-89.391 55.1-144.951 55.1-17.645 0-34.8-2.116-51.243-6.080zM425.261 361.944c-4.608-6.237-41.252-53.209-122.101-86.217 5.089-10.416 9.967-21.009 14.508-31.672 1.608-3.78 3.177-7.542 4.709-11.285 72.759 9.149 145.052-5.514 152.263-7.039-0.484 51.612-18.925 99.005-49.379 136.213z" />
<glyph unicode="&#xe21a;" d="M256 480c-141.385 0-256-114.615-256-256s114.615-256 256-256 256 114.615 256 256-114.615 256-256 256zM408.028 71.972c-19.759-19.758-42.756-35.266-68.354-46.093-6.503-2.75-13.107-5.164-19.8-7.246v38.367c0 20.167-6.917 35-20.75 44.5 8.667 0.833 16.625 2 23.875 3.5s14.917 3.667 23 6.5 15.333 6.208 21.75 10.125 12.583 9 18.5 15.25 10.875 13.333 14.875 21.25 7.167 17.417 9.5 28.5 3.5 23.292 3.5 36.625c0 25.833-8.417 47.833-25.25 66 7.667 20 6.833 41.75-2.5 65.25l-6.25 0.75c-4.333 0.5-12.125-1.333-23.375-5.5s-23.875-11-37.875-20.5c-19.833 5.5-40.417 8.25-61.75 8.25-21.5 0-42-2.75-61.5-8.25-8.833 6-17.208 10.958-25.125 14.875s-14.25 6.583-19 8-9.167 2.292-13.25 2.625-6.708 0.417-7.875 0.25-2-0.333-2.5-0.5c-9.333-23.667-10.167-45.417-2.5-65.25-16.833-18.167-25.25-40.167-25.25-66 0-13.333 1.167-25.542 3.5-36.625s5.5-20.583 9.5-28.5 8.958-15 14.875-21.25 12.083-11.333 18.5-15.25 13.667-7.292 21.75-10.125 15.75-5 23-6.5 15.208-2.667 23.875-3.5c-13.667-9.333-20.5-24.167-20.5-44.5v-39.115c-7.549 2.247-14.99 4.902-22.3 7.994-25.597 10.827-48.594 26.335-68.353 46.093-19.758 19.759-35.267 42.756-46.093 68.354-11.199 26.479-16.878 54.631-16.878 83.674s5.679 57.195 16.879 83.675c10.827 25.597 26.335 48.594 46.093 68.353s42.756 35.267 68.353 46.093c26.48 11.2 54.632 16.879 83.675 16.879s57.195-5.679 83.675-16.879c25.598-10.827 48.595-26.335 68.354-46.093 19.758-19.758 35.266-42.756 46.093-68.353 11.199-26.48 16.878-54.632 16.878-83.675s-5.679-57.195-16.879-83.675c-10.827-25.597-26.335-48.595-46.093-68.353z" />
<glyph unicode="&#xe21b;" d="M64 224.004c0-74.013 44.161-137.984 108.215-168.289l-91.589 244.392c-10.654-23.254-16.626-48.991-16.626-76.103zM385.614 233.436c0 23.117-8.527 39.118-15.827 51.571-9.729 15.41-18.86 28.447-18.86 43.858 0 17.187 13.383 33.188 32.243 33.188 0.852 0 1.66-0.102 2.488-0.151-34.158 30.485-79.67 49.098-129.654 49.098-67.080 0-126.093-33.523-160.422-84.284 4.505-0.141 8.753-0.227 12.356-0.227 20.077 0 51.17 2.376 51.17 2.376 10.345 0.591 11.566-14.217 1.229-15.411 0 0-10.405-1.184-21.976-1.775l69.917-202.553 42.022 122.728-29.911 79.825c-10.344 0.592-20.139 1.775-20.139 1.775-10.351 0.596-9.136 16.001 1.219 15.411 0 0 31.7-2.376 50.567-2.376 20.073 0 51.175 2.376 51.175 2.376 10.351 0.591 11.57-14.217 1.223-15.411 0 0-10.417-1.186-21.974-1.775l69.39-201.009 19.156 62.316c8.29 25.875 14.608 44.45 14.608 60.45zM259.371 207.648l-57.613-163.029c17.208-4.929 35.397-7.619 54.244-7.619 22.358 0 43.802 3.759 63.759 10.6-0.509 0.801-0.987 1.652-1.375 2.577l-59.015 157.471zM424.481 313.714c0.826-5.955 1.294-12.343 1.294-19.229 0-18.965-3.646-40.298-14.601-66.975l-58.643-165.136c57.081 32.414 95.469 92.644 95.469 161.629 0 32.515-8.53 63.080-23.519 89.711zM256 480c-141.385 0-256-114.615-256-256s114.615-256 256-256 256 114.615 256 256-114.615 256-256 256zM256 0c-123.712 0-224 100.288-224 224s100.288 224 224 224 224-100.288 224-224-100.288-224-224-224z" />
<glyph unicode="&#xe21c;" d="M478.898 288h-28.703c-17.583 0-32.994 14.871-34.195 32v0c0.002 91.334-73.629 160-165.595 160h-83.912c-91.906 0-166.428-74-166.493-165.333v-181.399c0-91.327 74.587-165.268 166.492-165.268h179.21c91.974 0 166.298 73.941 166.298 165.268v117.191c0 18.251-14.72 37.541-33.102 37.541zM160 352h96c17.6 0 32-14.4 32-32s-14.4-32-32-32h-96c-17.6 0-32 14.4-32 32s14.4 32 32 32zM352 96h-192c-17.6 0-32 14.4-32 32s14.4 32 32 32h192c17.6 0 32-14.4 32-32s-14.4-32-32-32z" />
<glyph unicode="&#xe21d;" d="M288.016 256l-0.001-117.092c0-29.709-0.385-46.828 2.765-55.25 3.125-8.377 10.959-17.073 19.495-22.101 11.342-6.794 24.271-10.188 38.854-10.188 25.927 0 41.239 3.424 66.871 20.27v-76.972c-21.85-10.276-40.933-16.297-58.662-20.461-17.75-4.121-36.93-6.203-57.532-6.203-23.414 0-37.228 2.943-55.205 8.828-17.979 5.934-33.33 14.403-46.010 25.27-12.725 10.961-21.511 22.604-26.424 34.916-4.913 12.318-7.358 30.207-7.358 53.622v179.55h-68.713v72.503c20.104 6.521 42.582 15.894 56.89 28.076 14.377 12.225 25.883 26.853 34.553 43.972 8.696 17.073 14.674 38.856 17.936 65.258h82.542l-0.001-127.998h127.984v-96h-127.984z" />
<glyph unicode="&#xe21e;" d="M487.655 191.031c1.406 10.4 2.215 20.973 2.215 31.736 0 129.155-105.271 233.872-235.103 233.872-12.904 0-25.555-1.060-37.866-3.080-22.072 14.384-48.342 22.767-76.612 22.767-77.523 0-140.289-62.808-140.289-140.306 0-28.198 8.299-54.394 22.59-76.389-1.925-12.017-2.909-24.323-2.909-36.859 0-129.176 105.217-233.882 235.085-233.882 14.657 0 28.927 1.427 42.796 3.933 21.55-13.369 46.934-21.148 74.146-21.148 77.502-0.001 140.292 62.823 140.292 140.313-0.003 29.293-8.96 56.528-24.345 79.043zM276.74 50.404c-74.705-3.892-109.664 12.637-141.689 42.691-35.765 33.567-21.398 71.854 7.74 73.801 29.122 1.944 46.607-33.013 62.15-42.736 15.524-9.688 74.594-31.76 105.794 3.908 33.976 38.828-22.594 58.92-64.059 65.002-59.203 8.766-133.95 40.792-128.135 103.907 5.816 63.074 53.582 95.414 103.85 99.976 64.077 5.817 105.791-9.707 138.785-37.86 38.15-32.529 17.508-68.894-6.799-71.82-24.212-2.909-51.404 53.504-104.791 54.352-55.027 0.864-92.217-57.261-24.286-73.784 67.966-16.505 140.75-23.286 166.961-85.417 26.229-62.137-40.754-128.125-115.521-132.020z" />
<glyph unicode="&#xe21f;" d="M512 184.778l-256 198.713-256-198.714v81.019l256 198.713 256-198.714zM448 192v-192h-128v128h-128v-128h-128v192l192 144z" />
<glyph unicode="&#xe220;" d="M192 186.667c0 0 101.972 61.18 159.383 37.013 11.901 18.134 23.624 37.668 35.101 57.611-56.163 13.76-130.484 1.376-130.484 1.376s95.106 57.061 153.333 39.2c11.675 21.054 23.027 41.821 33.978 61.152-46.388 3.134-91.311-4.352-91.311-4.352s59.574 35.744 113.289 41.799c16.899 27.43 32.585 48.94 46.711 59.534-280.5 0-448-320-512-512h32l96 160c0 0 32-32 128 0 22.737 7.579 45.474 28.626 67.786 56.967-56.308 14.277-131.786 1.7-131.786 1.7z" />
<glyph unicode="&#xe221;" d="M423.609 192c17.6 0 35.956 13.846 40.791 30.769l46.418 162.463c4.835 16.922-5.609 30.768-23.209 30.768h-327.609c0 35.346-28.654 64-64 64h-96v-64h96v-272c0-26.51 21.49-48 48-48h304c17.673 0 32 14.327 32 32s-14.327 32-32 32h-288v32h263.609zM160 352h289.403l-27.429-96h-261.974v96zM192 8c0-22-18-40-40-40h-16c-22 0-40 18-40 40v16c0 22 18 40 40 40h16c22 0 40-18 40-40v-16zM480 8c0-22-18-40-40-40h-16c-22 0-40 18-40 40v16c0 22 18 40 40 40h16c22 0 40-18 40-40v-16z" />
<glyph unicode="&#xe222;" d="M32 384h448v-96h-448zM32 256h448v-96h-448zM32 128h448v-96h-448z" />
<glyph unicode="&#xe223;" d="M512 281.475l-176.89 25.704-79.11 160.291-79.108-160.291-176.892-25.704 128-124.769-30.216-176.176 158.216 83.179 158.216-83.179-30.217 176.176 128.001 124.769zM256 103.251l-111.731-58.74 21.338 124.415-90.393 88.111 124.92 18.152 55.866 113.198 55.868-113.198 124.918-18.152-90.394-88.111 21.339-124.415-111.731 58.74z" />
<glyph unicode="&#xe224;" d="M512 281.475l-176.89 25.704-79.11 160.291-79.108-160.291-176.892-25.704 128-124.769-30.216-176.176 158.216 83.179 158.216-83.179-30.217 176.176 128.001 124.769z" />
<glyph unicode="&#xe225;" d="M512 300.922c0-43.181-18.609-82.015-48.245-108.922h0.245l-160-160c-16-16-32-32-48-32s-32 16-48 32l-159.755 160c-29.636 26.907-48.245 65.741-48.245 108.922 0 81.229 65.849 147.078 147.078 147.078 43.181 0 82.015-18.609 108.922-48.245 26.907 29.636 65.741 48.245 108.922 48.245 81.228 0 147.078-65.849 147.078-147.078z" />
<glyph unicode="&#xe226;" d="M512 300.922c0 81.229-65.85 147.078-147.078 147.078-43.181 0-82.015-18.609-108.922-48.245-26.907 29.636-65.741 48.245-108.922 48.245-81.229 0-147.078-65.849-147.078-147.078 0-43.181 18.609-82.015 48.245-108.922h-0.245l160-160c16-16 32-32 48-32s32 16 48 32l159.755 160c29.636 26.907 48.245 65.741 48.245 108.922zM420.734 239.384l-161.989-162.129c-0.839-0.839-1.766-1.766-2.745-2.74-0.98 0.975-1.907 1.901-2.745 2.74l-161.989 162.128c-17.583 15.964-27.266 37.819-27.266 61.539 0 45.809 37.269 83.078 83.078 83.078 23.72 0 45.575-9.683 61.538-27.266l47.384-52.19 47.384 52.189c15.964 17.584 37.818 27.267 61.538 27.267 45.809 0 83.078-37.269 83.078-83.078 0-23.72-9.684-45.575-27.266-61.538z" />
<glyph unicode="&#xe227;" d="M438.627 278.627l-160 160c-12.496 12.497-32.757 12.497-45.254 0l-160-160c-12.497-12.497-12.497-32.758 0-45.255 12.497-12.498 32.758-12.498 45.255 0l105.372 105.373v-306.745c0-17.673 14.327-32 32-32s32 14.327 32 32v306.745l105.373-105.373c6.248-6.248 14.438-9.372 22.627-9.372s16.379 3.124 22.627 9.373c12.497 12.497 12.497 32.757 0 45.254z" />
<glyph unicode="&#xe228;" d="M310.627 41.373l160 160c12.497 12.496 12.497 32.758 0 45.255l-160 160c-12.497 12.496-32.758 12.496-45.255 0-12.497-12.497-12.497-32.758 0-45.255l105.373-105.373h-306.745c-17.673 0-32-14.327-32-32s14.327-32 32-32h306.745l-105.373-105.373c-6.248-6.248-9.372-14.438-9.372-22.627s3.124-16.379 9.372-22.627c12.497-12.497 32.758-12.497 45.255 0z" />
<glyph unicode="&#xe229;" d="M73.373 169.373l160-160c12.496-12.497 32.758-12.497 45.255 0l160 160c12.496 12.497 12.496 32.758 0 45.255-12.497 12.497-32.758 12.497-45.255 0l-105.373-105.373v306.745c0 17.673-14.327 32-32 32s-32-14.327-32-32v-306.745l-105.373 105.373c-6.248 6.248-14.438 9.372-22.627 9.372s-16.379-3.124-22.627-9.372c-12.497-12.497-12.497-32.758 0-45.255z" />
<glyph unicode="&#xe22a;" d="M201.373 406.627l-160-160c-12.497-12.496-12.497-32.758 0-45.254l160-160c12.497-12.496 32.758-12.496 45.255 0s12.498 32.758 0 45.254l-105.374 105.373h306.746c17.673 0 32 14.326 32 32s-14.327 32-32 32h-306.746l105.373 105.373c6.248 6.248 9.373 14.438 9.373 22.627s-3.124 16.379-9.372 22.627c-12.498 12.497-32.758 12.497-45.255 0z" />
<glyph unicode="&#xe22b;" d="M0 416l192-192v-192l128 32v160l192 192z" />
<glyph unicode="&#xe22c;" d="M256 480c141.376 0 256-114.624 256-256s-114.624-256-256-256-256 114.624-256 256 114.624 256 256 256zM256 32c106.016 0 192 85.984 192 192s-85.984 192-192 192-192-85.984-192-192 85.984-192 192-192zM128 256v-64h160v160h-64v-96z" />
<glyph unicode="&#xe22d;" d="M436.992 405.024c-99.936 99.968-262.048 99.968-362.016 0-100-99.968-100-262.080 0-362.016 99.968-100 262.080-100 362.016 0 100 99.936 100 262.048 0 362.016zM391.744 88.256c-74.976-75.008-196.544-75.008-271.52 0-74.976 74.976-74.976 196.544 0 271.52s196.544 74.976 271.52 0c75.008-75.008 75.008-196.544 0-271.52zM301.248 224l67.872-67.872-45.248-45.248-67.872 67.872-67.872-67.872-45.28 45.248 67.872 67.872-67.872 67.872 45.28 45.28 67.872-67.872 67.872 67.872 45.248-45.28z" />
<glyph unicode="&#xe22e;" d="M448-32h-384c-35.328 0-64 28.672-64 64v384c0 35.328 28.672 64 64 64h288l-64-64h-192c-17.664 0-32-14.336-32-32v-320c0-17.696 14.336-32 32-32h320c17.696 0 32 14.304 32 32v192l64 64v-288c0-35.328-28.672-64-64-64zM448 416l-32 32v32c0 0 96 0.992 96-96h-32l-32 32zM160 128v96h32l64-64v-32h-96zM448 352l-160-160-64 64 160 160 64-64z" />
<glyph unicode="&#xe22f;" d="M448 480h-384c-35.328 0-64-28.672-64-64v-384c0-35.328 28.672-64 64-64h384c35.328 0 64 28.672 64 64v384c0 35.328-28.672 64-64 64zM256 288c58.944 0 64-64 64-64s1.888-64-64-64c-65.856 0-64 64-64 64s5.056 64 64 64zM448 64c0-17.696-14.304-32-32-32h-320c-17.696 0-32 14.304-32 32v160c0 17.696 14.304 32 32 32h36.544c-2.688-10.272-4.544-20.864-4.544-32 0-70.688 57.312-128 128-128s128 57.312 128 128c0 11.136-1.888 21.728-4.544 32h36.544c17.696 0 32-14.304 32-32v-160zM448 352c0-17.664-14.304-32-32-32h-32c-17.664 0-32 14.336-32 32v32c0 17.664 14.336 32 32 32h32c17.696 0 32-14.336 32-32v-32z" />
<glyph unicode="&#xe230;" d="M359.328 213.056c15.36 21.088 24.672 46.848 24.672 74.944v64c0 70.688-57.312 128-128 128s-128-57.312-128-128v-64c0-28.096 9.312-53.856 24.672-74.944-89.888-19.872-152.672-64.768-152.672-117.056v-64c0-35.328 28.672-64 64-64h384c35.328 0 64 28.672 64 64v64c0 52.288-62.784 97.184-152.672 117.056zM192 352c0 35.328 28.672 64 64 64s64-28.672 64-64v-64c0-35.328-28.672-64-64-64s-64 28.672-64 64v64zM448 32h-384v64c0 35.328 85.984 64 192 64 105.984 0 192-28.672 192-64v-64z" />
<glyph unicode="&#xe231;" d="M348.928 480h-217.856c-37.056 0-67.072-29.6-67.072-66.048v-379.872c0-36.512 30.016-66.080 67.072-66.080h217.888c37.024 0 67.040 29.568 67.040 66.048v379.904c0 36.448-30.016 66.048-67.072 66.048zM240 1.024c-13.888 0-25.12 11.104-25.12 24.768s11.264 24.768 25.12 24.768 25.152-11.104 25.152-24.768-11.264-24.768-25.152-24.768zM352 128c0-18.24-13.504-32-32-32h-160c-18.496 0-32 13.76-32 32v256c0 18.24 13.504 32 32 32h160c18.496 0 32-13.76 32-32v-256z" />
<glyph unicode="&#xe232;" d="M254.912 480c0 0-174.912-1.984-174.912-191.008 0-96 174.912-320.992 174.912-320.992s177.088 223.008 177.088 321.984c0 188.032-177.088 190.016-177.088 190.016zM255.328 64c0 0-111.168 154.592-111.36 220.608-0.416 129.888 111.296 131.392 111.36 131.392 0.192 0 113.344-1.472 112.288-130.688-0.512-68.064-112.288-221.312-112.288-221.312zM256 352c-26.496 0-48-21.504-48-48s21.504-48 48-48 48 21.504 48 48-21.504 48-48 48z" />
<glyph unicode="&#xe233;" d="M256.16 351.84h-64v-64h-64v-64h64v-64h64v64h64v64h-64v64zM500.32 35.424l-92.448 92.448c25.344 36.288 40.32 80.352 40.32 127.968 0 123.712-100.32 224-224 224s-224-100.288-224-224c0-123.712 100.288-224 224-224 47.616 0 91.712 14.976 128 40.32l92.448-92.448c15.36-15.36 40.32-15.36 55.68 0s15.36 40.288 0 55.712zM224.16 95.808c-88.352 0-160 71.616-160 160s71.648 160 160 160c88.384 0 160-71.616 160-160 0.032-88.384-71.584-160-160-160z" />
<glyph unicode="&#xe234;" d="M500.32 35.424l-92.448 92.448c25.344 36.288 40.32 80.352 40.32 127.968 0 123.712-100.32 224-224 224s-224-100.288-224-224c0-123.712 100.288-224 224-224 47.616 0 91.712 14.976 128 40.32l92.448-92.448c15.36-15.36 40.32-15.36 55.68 0s15.36 40.288 0 55.712zM224.16 95.808c-88.352 0-160 71.616-160 160s71.648 160 160 160c88.384 0 160-71.616 160-160 0.032-88.384-71.584-160-160-160zM128.16 223.84h192v64h-192v-64z" />
<glyph unicode="&#xe235;" d="M500.32 35.424l-92.448 92.448c25.344 36.288 40.32 80.352 40.32 127.968 0 123.712-100.32 224-224 224s-224-100.288-224-224c0-123.712 100.288-224 224-224 47.616 0 91.712 14.976 128 40.32l92.448-92.448c15.36-15.36 40.32-15.36 55.68 0s15.36 40.288 0 55.712zM224.16 95.808c-88.352 0-160 71.616-160 160s71.648 160 160 160c88.384 0 160-71.616 160-160 0.032-88.384-71.584-160-160-160z" />
<glyph unicode="&#xe236;" d="M224 0h160v160h-160v-160zM32 0h160v160h-160v-160zM223.875 291.906c15.734 1.75 33.438 3.703 43.688 4.859 41.938 4.672 79.688 42.438 84.344 84.36 4.656 41.875-25.5 72.063-67.344 67.36-32.718-3.657-62.64-27.485-76.562-57.672-13.922 30.188-43.844 54.015-76.547 57.703-41.859 4.672-72.063-25.515-67.359-67.39 4.672-41.922 42.438-79.656 84.328-84.36 10.266-1.156 27.969-3.14 43.703-4.859-0.25-2.109-0.125-3.906-0.125-3.906h32c0 0 0.125 1.797-0.125 3.906zM277.688 409.656c22.625 2.531 39-13.781 36.438-36.438-2.5-22.656-22.938-43.078-45.563-45.609-22.688-2.516-39 13.797-36.469 36.453s22.969 43.078 45.594 45.594zM147.453 327.61c-22.625 2.531-43.031 22.953-45.563 45.609s13.797 38.969 36.406 36.438c22.656-2.516 43.078-22.938 45.611-45.594 2.53-22.656-13.798-38.969-36.454-36.453zM224 288v-96h192v96h-192zM0 192h192v96h-192v-96z" horiz-adv-x="448" />
<glyph unicode="&#xe237;" d="M472.934 71.086c-47.063-63.764-128.998-103.825-216.934-103.075-87.936-0.75-169.872 39.312-216.934 103.075l-39.061-39.077v127.997h127.997l-35.187-35.17c28.219-46.719 75.437-80.296 131.185-89.812v193.513c-55.123 14.265-95.998 63.889-95.998 123.466 0 70.685 57.312 127.997 127.998 127.997s127.998-57.312 127.998-127.998c0-59.577-40.875-109.201-95.998-123.466v-193.512c55.748 9.516 102.967 43.093 131.184 89.812l-35.186 35.17h127.996v-127.997l-39.060 39.077zM319.998 352.002c0 35.343-28.654 63.999-63.998 63.999s-63.999-28.656-63.999-63.999c0-35.343 28.655-63.999 63.999-63.999 35.344 0.001 63.998 28.657 63.998 63.999z" />
<glyph unicode="&#xe238;" d="M416 480h-64v-64h64v64zM480 480h-32v-96h-128v96h-128v-96h-128v96h-32c-17.688 0-32-14.328-32-32v-448c0-17.688 14.312-32 32-32h448c17.688 0 32 14.312 32 32v448c0 17.672-14.312 32-32 32zM448 32h-384v288h384v-288zM160 480h-64v-64h64v64zM288 256h-64v-64h64v64zM384 256h-64v-64h64v64zM192 160h-64v-64h64v64zM192 256h-64v-64h64v64zM288 160h-64v-64h64v64zM384 160h-64v-64h64v64z" />
<glyph unicode="&#xe239;" d="M480 384h-128v64c0 17.688-14.312 32-32 32h-128c-17.688 0-32-14.312-32-32v-64h-128c-17.688 0-32-14.312-32-32v-32h64v-320c0-17.688 14.312-32 32-32h320c17.688 0 32 14.312 32 32v320h64v32c0 17.688-14.312 32-32 32zM224 416h64v-32h-64v32zM384 32h-256v288h256v-288z" />
<glyph unicode="&#xe23a;" d="M480-32h-256c-17.688 0-32 14.312-32 32v256c0 17.688 14.312 32 32 32h256c17.688 0 32-14.312 32-32v-256c0-17.688-14.312-32-32-32zM448 224h-192v-192h192v192zM256 416h-192v-192h64v-64h-96c-17.688 0-32 14.312-32 32v256c0 17.688 14.312 32 32 32h256c17.688 0 32-14.312 32-32v-96h-64v64z" />
<glyph unicode="&#xe23b;" d="M448.035 223.953c0 106.051-85.953 192.035-192.035 192.035-106.051 0-192.035-85.984-192.035-192.035 0-66.687 34.005-125.43 85.613-159.857l-53.482-53.463 42.57-42.633 69.842 69.843c15.19-3.865 31.1-5.925 47.492-5.925 16.394 0 32.305 2.059 47.493 5.923l69.841-69.841 42.57 42.633-53.477 53.457c51.612 34.427 85.608 93.174 85.608 159.863zM256 95.93c-70.7 0-128.023 57.322-128.023 128.023s57.323 128.023 128.023 128.023 128.023-57.323 128.023-128.023c0-70.701-57.323-128.023-128.023-128.023zM448.035 480c-35.351 0-64.012-28.662-64.012-64.012 0-2.909 0.213-5.768 0.589-8.574 21.307-14.963 39.885-33.542 54.849-54.849 2.807-0.376 5.665-0.588 8.574-0.588 35.351 0 64.012 28.661 64.012 64.012 0 35.349-28.661 64.011-64.012 64.011zM72.539 352.565c14.963 21.307 33.542 39.886 54.849 54.849 0.376 2.807 0.588 5.665 0.588 8.574 0.001 35.35-28.661 64.012-64.011 64.012s-64.012-28.662-64.012-64.012c0-35.351 28.661-64.012 64.012-64.012 2.909 0.001 5.767 0.213 8.574 0.589zM288.006 255.959v64.012h-64.012v-128.024h96.018v64.012z" />
<glyph unicode="&#xe23c;" d="M256 437.334q8.834 0 15.084-6.25t6.25-15.084v-170.667h170.666q8.834 0 15.084-6.25t6.25-15.083-6.25-15.084-15.084-6.25h-170.667v-170.666q0-8.834-6.25-15.084t-15.084-6.25-15.084 6.25-6.25 15.084v170.667h-170.667q-8.834 0-15.084 6.25t-6.25 15.084 6.25 15.084 15.084 6.25h170.667v170.667q0 8.833 6.25 15.083t15.084 6.25z" />
<glyph unicode="&#xe23d;" d="M64 245.333h384q8.834 0 15.084-6.25t6.25-15.083-6.25-15.084-15.084-6.25h-384q-8.834 0-15.084 6.25t-6.25 15.084 6.25 15.084 15.084 6.25z" />
<glyph unicode="&#xe23e;" d="M220.57 141.363c-13.44-70.477-29.85-138.061-78.49-173.363-15.001 106.547 22.041 186.547 39.245 271.488-29.338 49.408 3.533 148.787 65.433 124.288 76.16-30.131-65.945-183.629 29.44-202.803 99.61-20.019 140.262 172.8 78.515 235.494-89.241 90.573-259.789 2.099-238.797-127.513 5.094-31.693 37.837-41.319 13.082-85.043-57.114 12.647-74.163 57.702-71.962 117.76 3.533 98.279 88.32 167.091 173.363 176.614 107.571 12.058 208.512-39.475 222.413-140.646 15.693-114.176-48.512-237.85-163.558-228.941-31.155 2.381-44.237 17.817-68.685 32.666z" />
<glyph unicode="&#xe23f;" d="M283.856 463.625c-77.124 0-145.383-38.502-186.7-97.255 8.551-5.579 16.886-13.229 24.947-23.063 30.823 46.089 80.662 78.425 138.327 85.376l23.422-39.636 23.423 39.637c88.639-10.683 159.095-81.137 169.784-169.774l-39.642-23.426 39.644-23.426c-7.144-59.262-41.084-110.282-89.233-140.861 3.067-6.991 4.796-14.141 5.1-21.51 0.224-5.387-0.33-10.476-1.447-15.306 71.671 38.512 120.521 114.197 120.521 201.1 0 125.803-102.342 228.145-228.144 228.145zM342.075 87.893c-52.594 42.267-67.3 21.49-91.163-2.37-16.66-16.666-58.82 18.135-95.222 54.541-36.405 36.409-71.201 78.563-54.542 95.225 23.865 23.861 44.636 38.576 2.357 91.154-42.265 52.598-70.439 12.217-93.556-10.901-26.688-26.678-1.406-126.098 96.853-224.372 98.272-98.26 197.691-123.525 224.363-96.857 23.113 23.12 63.507 51.291 10.913 93.579zM181.899 199.776c0 46.75 54.73 55.078 54.73 73.321 0 8.852-7.086 12.569-13.641 12.569-12.044 0-18.768-13.455-18.768-13.455l-23.024 15.406c0 0 11.69 27.273 44.63 27.273 20.719 0 43.211-11.867 43.211-38.784 0-39.495-51.006-47.113-51.893-63.405h53.844v-26.563h-87.671c-0.887 4.957-1.419 9.383-1.419 13.639zM283.935 235.546l48.886 77.223h37.898v-70.314h15.051v-25.677h-15.051v-30.642h-30.642v30.642h-56.142v18.768zM340.076 242.455v28.337c0 6.909 1.065 14.172 1.065 14.172h-0.354c0 0-2.653-7.795-6.2-13.108l-19.123-29.047v-0.355h24.613z" />
<glyph unicode="&#xe240;" d="M215.792 198.841c0-14.519-11.769-26.288-26.288-26.288s-26.288 11.769-26.288 26.288 11.769 26.288 26.288 26.288c14.519-0 26.288-11.769 26.288-26.288zM322.498 225.13c-14.519 0-26.288-11.769-26.288-26.288s11.77-26.288 26.288-26.288c14.519 0 26.288 11.769 26.288 26.288s-11.77 26.288-26.288 26.288zM512 213.495v-49.959c0-25.084-20.334-45.418-45.418-45.418h-32.957c-32.656-90.675-116.048-145.443-177.625-145.443s-144.969 54.768-177.625 145.443h-32.957c-25.084 0-45.417 20.334-45.417 45.418v49.959c0 17.261 9.63 32.27 23.81 39.955 0.476 70.931 21.149 126.329 61.534 164.626 40.058 37.987 97.475 57.25 170.655 57.25s130.599-19.262 170.656-57.248c40.385-38.298 61.058-93.695 61.534-164.626 14.179-7.685 23.81-22.695 23.81-39.956zM415.873 198.675c0 11.687-0.598 22.667-1.481 33.307-20.157 18.441-56.749 32.435-102.93 37.634 6.063-6.819 11.301-15.787 14.478-27.594-28.286 22.285-83.811 16.981-125.81 66.849-2.407 2.786-4.489 5.447-6.291 7.878-0.021 0.029-0.044 0.052-0.065 0.081l0.005-0.002c-7.471 10.104-10.019 16.114-10.162 9.462-1.232-57.319-41.858-102.002-86.972-108.307-0.285-6.303-0.519-12.668-0.519-19.309 0-24.227 3.957-46.307 10.683-66.206 25.34-30.566 67.189-39.197 104.229-41.486 6.875 10.94 22.304 18.577 40.27 18.577 24.359 0 44.105-14.017 44.105-31.308s-19.747-31.308-44.106-31.308c-18.738 0-34.704 8.308-41.096 20.006-25.887 1.505-54.345 5.918-79.708 17.894 35.669-52.573 90.963-80.375 125.494-80.375 54.262 0 159.873 68.548 159.873 194.207zM460.846 258.913c-2.891 123.776-73.541 189.161-204.846 189.161s-201.955-65.385-204.846-189.161h17.474c6.389 41.718 19.893 76.029 40.395 102.409 32.672 42.038 82.122 63.353 146.977 63.353s114.305-21.316 146.978-63.353c20.501-26.381 34.006-60.691 40.395-102.409h17.474z" />
<glyph unicode="&#xe241;" d="M17.965 164.164v217.839c0 12.105 9.813 21.918 21.918 21.918h217.726c12.105 0 21.918-9.813 21.918-21.918v-217.839c0-4.034-3.271-7.306-7.306-7.306h-246.949c-4.035 0-7.306 3.272-7.306 7.306zM193.785 89.538c0-25.106-20.353-45.459-45.459-45.459s-45.459 20.353-45.459 45.459 20.353 45.459 45.459 45.459 45.459-20.352 45.459-45.459zM171.054 89.538c0 12.553-10.177 22.73-22.73 22.73s-22.73-10.176-22.73-22.73 10.176-22.73 22.73-22.73 22.73 10.178 22.73 22.73zM109.172 134.998h-101.865c-4.035 0-7.306-3.271-7.306-7.306v-22.166c0-4.035 3.271-7.306 7.306-7.306h81.65c2.132 14.627 9.514 27.548 20.215 36.778zM431.635 89.538c0-25.106-20.353-45.459-45.459-45.459s-45.459 20.353-45.459 45.459 20.353 45.459 45.459 45.459c25.106 0 45.459-20.352 45.459-45.459zM408.905 89.538c0 12.553-10.176 22.73-22.73 22.73s-22.73-10.176-22.73-22.73 10.176-22.73 22.73-22.73 22.73 10.178 22.73 22.73zM512 127.692v-22.166c0-4.035-3.271-7.306-7.306-7.306h-59.151c-4.231 29.015-29.202 51.389-59.366 51.389-30.169 0-55.142-22.375-59.373-51.389h-119.108c-2.132 14.627-9.515 27.547-20.215 36.778h112.936v208.976c0 8.070 6.542 14.612 14.612 14.612h68.974c19.421 0 37.573-9.646 48.44-25.742l44.466-65.858c6.522-9.66 10.007-21.049 10.007-32.706v-99.281h17.781c4.034 0 7.305-3.271 7.305-7.306zM437.884 265.298l-35.557 50.525c-1.368 1.945-3.598 3.101-5.975 3.101h-55.463c-4.034 0-7.306-3.271-7.306-7.306v-50.525c0-4.035 3.271-7.306 7.306-7.306h91.020c5.918 0 9.381 6.671 5.974 11.511z" />
<glyph unicode="&#xe242;" d="M255.177 292.547v-210.985l167.97 31.877v102.8c0 4.303 3.748 7.646 8.023 7.155l20.665-3.198c3.636-0.418 6.381-3.495 6.381-7.155v-119.423c0-3.394-2.37-6.327-5.688-7.041l-183.875-39.536c-8.886-1.911-18.073-1.931-26.968-0.060l-181.901 38.262c-3.264 0.687-5.63 3.526-5.717 6.861l-3.142 121.285c-0.099 3.803 2.779 7.028 6.569 7.361l154.513 13.577c2.679 0.236 5.005 1.945 6.030 4.432l23.278 56.531c3.004 7.296 13.863 5.148 13.863-2.741zM49.178 361.626l-48.489-103.643c-2.369-5.065 1.684-10.78 7.247-10.218l182.096 18.4c2.573 0.26 4.809 1.88 5.858 4.244l58.591 131.999-200.083-36.75c-2.29-0.421-4.236-1.923-5.222-4.031zM254.484 402.408l61.997-136.125c1.084-2.379 3.371-3.984 5.977-4.194l181.751-14.617c5.477-0.44 9.41 5.168 7.13 10.167l-47.401 103.916c-0.981 2.149-2.952 3.68-5.277 4.099l-204.179 36.752z" />
<glyph unicode="&#xe243;" d="M445.376 243.68c0 108.544-80.592 198.608-185.184 213.424v3.312c0 10.336-8.912 18.736-20.112 18.736-11.216 0-20.144-8.4-20.144-18.736v-23.808c0-10 8.112-18.112 18.112-18.112h1.888c91.84-5.2 164.992-81.648 164.992-174.768 0-96.512-78.528-175.040-175.056-175.040-46.96 0-89.616 18.672-121.056 48.944-6.656 6.384-17.072 6.784-24.16 0.848-1.104-0.912-2.208-1.808-3.312-2.752-3.936-3.312-6.304-8.128-6.48-13.248s1.824-10.096 5.52-13.664c36.448-35.328 85.040-57.936 139.568-60.464v-15.776h-32.704c-15.664 0-28.368-12.688-28.368-28.336v-12.56h162.4v12.48c0 15.664-12.688 28.352-28.336 28.352h-32.688v17.696c104.544 14.848 185.12 104.912 185.12 213.472zM229.856 93.2c83.104 0 150.48 67.376 150.48 150.48 0 83.088-67.376 150.464-150.48 150.464-83.072 0-150.464-67.376-150.464-150.464 0-83.104 67.376-150.48 150.464-150.48zM353.712 243.68c0-9.84-1.136-19.392-3.312-28.56-1.12 1.776-8.992 13.312-10.432 17.088-1.456 3.792-20-21.904-21.744-23.36-1.776-1.472-1.424 31.84-1.424 36.208s-6.112 10.224-9.568 13.136c-3.52 2.928-23.696 22.064-29.52 19.856-6.464-2.448 12.72-16.928 11.28-18.4-1.472-1.472-16.56-5.536-22.72-6.688-6.192-1.184-10.624 7.296-12.656 11.088-2.048 3.776-7.84 17.216-8.976 20.72-1.152 3.52-5.216-5.056-4.64-8.832 0.576-3.808 6.112-14.816 8.704-18.912 2.624-4.080 3.776-9.024 3.776-12.848 0-3.792 5.488-6.416 11.248-8.16 5.856-1.76 0-5.552-2-7.888-2.048-2.352-10.4-7.008-19.136-11.376-8.688-4.368-17.952-19.28-21.104-25.408-3.2-6.128-10.448-17.216-16.528-22.176s-36.496-15.488-47.2-12.832c-10.688 2.592-12.432 40.56-11.568 47.824 0.88 7.296 5.792 19.008 5.2 25.696-0.544 6.72 2.272 17.824 3.744 20.448 1.504 2.64 8.416-0.272 11.616 0.016 3.184 0.304-3.2 8.224-4.928 7.936s-5.776 2.384-8.176 3.584c-2.272 1.152-4.848 8.288-13.824 10.32-9.008 2.048-10.16 13.392-11.328 18.944-1.152 5.568 6.096 20.064 7.568 22.976 1.456 2.928 19.68 18.848 19.68 18.848s9.712 4.992 12.48 4.832c8.096-0.496 15.968-8.24 15.968-8.24s11.584-7.12 19.024-19.024c6.224-9.936 19.328-11.728 19.328-11.728 7.28 0.624 12 6.208 12.352 8.24 1.312 6.672-3.776 12.272-10.832 11.92-1.472-0.080-2.032-2.928-4.336-2.928-2.32 0-1.76 2.928-2.624 5.872-0.864 2.896-1.088 6.368-2.48 9.872-1.44 3.504-2.592 7.808-5.472 11.008-2.912 3.232-6.944 0.8-10.704 1.664-3.76 0.896-9.424-2.144-13.472-1.84-4.080 0.304-6.096 3.488-5.808 6.416s10.224 6.576 15.12 7.168c4.944 0.576 9.376 1.12 10.8 3.168 1.472 2.048 8.448 3.152 10.768 2.864 2.32-0.304 6.032-1.872 8.272-4.768 3.024-4 3.184-10.288 10.224-9.36 2.72 0.352 9.92 4.432 4.448 7.664-3.072 1.824-7.232 4.656-4.304 9.92 0.4 0.736 1.248 1.28 2.448 1.696 65.040-3.76 116.768-57.776 116.768-123.664zM219.216 168.88c2.304 4.064 7.248 4.976 12.72 6.128 5.76 1.248 0-12.56-2.96-14.336-2.864-1.728-12.128-5.824-14.72-4.784-2.624 1.056 2.592 8.896 4.96 12.992z" />
<glyph unicode="&#xe244;" d="M271.312 396.224h-18.256c-77.632-4.912-139.536-69.824-139.536-149.152 0-54.528 24.064-98.096 65.632-123.856v-42.912c0-12.528 4.656-17.376 11.92-22.208 1.808-1.168 2.96-3.168 3.088-5.36 0.128-2.176 0.336-4.992-2.416-5.664-11.248 0-11.216-12.336-11.216-12.336 0-4.992 0-27.664 0-27.664 0-6.192 5.008-11.2 11.216-11.2h7.504c6 0 10.368-4.96 10.368-4.96s26.384-21.568 52.576-21.568c26.56 0 52.56 21.568 52.56 21.568s4.368 4.96 10.368 4.96h7.504c6.224 0 11.216 5.008 11.216 11.2 0 0 0 22.656 0 27.664 0 0 0.032 12.336-11.216 12.336-2.752 0.656-2.528 3.52-2.4 5.664 0.16 2.192 1.28 4.192 3.088 5.36 7.248 4.832 11.904 9.664 11.904 22.208v42.912c41.568 25.744 65.632 69.328 65.632 123.856 0 79.328-61.872 144.256-139.536 149.152zM314.032 155.68l-8.368-4.336v-39.824c0-6.816-4.72-12.624-11.344-14.064l-17.632-3.712c-2.976-0.656-17.184-3.008-28.992 0l-17.632 3.712c-6.624 1.44-11.344 7.248-11.344 14.064v39.84l-8.368 4.336c-42.016 21.6-50.832 60.176-50.832 88.672 0 57.136 46 103.616 102.672 103.808 56.656-0.192 102.656-46.672 102.656-103.808 0-28.512-8.816-67.088-50.816-88.688zM450.528 379.232c0.56 3.664-0.464 7.392-2.816 10.32-1.376 1.728-2.784 3.424-4.192 5.136-2.4 2.832-5.84 4.56-9.584 4.768-3.664 0.208-7.328-1.136-10.016-3.68l-24.080-22.896c-5.056-4.88-5.52-12.864-1.072-18.288 0.304-0.32 0.528-0.64 0.832-0.976 4.416-5.472 12.336-6.592 18.128-2.528l27.184 19.072c3.024 2.128 5.056 5.408 5.616 9.072zM260.8 418.368c0.4 0.016 0.816 0.016 1.216 0.016 7.040 0.048 12.864 5.536 13.312 12.576l2.128 33.152c0.24 3.696-1.040 7.328-3.616 10.032-2.496 2.72-6.064 4.256-9.744 4.272-2.24 0-4.448-0.016-6.672-0.064-3.696-0.096-7.216-1.712-9.68-4.48s-3.696-6.448-3.376-10.128l2.864-33.104c0.608-7.008 6.528-12.368 13.568-12.272zM93.008 202.912c-1.616 6.88-8.256 11.248-15.216 10.16l-32.816-5.392c-3.664-0.592-6.912-2.656-8.992-5.728-2.064-3.040-2.8-6.864-2-10.464 0.48-2.16 1.008-4.336 1.568-6.448 0.912-3.616 3.264-6.656 6.512-8.4 3.248-1.776 7.088-2.224 10.624-0.992l31.648 10.16c6.688 2.176 10.624 9.12 8.96 15.968-0.096 0.304-0.192 0.736-0.288 1.136zM124.88 350.288c0.272 0.336 0.512 0.672 0.784 0.992 4.352 5.568 3.664 13.52-1.552 18.256l-24.592 22.32c-2.752 2.496-6.4 3.744-10.096 3.456-3.68-0.304-7.104-2.096-9.424-4.976-1.408-1.744-2.768-3.488-4.112-5.264-2.24-2.976-3.152-6.704-2.528-10.368 0.624-3.648 2.72-6.864 5.792-8.944l27.664-18.416c5.856-3.904 13.76-2.608 18.064 2.944zM491.84 206.624c-2.16 3.008-5.44 5.024-9.104 5.552l-32.864 4.656c-6.976 0.976-13.536-3.6-15.008-10.48-0.16-0.352-0.24-0.864-0.336-1.248-1.616-6.88 2.48-13.68 9.264-15.712l31.808-9.456c3.616-1.040 7.408-0.592 10.592 1.2 3.184 1.872 5.504 4.992 6.336 8.592 0.496 2.224 0.976 4.336 1.408 6.464 0.832 3.648 0.032 7.408-2.096 10.432z" />
<glyph unicode="&#xe245;" d="M127.392 194.016c-4.656-8.336-2.544-18.784 4.976-24.64l22.288-17.36c7.936-6.192 19.296-5.232 26.080 2.208l13.088 14.336 18.848-15.92c3.904-3.312 8.96-4.944 14.048-4.496 5.104 0.432 9.808 2.912 13.12 6.816l35.904 42.448c-11.28 8.304-20.336 19.392-26.048 32.304-4.464 10-6.96 21.072-6.96 32.72 0 44.464 36.176 80.64 80.64 80.64 9.088 0 17.824-1.52 25.984-4.304 11.424-3.92 21.696-10.32 30.208-18.56l45.28 53.568c6.88 8.128 5.856 20.304-2.272 27.168l-9.248 7.808 4.752 5.168c3.552 3.872 5.344 9.008 5.008 14.256-0.336 5.232-2.784 10.112-6.784 13.488l-40 33.792c-4 3.392-9.216 4.992-14.416 4.448-5.216-0.528-9.984-3.168-13.2-7.28l-4.368-5.6-9.184 7.76c-8.128 6.864-20.304 5.84-27.152-2.288l-186.4-220.48c-6.32-7.472-6.032-18.464 0.656-25.616l14.576-15.584-9.424-16.8zM401.712 243.344c-4.624-18.944-15.936-35.296-31.28-46.368 21.744-27.584 42.432-67.76 42.432-121.184v-53.792h-269.776v3.392l88.736 32.464v16.528c0 10.656-8.64 19.28-19.28 19.28h-184.352c-10.656 0-19.28-8.624-19.28-19.28v-16.528l80.208-29.408v-22.656c0-20.88 16.912-37.792 37.776-37.792h302.128c20.88 0 37.76 16.912 37.76 37.776v70c0.032 77.168-33.6 132.56-65.072 167.568zM323.36 325.056c-34.56 0-62.672-28.112-62.672-62.672s28.112-62.672 62.672-62.672 62.672 28.112 62.672 62.672c0 34.576-28.112 62.672-62.672 62.672z" />
<glyph unicode="&#xe246;" d="M423.208 337.857c-7.941 9.845-22.358 11.389-32.203 3.447-9.845-7.941-11.388-22.359-3.447-32.203 24.443-30.302 37.363-66.944 37.363-105.966 0-93.144-75.777-168.921-168.921-168.921-93.143 0-168.92 75.778-168.92 168.921 0 87.063 66.208 158.944 150.918 167.96l-6.84-33.939c-0.983-4.881 0.946-9.89 4.949-12.851 4.002-2.959 9.357-3.338 13.736-0.967l78.557 42.512c3.348 1.813 5.718 5.018 6.47 8.75s-0.192 7.604-2.577 10.572l-55.959 69.622c-3.119 3.881-8.202 5.607-13.038 4.427s-8.556-5.050-9.539-9.93l-6.373-31.622c-114.419-4.539-206.107-99.022-206.107-214.534 0-118.398 96.324-214.723 214.722-214.723s214.723 96.324 214.723 214.723c0.001 48.891-16.874 96.737-47.514 134.722zM160.747 169.428l-16.54-14.967c-1.934-1.749-3.036-4.233-3.036-6.838v-11.484c0-5.094 4.129-9.223 9.222-9.223h89.731c5.093 0 9.222 4.129 9.222 9.223v15.368c0 5.093-4.128 9.222-9.222 9.222h-40.114l7.205 6.004c0.083 0.069 0.164 0.14 0.244 0.21 23.548 21.054 39.232 40.028 39.232 64.19 0 29.294-21.013 48.221-53.535 48.221-16.177 0-32.010-4.401-44.582-12.392-3.731-2.372-5.254-7.055-3.632-11.167l4.892-12.396c1.002-2.541 3.078-4.506 5.668-5.368 2.591-0.861 5.432-0.53 7.754 0.905 7.815 4.825 15.567 7.27 23.040 7.27 17.886 0 20.593-11.192 20.606-17.901-0.421-15.344-15.212-31.204-46.155-58.877zM304.912 272.563l-51.715-83.246c-0.908-1.462-1.39-3.147-1.39-4.868v-14.008c0-5.092 4.13-9.221 9.222-9.221h54.518v-25.082c0-5.094 4.128-9.223 9.221-9.223h19.575c5.093 0 9.221 4.129 9.221 9.223v25.082h8.042c5.093 0 9.222 4.129 9.222 9.221v12.935c0 5.093-4.129 9.222-9.222 9.222h-8.042v75.1c0 5.092-4.128 9.223-9.221 9.223h-31.598c-3.188 0-6.15-1.649-7.833-4.358zM315.548 192.599h-24.021l24.036 42.459-0.015-42.459z" />
<glyph unicode="&#xe247;" d="M458.974 22.597h-33.792v-34.816h68.608v68.608h-34.816zM128.428 22.597h109.909v-34.816h-109.909v34.816zM276.805 22.597h109.909v-34.816h-109.909v34.816zM56.168 56.389h-34.816v-68.608h68.608v34.816h-33.792zM21.352 353.143h34.816v-109.909h-34.816v109.909zM21.352 204.766h34.816v-109.909h-34.816v109.909zM21.352 391.611h34.816v33.792h33.792v34.816h-68.608zM276.805 460.219h109.909v-34.816h-109.909v34.816zM128.428 460.219h109.909v-34.816h-109.909v34.816zM425.182 425.403h33.792v-33.792h34.816v68.608h-68.608zM458.974 353.143h34.816v-109.909h-34.816v109.909zM458.974 204.766h34.816v-109.909h-34.816v109.909zM386.371 177.133c-11.634 9.543-26.316 14.798-41.342 14.798-10.591 0-20.821-2.536-29.952-7.25l-35.365 38.23 111.421 120.448-25.558 23.642-109.577-118.455-109.577 118.455-25.558-23.642 111.421-120.448-35.365-38.23c-9.131 4.714-19.359 7.25-29.952 7.25-15.026 0-29.709-5.255-41.342-14.798-27.811-22.811-31.878-63.995-9.067-91.806 12.44-15.166 30.833-23.864 50.464-23.865 0.001 0 0 0 0.001 0 15.025 0 29.708 5.255 41.341 14.798 25.547 20.955 31.056 57.413 14.101 84.767l33.532 36.249 33.532-36.249c-16.955-27.354-11.447-63.812 14.101-84.767 11.634-9.543 26.316-14.798 41.342-14.798 19.631 0 38.024 8.699 50.464 23.865 11.050 13.473 16.192 30.442 14.48 47.781-1.712 17.341-10.075 32.976-23.547 44.026zM186.286 103.179c-5.504-4.514-12.165-6.901-19.262-6.901-9.163 0-17.745 4.056-23.546 11.128-10.637 12.967-8.74 32.171 4.227 42.808 5.504 4.514 12.165 6.901 19.262 6.901 1.41 0 2.804-0.108 4.179-0.296 7.557-1.036 14.459-4.849 19.367-10.832 3.157-3.849 5.202-8.25 6.189-12.812 2.338-10.804-1.298-22.517-10.416-29.996zM368.519 107.406c-5.801-7.072-14.382-11.128-23.545-11.128-7.098 0-13.759 2.387-19.262 6.901-9.118 7.479-12.753 19.192-10.416 29.996 0.986 4.562 3.031 8.962 6.188 12.812 4.908 5.985 11.81 9.798 19.368 10.833 1.375 0.188 2.769 0.296 4.178 0.296 7.098 0 13.759-2.386 19.262-6.901 6.282-5.152 10.181-12.443 10.979-20.528s-1.6-15.998-6.752-22.279z" />
<glyph unicode="&#xe248;" d="M293.067 409.815v-16.64c0-20.439-16.628-37.067-37.067-37.067s-37.067 16.628-37.067 37.067v16.64h-74.724l-137.644-142.516 91.269-91.269 36.798 38.501v-176.346h242.735v176.347l36.798-38.501 91.269 91.269-137.644 142.515h-74.724zM414.703 223.634l-70.615 73.885v-226.054h-176.175v226.054l-70.615-73.885-44.072 44.072 105.11 108.83h29.306c7.495-30.783 35.301-53.707 68.359-53.707s60.863 22.923 68.358 53.707h29.306l105.11-108.83-44.072-44.072z" />
<glyph unicode="&#xe249;" d="M420.25 416l54.844-384h-438.219l54.875 384h328.5zM448 448h-384l-64-448h512l-64 448zM384 352c0 17.688-14.313 32-32 32s-32-14.313-32-32c0-10.938 5.844-20.125 14.25-25.906-7.75-57.469-40.406-102.094-78.25-102.094-37.813 0-70.5 44.625-78.25 102.094 8.406 5.781 14.25 14.968 14.25 25.906 0 17.688-14.313 32-32 32s-32-14.313-32-32c0-12.563 7.438-23.188 17.938-28.406 9.187-75.657 54.093-131.594 110.062-131.594s100.875 55.938 110.063 131.594c10.531 5.218 17.937 15.843 17.937 28.406z" />
<glyph unicode="&#xe24a;" d="M384 304c0 97.062-57.406 176-128 176-70.563 0-128-78.938-128-176h-64v-336h384v336h-64zM256 448c52.938 0 96-64.594 96-144h-192c0 79.406 43.063 144 96 144zM416 0h-320v272h320v-272zM144 224c-8.844 0-16-7.156-16-16s7.156-16 16-16 16 7.156 16 16-7.156 16-16 16zM368 224c-8.844 0-16-7.156-16-16s7.156-16 16-16 16 7.156 16 16-7.156 16-16 16z" />
<glyph unicode="&#xe24b;" d="M448 416h-384l-64-448h512l-64 448zM366.063 291.594c-9.188-75.657-54.094-131.594-110.063-131.594s-100.875 55.938-110.063 131.594c-10.499 5.218-17.937 15.843-17.937 28.406 0 17.688 14.313 32 32 32s32-14.313 32-32c0-10.938-5.844-20.125-14.25-25.906 7.75-57.469 40.438-102.094 78.25-102.094 37.844 0 70.5 44.625 78.25 102.094-8.406 5.781-14.25 14.968-14.25 25.906 0 17.688 14.313 32 32 32s32-14.313 32-32c0-12.563-7.406-23.188-17.937-28.406z" />
<glyph unicode="&#xe24c;" d="M448 320h-98.438c-9.499 93.875-46.531 160-93.562 160-47.063 0-84.063-66.125-93.563-160h-98.437l-64-352h512l-64 352zM256 448c25.125 0 52.469-52.469 61.031-128h-122.062c8.562 75.531 35.906 128 61.031 128zM176 216c-13.25 0-24 10.75-24 24s10.75 24 24 24 24-10.75 24-24-10.75-24-24-24zM336 216c-13.25 0-24 10.75-24 24s10.75 24 24 24 24-10.75 24-24-10.75-24-24-24z" />
<glyph unicode="&#xe24d;" d="M448 320h-98.438c-9.499 93.875-46.531 160-93.562 160-47.063 0-84.063-66.125-93.563-160h-98.437l-64-352h512l-64 352zM256 448c25.125 0 52.469-52.469 61.031-128h-122.062c8.562 75.531 35.906 128 61.031 128zM90.688 288h330.594l52.375-288h-435.313l52.344 288zM176 264c-13.25 0-24-10.75-24-24s10.75-24 24-24 24 10.75 24 24-10.75 24-24 24zM336 264c-13.25 0-24-10.75-24-24s10.75-24 24-24 24 10.75 24 24-10.75 24-24 24z" />
<glyph unicode="&#xe24e;" d="M384 304c0 97.062-57.406 176-128 176-70.563 0-128-78.938-128-176h-64v-336h384v336h-64zM144 240c-8.844 0-16 7.156-16 16s7.156 16 16 16 16-7.156 16-16-7.156-16-16-16zM256 448c52.938 0 96-64.594 96-144h-192c0 79.406 43.063 144 96 144zM368 240c-8.844 0-16 7.156-16 16s7.156 16 16 16 16-7.156 16-16-7.156-16-16-16z" />
<glyph unicode="&#xe24f;" d="M416 256v-256h-320v256h320zM448 288h-384v-320h384v320zM176 192c-8.844 0-16 7.156-16 16s7.156 16 16 16 16-7.156 16-16-7.156-16-16-16zM336 192c-8.844 0-16 7.156-16 16s7.156 16 16 16 16-7.156 16-16-7.156-16-16-16zM193.438 320c6.688 75.063 36 128 62.563 128s55.844-52.938 62.531-128h32.156c-7.219 93.094-45.469 160-94.688 160-49.25 0-87.469-66.906-94.688-160h32.126z" />
<glyph unicode="&#xe250;" d="M32.001 480h64c15.469 0 28.719-11.063 31.469-26.281l6.875-37.719h345.656c11.094 0 21.391-5.75 27.219-15.188s6.359-21.188 1.406-31.125l-96-192c-5.422-10.844-16.5-17.688-28.625-17.688h-203.094l5.813-32h165.281c17.672 0 32-14.313 32-32s-14.328-32-32-32h-192c-15.469 0-28.719 11.063-31.469 26.281l-59.25 325.72h-37.281c-17.688 0-32 14.313-32 32s14.312 32 32 32zM364.22 224l64 128h-282.25l23.281-128h194.969zM320.001 32c17.672 0 32-14.313 32-32s-14.328-32-32-32-32 14.313-32 32 14.329 32 32 32zM192.001 32c17.688 0 32-14.313 32-32s-14.313-32-32-32-32 14.313-32 32 14.312 32 32 32z" />
<glyph unicode="&#xe251;" d="M64 288v-320h384v320h-384zM176 192c-8.844 0-16 7.156-16 16s7.156 16 16 16 16-7.156 16-16-7.156-16-16-16zM336 192c-8.844 0-16 7.156-16 16s7.156 16 16 16 16-7.156 16-16-7.156-16-16-16zM193.438 320c6.688 75.063 36 128 62.563 128s55.844-52.938 62.531-128h32.156c-7.219 93.094-45.469 160-94.688 160-49.25 0-87.469-66.906-94.688-160h32.126z" />
<glyph unicode="&#xe252;" d="M31.994 480h64c15.469 0 28.719-11.063 31.469-26.281l41.781-229.719h194.969l87.156 174.312c7.891 15.813 27.078 22.219 42.938 14.313 15.812-7.906 22.218-27.125 14.312-42.938l-96-192c-5.422-10.844-16.5-17.688-28.625-17.688h-203.094l5.813-32h165.281c17.672 0 32-14.313 32-32s-14.328-32-32-32h-192c-15.469 0-28.719 11.063-31.469 26.281l-59.25 325.72h-37.281c-17.688 0-32 14.313-32 32s14.313 32 32 32zM319.994 32c17.672 0 32-14.313 32-32s-14.328-32-32-32-32 14.313-32 32 14.328 32 32 32zM191.994 32c17.688 0 32-14.313 32-32s-14.313-32-32-32-32 14.313-32 32 14.313 32 32 32z" />
<glyph unicode="&#xe253;" d="M63.999 373.334h170.666v-42.666h42.666v42.666c0 23.466-19.2 42.666-42.666 42.666h-170.667c-23.466 0-42.666-19.2-42.666-42.666v-298.666c0-23.466 16.234-42.666 39.68-42.666h24.32v85.334h-21.334v256zM469.333 288h-298.666c-23.466 0-42.666-19.2-42.666-42.666v-170.666c0-23.466 19.2-42.666 42.666-42.666h298.666c23.466 0 42.666 19.2 42.666 42.666v170.667c0 23.467-19.2 42.667-42.666 42.667zM192 138.666h-42.666v42.666h42.666v-42.666zM469.333 74.666h-256v170.667h256v-170.667z" />
<glyph unicode="&#xe254;" d="M0 73.143v109.714q0 14.857 10.857 25.714t25.715 10.857h146.286q14.857 0 25.714-10.857t10.857-25.714v-109.714q0-14.857-10.857-25.714t-25.714-10.857h-146.286q-14.857 0-25.715 10.857t-10.857 25.714zM0 292.572v109.714q0 14.857 10.857 25.715t25.715 10.857h146.286q14.857 0 25.714-10.857t10.857-25.715v-109.714q0-14.857-10.857-25.714t-25.714-10.857h-146.286q-14.857 0-25.715 10.857t-10.857 25.714zM256 73.143v109.714q0 14.857 10.857 25.714t25.714 10.857h146.286q14.857 0 25.714-10.857t10.857-25.714v-109.714q0-14.857-10.857-25.714t-25.714-10.857h-146.286q-14.857 0-25.714 10.857t-10.857 25.714zM256 292.572v109.714q0 14.857 10.857 25.715t25.714 10.857h146.286q14.857 0 25.714-10.857t10.857-25.715v-109.714q0-14.857-10.857-25.714t-25.714-10.857h-146.286q-14.857 0-25.714 10.857t-10.857 25.714z" horiz-adv-x="476" />
<glyph unicode="&#xe255;" d="M0 64v54.857q0 11.428 8 19.428t19.428 8h91.428q11.429 0 19.429-8t8-19.428v-54.857q0-11.428-8-19.428t-19.428-8h-91.428q-11.428 0-19.428 8t-8 19.428zM0 210.286v54.857q0 11.429 8 19.429t19.428 8h91.428q11.429 0 19.429-8t8-19.428v-54.857q0-11.428-8-19.428t-19.428-8h-91.428q-11.428 0-19.428 8t-8 19.428zM0 356.572v54.857q0 11.428 8 19.428t19.428 8h91.428q11.429 0 19.429-8t8-19.428v-54.857q0-11.428-8-19.428t-19.428-8h-91.428q-11.428 0-19.428 8t-8 19.428zM182.857 64v54.857q0 11.428 8 19.428t19.429 8h274.286q11.428 0 19.428-8t8-19.428v-54.857q0-11.428-8-19.428t-19.428-8h-274.286q-11.428 0-19.428 8t-8 19.428zM182.857 210.286v54.857q0 11.429 8 19.429t19.429 8h274.286q11.428 0 19.428-8t8-19.428v-54.857q0-11.428-8-19.428t-19.428-8h-274.286q-11.428 0-19.428 8t-8 19.428zM182.857 356.572v54.857q0 11.428 8 19.428t19.429 8h274.286q11.428 0 19.428-8t8-19.428v-54.857q0-11.428-8-19.428t-19.428-8h-274.286q-11.428 0-19.428 8t-8 19.428z" />
<glyph unicode="&#xe256;" d="M36.571 384.286q0 21.143 14.715 35t38.428 13.857 38-13.857 14.572-35q0.286-20.857-14.428-34.857t-38.715-14h-0.572q-23.428 0-37.715 14t-14.285 34.857zM41.999 13.714v283.143h94.285v-283.143h-94.285zM188.286 13.714q0.571 114 0.571 184.857t-0.286 84.572l-0.286 13.714h94v-41.143h-0.572q5.714 9.143 11.714 16t16.143 14.857 24.857 12.428 32.714 4.428q48.857 0 78.572-32.428t29.714-95v-162.286h-94v151.429q0 30-11.572 47t-36.143 17q-18 0-30.143-9.857t-18.143-24.428q-3.143-8.572-3.143-23.143v-158h-94z" />
<glyph unicode="&#xe257;" d="M0 73.143q54.285 46 82 113.572t27.715 142.428q0 47.143 27.428 74.857t75.429 33.428q-2.286 5.143-2.286 10.572 0 11.428 8 19.428t19.428 8 19.428-8 8-19.428q0-5.428-2.286-10.572 48-5.714 75.428-33.428t27.428-74.857q0-74.857 27.714-142.428t82-113.572q0-14.857-10.857-25.714t-25.714-10.857h-128q0-30.286-21.428-51.714t-51.714-21.429-51.714 21.429-21.428 51.714h-128q-14.857 0-25.715 10.857t-10.857 25.714zM187.429 36.572q0-20.857 14.714-35.572t35.571-14.714q4.572 0 4.572 4.572t-4.572 4.572q-16.857 0-29 12.143t-12.143 29q0 4.572-4.571 4.572t-4.572-4.572z" horiz-adv-x="476" />
<glyph unicode="&#xe258;" d="M1.429 146.286q-2.857 4.857 0 10.286l72.285 128q0.285 0 0 0.286l-46 79.714q-3.428 6.286-0.285 10.572 2.572 4.285 9.143 4.285h68.285q11.428 0 18.857-12.857l46.857-81.714q-2.857-5.143-73.428-130.286-7.715-13.143-18.572-13.143h-68.285q-6 0-8.857 4.857zM153.143 190.572q5.143 9.143 151.714 269.143 7.143 12.857 18.286 12.857h68.857q6.286 0 8.857-4.285 3.143-4.572 0-10.572l-150.857-266.857v-0.286l96-175.714q3.143-5.714 0.286-10.572-2.857-4.286-9.143-4.286h-68.286q-12 0-18.857 12.857z" horiz-adv-x="403" />
<glyph unicode="&#xe259;" d="M-0.285 323.429q0 3.143 0.857 4.572l1.143 1.714q4.285 5.428 16.285 5.428l78.285 0.571q3.428-0.571 6.572-1.857t4.572-2.429l1.428-0.857q4.572-3.143 6.857-9.143 5.715-14.286 13.143-29.571t11.714-23.286l4.571-8.286q8.286-17.143 16-29.714t13.857-19.572 11.857-11 9.714-4 7.714 1.428q0.571 0.286 1.429 1.428t3.429 6.286 3.857 13.428 2.714 23.143 0 35.715q-0.571 11.428-2.571 20.857t-4 13.143l-1.714 3.428q-7.143 9.714-24.286 12.286-3.714 0.572 1.429 6.857 4.857 5.428 10.857 8.572 15.143 7.428 68.286 6.857 23.428-0.286 38.572-3.714 5.714-1.428 9.572-3.857t5.857-6.857 3-9.143 1-13-0.286-15.714-0.714-20.143-0.428-23.571q0-3.143-0.286-12t-0.143-13.714 1-11.572 3.286-11.143 6.428-7q2.286-0.572 4.857-1.143t7.428 3.143 10.857 9.857 14.857 19.143 19.428 30.715q17.143 29.714 30.572 64.286 1.143 2.857 2.857 5t3.143 3l1.143 0.857 1.428 0.714t3.714 0.857 5.714 0.143l82.286 0.572q11.143 1.428 18.285-0.714t8.857-4.714l1.715-2.857q6.572-18.285-42.857-84-6.857-9.143-18.572-24.285-22.286-28.572-25.714-37.428-4.857-11.714 4-23.143 4.857-6 23.143-23.428h0.286l1.143-1.143q40.285-37.428 54.572-63.143 0.857-1.428 1.857-3.572t2-7.572-0.143-9.714-7.143-7.857-16.857-3.572l-73.143-1.143q-6.857-1.428-16 1.428t-14.857 6.286l-5.714 3.428q-8.572 6-20 18.286t-19.572 22.143-17.428 16.572-16.143 4.428q-0.857-0.286-2.286-1t-4.857-4.143-6.143-8.428-4.857-14.857-1.857-22.143q0-4.286-1-7.857t-2.143-5.286l-1.143-1.428q-5.143-5.428-15.143-6.286h-32.857q-20.286-1.143-41.714 4.714t-37.572 15.143-29.428 18.857-20.143 16.428l-7.143 6.857q-2.857 2.857-7.857 8.572t-20.428 26-30.285 43.143-35 60.286-37.285 77.714q-1.714 4.572-1.714 7.714z" horiz-adv-x="549" />
<glyph unicode="&#xe25a;" d="M0 148.286q0 32.857 19.857 70t56.428 73.714q48.285 48.286 97.572 67.428t70.429-2q18.572-18.286 5.714-59.714-1.143-4-0.286-5.714t2.857-2 4.143 0.143 3.857 1l1.714 0.572q39.714 16.857 70.286 16.857t43.714-17.428q12.857-18 0-50.857-0.572-3.714-1.286-5.714t1.286-3.571 3.428-2.143 4.857-1.714q16.286-5.143 29.428-13.428t22.857-23.286 9.714-33.286q0-19.428-10.572-39.857t-31.143-39.143-48.143-33.572-64.572-23.714-77.286-8.857-78.572 9.572-68.715 26.572-49 43.143-18.572 57zM51.715 128q2.572-27.428 25.428-48.572t59.571-31.143 78.428-6q63.714 6.572 105.572 40.428t37.857 75.572q-2.572 27.428-25.428 48.572t-59.572 31.143-78.428 6q-63.714-6.571-105.572-40.428t-37.857-75.572zM118.143 102.429q-11.572 26.428 1.857 53.572 13.428 26.572 43.286 39.714t60.143 5.428q31.715-8.286 45.285-34.143t0.714-54.428q-12.857-29.143-45.143-42.857t-64-3.428q-30.571 9.714-42.143 36.143zM141.429 110.143q2.571-9.857 12.286-14.428t21.285-0.714 17.857 13.572q6 9.714 3.143 19.714t-12.857 14.286q-9.714 4-20.857 0.286t-17.143-13.143q-6.286-9.714-3.714-19.572zM201.429 150.572q-4.857-8.857 3.714-12.857 4-1.428 8.286 0.143t6.286 5.286q2.286 3.714 1 7.572t-5 5.286q-4 1.428-8.143-0.143t-6.143-5.286zM332.857 400.572q-1.714 8 2.714 14.714t12.428 8.429q35.143 7.428 69.714-3.286t59.428-38.428q24.857-27.428 32.143-63.572t-3.857-69q-2.572-7.714-9.714-11.428t-14.857-1.143-11.428 9.714-1.428 14.857q8 23.428 2.857 49.143t-22.857 45.143q-17.714 19.714-42.286 27.286t-49.428 2.428q-8-1.715-14.857 2.714t-8.572 12.428zM349.714 335.714q-1.428 6.857 2.286 12.714t10.572 7.286q17.143 3.714 34-1.572t28.857-18.714 15.572-31-1.857-33.572q-2.286-6.572-8.428-9.714t-12.714-1.143q-6.572 2.286-9.714 8.429t-1.143 12.714q5.714 18-6.857 31.714t-30.572 10q-6.857-1.429-12.857 2.286t-7.143 10.572z" />
<glyph unicode="&#xe25b;" d="M0 218.857q0 53.428 23.857 99.857t65.572 77 92.857 39.143v-138.572q0-72-36.143-131.285t-94.428-87.572q-51.715 61.428-51.715 141.428zM113.715 26.857q39.428 24.857 67.285 60.286t37.572 76.572q10-41.143 37.857-76.572t67.286-60.286q-48.857-26.857-105.143-26.857-56 0-104.857 26.857zM256.572 296.286v138.572q51.143-8.572 92.857-39.143t65.572-77 23.857-99.857q0-80-51.714-141.428-58.286 28.286-94.428 87.572t-36.143 131.286z" />
<glyph unicode="&#xe25c;" d="M0 42.857v360h169.714q24.857 0 44.286-4t36.143-13.572 25.715-27.572 9-44q0-51.714-49.143-75.143 32.571-9.143 49.143-32.857t16.572-58.286q0-21.428-7-39t-18.857-29.572-28.143-20.286-34.571-12-38.286-3.714h-174.571zM79.143 104h84.571q58.572 0 58.572 47.714 0 51.428-56.857 51.428h-86.285v-99.143zM79.143 257.429h80.285q22.286 0 35.286 10.428t13 32.428q0 41.143-54.286 41.143h-74.285v-84zM324.857 172.857q0 59.428 37.286 98.714t96.143 39.286q39.428 0 68.715-19.428t43.715-51.143 14.428-70.857q0-4.857-0.572-13.428h-188q0-31.714 16.428-49t47.572-17.286q18 0 34.857 9.143t21.715 24.857h63.143q-28.572-87.714-122-87.714-61.143 0-97.286 37.714t-36.143 99.143zM382 343.143h146v35.428h-146v-35.428zM396.572 201.143h116.572q-5.143 55.714-57.143 55.714-25.714 0-41.714-15t-17.714-40.714z" horiz-adv-x="585" />
<glyph unicode="&#xe25d;" d="M47.714 404h80.857q7.429-62.286 20-113.857t29.857-90.572 34.714-67.286 40-55.714q48.286 48.286 82 116-40.572 20.572-63.714 62.857t-23.143 95.143q0 54.857 29.715 89.857t81.143 35q50.857 0 78-30.143t27.143-85q0-45.428-16.572-81.714-2-0.286-5.572-0.857t-13.143-0.571-18 1.714-17.714 7.286-14.428 14.714q8.857 29.428 8.857 52.572 0 24.857-8.286 37.714t-22.572 12.857q-15.143 0-24.286-14.143t-9.143-40.143q0-53.143 30-83.857t76.286-30.714q17.714 0 34.572 4v-56.572q-28.857-6.572-56.572-6.572-18.572-38.857-47.286-77.428t-51.857-61.572-36.572-30.428q-22.857-12.857-46.286 0.857-8 4.857-17.286 12.428t-24.286 23.857-29.286 36.714-30.715 52.572-30.143 69.714-26.143 89.857-20.143 111.428z" />
<glyph unicode="&#xe25e;" d="M360.257 167.846c-14.346 0-27.483-4.858-38.033-12.969l-108.823 65.286c0.521 3.336 0.897 6.756 0.897 10.238 0 3.503-0.375 6.901-0.897 10.238l108.823 65.286c10.55-8.111 23.687-12.97 38.033-12.97 34.53 0 62.554 28.004 62.554 62.554s-28.024 62.554-62.554 62.554-62.554-28.003-62.554-62.554c0-3.482 0.375-6.901 0.917-10.238l-108.823-65.307c-10.55 8.132-23.708 12.991-38.053 12.991-34.55 0-62.554-28.003-62.554-62.554 0-34.53 28.004-62.554 62.554-62.554 14.346 0 27.503 4.858 38.053 12.969l108.823-65.286c-0.542-3.336-0.917-6.736-0.917-10.238 0-34.53 28.024-62.554 62.554-62.554s62.554 28.024 62.554 62.554-28.024 62.554-62.554 62.554z" />
<glyph unicode="&#xe25f;" d="M460.8 358.4h-409.6c-28.16 0-51.2-23.040-51.2-51.2v-153.6c0-28.16 23.040-51.2 51.2-51.2h409.6c28.185 0 51.2 23.040 51.2 51.2v153.6c0 28.16-23.014 51.2-51.2 51.2zM460.8 153.6h-409.6v153.6h409.6v-153.6zM179.2 281.088h-102.4v-101.351h102.4v101.351z" />
<glyph unicode="&#xe260;" d="M317.414 142.899c6.861-6.938 6.861-18.151 0-25.063-6.861-6.938-17.945-6.938-24.807 0l-98.048 100.019c-6.861 6.938-6.861 18.151 0 25.063l98.048 100.045c6.861 6.938 17.945 6.938 24.807 0s6.861-18.125 0-25.063l-80.384-87.501 80.384-87.501z" />
<glyph unicode="&#xe261;" d="M343.501 291.815c6.938 6.861 18.151 6.861 25.063 0 6.938-6.861 6.938-17.945 0-24.806l-100.019-98.048c-6.938-6.861-18.15-6.861-25.063 0l-100.045 98.048c-6.912 6.861-6.912 17.945 0 24.806 6.938 6.861 18.125 6.861 25.063 0l87.501-80.384 87.501 80.384z" />
<glyph unicode="&#xe262;" d="M168.474 168.986c-6.938-6.861-18.125-6.861-25.063 0-6.912 6.861-6.938 17.945 0 24.832l100.045 97.997c6.938 6.861 18.151 6.861 25.063 0l100.045-98.023c6.938-6.887 6.938-17.971 0-24.832s-18.125-6.861-25.063 0l-87.526 80.41-87.501-80.384z" />
<glyph unicode="&#xe263;" d="M194.585 142.899c-6.861-6.938-6.861-18.151 0-25.063 6.835-6.938 17.946-6.938 24.806 0l98.048 100.019c6.861 6.938 6.861 18.151 0 25.063l-98.048 100.045c-6.861 6.938-17.946 6.938-24.806 0s-6.861-18.125-0.025-25.037l80.409-87.527-80.384-87.501z" />
</font>
</defs>
</svg>
